  0
SECTION
  2
HEADER
  9
$ACADVER
  1
AC1015
  9
$ACADMAINTVER
 70
     6
  9
$DWGCODEPAGE
  3
ANSI_932
  9
$INSBASE
 10
0.0
 20
0.0
 30
0.0
  9
$EXTMIN
 10
823.5126583721894
 20
2819.973600132258
 30
0.0
  9
$EXTMAX
 10
5501.260300603006
 20
7499.779487088967
 30
0.0
  9
$LIMMIN
 10
823.5126583721894
 20
2819.973600132258
  9
$LIMMAX
 10
5501.260300603006
 20
7499.779487088967
  9
$ORTHOMODE
 70
     0
  9
$REGENMODE
 70
     1
  9
$FILLMODE
 70
     1
  9
$QTEXTMODE
 70
     0
  9
$MIRRTEXT
 70
     1
  9
$LTSCALE
 40
2.702250118452693
  9
$ATTMODE
 70
     1
  9
$TEXTSIZE
 40
2.5
  9
$TRACEWID
 40
1.0
  9
$TEXTSTYLE
  7
Standard
  9
$CLAYER
  8
0
  9
$CELTYPE
  6
ByLayer
  9
$CECOLOR
 62
   256
  9
$CELTSCALE
 40
1.0
  9
$DISPSILH
 70
     0
  9
$DIMSCALE
 40
1.0
  9
$DIMASZ
 40
2.5
  9
$DIMEXO
 40
0.625
  9
$DIMDLI
 40
3.75
  9
$DIMRND
 40
0.0
  9
$DIMDLE
 40
0.0
  9
$DIMEXE
 40
1.25
  9
$DIMTP
 40
0.0
  9
$DIMTM
 40
0.0
  9
$DIMTXT
 40
2.5
  9
$DIMCEN
 40
2.5
  9
$DIMTSZ
 40
0.0
  9
$DIMTOL
 70
     0
  9
$DIMLIM
 70
     0
  9
$DIMTIH
 70
     0
  9
$DIMTOH
 70
     0
  9
$DIMSE1
 70
     0
  9
$DIMSE2
 70
     0
  9
$DIMTAD
 70
     1
  9
$DIMZIN
 70
     0
  9
$DIMBLK
  1

  9
$DIMASO
 70
     1
  9
$DIMSHO
 70
     1
  9
$DIMPOST
  1

  9
$DIMAPOST
  1

  9
$DIMALT
 70
     0
  9
$DIMALTD
 70
     3
  9
$DIMALTF
 40
0.03937007874016
  9
$DIMLFAC
 40
1.0
  9
$DIMTOFL
 70
     1
  9
$DIMTVP
 40
0.0
  9
$DIMTIX
 70
     0
  9
$DIMSOXD
 70
     0
  9
$DIMSAH
 70
     0
  9
$DIMBLK1
  1

  9
$DIMBLK2
  1

  9
$DIMSTYLE
  2
Standard
  9
$DIMCLRD
 70
     0
  9
$DIMCLRE
 70
     0
  9
$DIMCLRT
 70
     0
  9
$DIMTFAC
 40
0.75
  9
$DIMGAP
 40
0.625
  9
$DIMJUST
 70
     0
  9
$DIMSD1
 70
     0
  9
$DIMSD2
 70
     0
  9
$DIMTOLJ
 70
     0
  9
$DIMTZIN
 70
     8
  9
$DIMALTZ
 70
     0
  9
$DIMALTTZ
 70
     0
  9
$DIMUPT
 70
     0
  9
$DIMDEC
 70
     2
  9
$DIMTDEC
 70
     2
  9
$DIMALTU
 70
     2
  9
$DIMALTTD
 70
     3
  9
$DIMTXSTY
  7
Standard
  9
$DIMAUNIT
 70
     0
  9
$DIMADEC
 70
     0
  9
$DIMALTRND
 40
0.0
  9
$DIMAZIN
 70
     0
  9
$DIMDSEP
 70
    46
  9
$DIMATFIT
 70
     3
  9
$DIMFRAC
 70
     0
  9
$DIMLDRBLK
  1

  9
$DIMLUNIT
 70
     2
  9
$DIMLWD
 70
    -2
  9
$DIMLWE
 70
    -2
  9
$DIMTMOVE
 70
     0
  9
$LUNITS
 70
     2
  9
$LUPREC
 70
     4
  9
$SKETCHINC
 40
1.0
  9
$FILLETRAD
 40
10.0
  9
$AUNITS
 70
     0
  9
$AUPREC
 70
     0
  9
$MENU
  1
.
  9
$ELEVATION
 40
0.0
  9
$PELEVATION
 40
0.0
  9
$THICKNESS
 40
0.0
  9
$LIMCHECK
 70
     0
  9
$CHAMFERA
 40
10.0
  9
$CHAMFERB
 40
10.0
  9
$CHAMFERC
 40
20.0
  9
$CHAMFERD
 40
0.0
  9
$SKPOLY
 70
     0
  9
$TDCREATE
 40
2455188.75
  9
$TDUCREATE
 40
2455188.375
  9
$TDUPDATE
 40
2455188.75
  9
$TDUUPDATE
 40
2455188.375
  9
$TDINDWG
 40
0.0000000116
  9
$TDUSRTIMER
 40
0.0000000116
  9
$USRTIMER
 70
     1
  9
$ANGBASE
 50
0.0
  9
$ANGDIR
 70
     0
  9
$PDMODE
 70
     0
  9
$PDSIZE
 40
0.0
  9
$PLINEWID
 40
0.0
  9
$SPLFRAME
 70
     0
  9
$SPLINETYPE
 70
     6
  9
$SPLINESEGS
 70
     8
  9
$HANDSEED
  5
3FF
  9
$SURFTAB1
 70
     6
  9
$SURFTAB2
 70
     6
  9
$SURFTYPE
 70
     6
  9
$SURFU
 70
     6
  9
$SURFV
 70
     6
  9
$UCSBASE
  2

  9
$UCSNAME
  2

  9
$UCSORG
 10
0.0
 20
0.0
 30
0.0
  9
$UCSXDIR
 10
1.0
 20
0.0
 30
0.0
  9
$UCSYDIR
 10
0.0
 20
1.0
 30
0.0
  9
$UCSORTHOREF
  2

  9
$UCSORTHOVIEW
 70
     0
  9
$UCSORGTOP
 10
0.0
 20
0.0
 30
0.0
  9
$UCSORGBOTTOM
 10
0.0
 20
0.0
 30
0.0
  9
$UCSORGLEFT
 10
0.0
 20
0.0
 30
0.0
  9
$UCSORGRIGHT
 10
0.0
 20
0.0
 30
0.0
  9
$UCSORGFRONT
 10
0.0
 20
0.0
 30
0.0
  9
$UCSORGBACK
 10
0.0
 20
0.0
 30
0.0
  9
$PUCSBASE
  2

  9
$PUCSNAME
  2

  9
$PUCSORG
 10
0.0
 20
0.0
 30
0.0
  9
$PUCSXDIR
 10
1.0
 20
0.0
 30
0.0
  9
$PUCSYDIR
 10
0.0
 20
1.0
 30
0.0
  9
$PUCSORTHOREF
  2

  9
$PUCSORTHOVIEW
 70
     0
  9
$PUCSORGTOP
 10
0.0
 20
0.0
 30
0.0
  9
$PUCSORGBOTTOM
 10
0.0
 20
0.0
 30
0.0
  9
$PUCSORGLEFT
 10
0.0
 20
0.0
 30
0.0
  9
$PUCSORGRIGHT
 10
0.0
 20
0.0
 30
0.0
  9
$PUCSORGFRONT
 10
0.0
 20
0.0
 30
0.0
  9
$PUCSORGBACK
 10
0.0
 20
0.0
 30
0.0
  9
$USERI1
 70
     0
  9
$USERI2
 70
     0
  9
$USERI3
 70
     0
  9
$USERI4
 70
     0
  9
$USERI5
 70
     0
  9
$USERR1
 40
0.0
  9
$USERR2
 40
0.0
  9
$USERR3
 40
0.0
  9
$USERR4
 40
0.0
  9
$USERR5
 40
0.0
  9
$WORLDVIEW
 70
     1
  9
$SHADEDGE
 70
     3
  9
$SHADEDIF
 70
    70
  9
$TILEMODE
 70
     1
  9
$MAXACTVP
 70
    64
  9
$PINSBASE
 10
0.0
 20
0.0
 30
0.0
  9
$PLIMCHECK
 70
     0
  9
$PEXTMIN
 10
1.000000000000000E+20
 20
1.000000000000000E+20
 30
1.000000000000000E+20
  9
$PEXTMAX
 10
-1.000000000000000E+20
 20
-1.000000000000000E+20
 30
-1.000000000000000E+20
  9
$PLIMMIN
 10
0.0
 20
0.0
  9
$PLIMMAX
 10
420.0
 20
297.0
  9
$UNITMODE
 70
     0
  9
$VISRETAIN
 70
     1
  9
$PLINEGEN
 70
     0
  9
$PSLTSCALE
 70
     0
  9
$TREEDEPTH
 70
  3020
  9
$CMLSTYLE
  2
Standard
  9
$CMLJUST
 70
     0
  9
$CMLSCALE
 40
20.0
  9
$PROXYGRAPHICS
 70
     1
  9
$MEASUREMENT
 70
     1
  9
$CELWEIGHT
370
    -1
  9
$ENDCAPS
280
     0
  9
$JOINSTYLE
280
     0
  9
$LWDISPLAY
290
     0
  9
$INSUNITS
 70
     4
  9
$HYPERLINKBASE
  1

  9
$STYLESHEET
  1

  9
$XEDIT
290
     1
  9
$CEPSNTYPE
380
     0
  9
$PSTYLEMODE
290
     1
  9
$FINGERPRINTGUID
  2
{03EDF319-AAA9-49CC-B115-27DF98DB5673}
  9
$VERSIONGUID
  2
{FAEB1C32-E019-11D5-929B-00C0DF256EC4}
  9
$EXTNAMES
290
     1
  9
$PSVPSCALE
 40
0.0
  9
$OLESTARTUP
290
     0
  0
ENDSEC
  0
SECTION
  2
CLASSES
  0
CLASS
  1
ACDBDICTIONARYWDFLT
  2
AcDbDictionaryWithDefault
  3
ObjectDBX Classes
 90
        0
280
     0
281
     0
  0
CLASS
  1
VISUALSTYLE
  2
AcDbVisualStyle
  3
ObjectDBX Classes
 90
     4095
280
     0
281
     0
  0
CLASS
  1
MATERIAL
  2
AcDbMaterial
  3
ObjectDBX Classes
 90
     1153
280
     0
281
     0
  0
CLASS
  1
SCALE
  2
AcDbScale
  3
ObjectDBX Classes
 90
     1153
280
     0
281
     0
  0
CLASS
  1
SUN
  2
AcDbSun
  3
SCENEOE
 90
     1153
280
     0
281
     0
  0
CLASS
  1
DICTIONARYVAR
  2
AcDbDictionaryVar
  3
ObjectDBX Classes
 90
        0
280
     0
281
     0
  0
CLASS
  1
ACDBPLACEHOLDER
  2
AcDbPlaceHolder
  3
ObjectDBX Classes
 90
        0
280
     0
281
     0
  0
CLASS
  1
LAYOUT
  2
AcDbLayout
  3
ObjectDBX Classes
 90
        0
280
     0
281
     0
  0
ENDSEC
  0
SECTION
  2
TABLES
  0
TABLE
  2
VPORT
  5
8
330
0
100
AcDbSymbolTable
 70
     1
  0
VPORT
  5
29
330
8
100
AcDbSymbolTableRecord
100
AcDbViewportTableRecord
  2
*Active
 70
     0
 10
0.0
 20
0.0
 11
1.0
 21
1.0
 12
3162.386479487598
 22
5159.876543610613
 13
0.0
 23
0.0
 14
10.0
 24
10.0
 15
10.0
 25
10.0
 16
0.0
 26
0.0
 36
1.0
 17
0.0
 27
0.0
 37
0.0
 40
5147.78647565238
 41
1.333333333333333
 42
50.0
 43
0.0
 44
0.0
 50
0.0
 51
0.0
 71
     0
 72
 20000
 73
     1
 74
     3
 75
     0
 76
     0
 77
     0
 78
     0
281
     0
 65
     1
110
0.0
120
0.0
130
0.0
111
1.0
121
0.0
131
0.0
112
0.0
122
1.0
132
0.0
 79
     0
146
0.0
  0
ENDTAB
  0
TABLE
  2
LTYPE
  5
5
330
0
100
AcDbSymbolTable
 70
     7
  0
LTYPE
  5
14
330
5
100
AcDbSymbolTableRecord
100
AcDbLinetypeTableRecord
  2
ByBlock
 70
     0
  3

 72
    65
 73
     0
 40
0.0
  0
LTYPE
  5
15
330
5
100
AcDbSymbolTableRecord
100
AcDbLinetypeTableRecord
  2
ByLayer
 70
     0
  3

 72
    65
 73
     0
 40
0.0
  0
LTYPE
  5
16
330
5
100
AcDbSymbolTableRecord
100
AcDbLinetypeTableRecord
  2
Continuous
 70
     0
  3
Solid line
 72
    65
 73
     0
 40
0.0
  0
LTYPE
  5
6B
330
5
100
AcDbSymbolTableRecord
100
AcDbLinetypeTableRecord
  2
DASHED
 70
     0
  3
ICAD/SX(2) Dashed __ __ __ __ __ __ __ __ __ __ __ __ __ _
 72
    65
 73
     2
 40
19.05
 49
12.7
 74
     0
 49
-6.35
 74
     0
  0
LTYPE
  5
6C
330
5
100
AcDbSymbolTableRecord
100
AcDbLinetypeTableRecord
  2
CENTER
 70
     0
  3
ICAD/SX(3) Center ____ _ ____ _ ____ _ ____ _ ____ _ ____
 72
    65
 73
     4
 40
50.8
 49
31.75
 74
     0
 49
-6.35
 74
     0
 49
6.35
 74
     0
 49
-6.35
 74
     0
  0
LTYPE
  5
6D
330
5
100
AcDbSymbolTableRecord
100
AcDbLinetypeTableRecord
  2
PHANTOM
 70
     0
  3
ICAD/SX(4) Phantom ______  __  __  ______  __  __  ______
 72
    65
 73
     6
 40
63.5
 49
31.75
 74
     0
 49
-6.35
 74
     0
 49
6.35
 74
     0
 49
-6.35
 74
     0
 49
6.35
 74
     0
 49
-6.35
 74
     0
  0
LTYPE
  5
6E
330
5
100
AcDbSymbolTableRecord
100
AcDbLinetypeTableRecord
  2
DOT
 70
     0
  3
ICAD/SX(5) Dot . . . . . . . . . . . . . . . . . . . . . . . .
 72
    65
 73
     2
 40
6.35
 49
0.0
 74
     0
 49
-6.35
 74
     0
  0
LTYPE
  5
6F
330
5
100
AcDbSymbolTableRecord
100
AcDbLinetypeTableRecord
  2
HIDDEN
 70
     0
  3
ICAD/SX(6) Hidden __ __ __ __ __ __ __ __ __ __ __ __ __ __
 72
    65
 73
     2
 40
9.525
 49
6.35
 74
     0
 49
-3.175
 74
     0
  0
LTYPE
  5
70
330
5
100
AcDbSymbolTableRecord
100
AcDbLinetypeTableRecord
  2
DOTSX
 70
     0
  3
ICAD/SX(5) Dot . . . . . . . . . . . . . . . . . . . . . . . .
 72
    65
 73
     2
 40
6.35
 49
3.175
 74
     0
 49
-3.175
 74
     0
  0
ENDTAB
  0
TABLE
  2
LAYER
  5
2
330
0
100
AcDbSymbolTable
 70
     5
  0
LAYER
  5
10
330
2
100
AcDbSymbolTableRecord
100
AcDbLayerTableRecord
  2
0
 70
     0
 62
     7
  6
Continuous
370
    -3
390
F
  0
LAYER
  5
71
330
2
100
AcDbSymbolTableRecord
100
AcDbLayerTableRecord
  2
NoLayerName_001
 70
     0
 62
     7
  6
Continuous
370
    -3
390
F
  0
LAYER
  5
72
330
2
100
AcDbSymbolTableRecord
100
AcDbLayerTableRecord
  2
FRAME
 70
     0
 62
     7
  6
Continuous
370
    -3
390
F
  0
LAYER
  5
73
330
2
100
AcDbSymbolTableRecord
100
AcDbLayerTableRecord
  2
NoLayerName_002
 70
     0
 62
     7
  6
Continuous
370
    -3
390
F
  0
LAYER
  5
74
330
2
100
AcDbSymbolTableRecord
100
AcDbLayerTableRecord
  2
Defpoints
 70
     0
 62
     7
  6
Continuous
290
     0
370
    -3
390
F
  0
ENDTAB
  0
TABLE
  2
STYLE
  5
3
330
0
100
AcDbSymbolTable
 70
     2
  0
STYLE
  5
11
330
3
100
AcDbSymbolTableRecord
100
AcDbTextStyleTableRecord
  2
Standard
 70
     0
 40
0.0
 41
1.0
 50
0.0
 71
     0
 42
2.5
  3
txt
  4
extfont2
  0
STYLE
  5
6A
330
3
100
AcDbSymbolTableRecord
100
AcDbTextStyleTableRecord
  2

 70
     1
 40
0.0
 41
1.0
 50
0.0
 71
     0
 42
2.5
  3
ltypeshp.shx
  4

  0
ENDTAB
  0
TABLE
  2
VIEW
  5
6
330
0
100
AcDbSymbolTable
 70
     0
  0
ENDTAB
  0
TABLE
  2
UCS
  5
7
330
0
100
AcDbSymbolTable
 70
     0
  0
ENDTAB
  0
TABLE
  2
APPID
  5
9
330
0
100
AcDbSymbolTable
 70
     4
  0
APPID
  5
12
330
9
100
AcDbSymbolTableRecord
100
AcDbRegAppTableRecord
  2
ACAD
 70
     0
  0
APPID
  5
3C4
330
9
100
AcDbSymbolTableRecord
100
AcDbRegAppTableRecord
  2
ACAD_DSTYLE_DIM_LINETYPE
 70
     0
  0
APPID
  5
3C5
330
9
100
AcDbSymbolTableRecord
100
AcDbRegAppTableRecord
  2
ACAD_DSTYLE_DIM_EXT1_LINETYPE
 70
     0
  0
APPID
  5
3C6
330
9
100
AcDbSymbolTableRecord
100
AcDbRegAppTableRecord
  2
ACAD_DSTYLE_DIM_EXT2_LINETYPE
 70
     0
  0
ENDTAB
  0
TABLE
  2
DIMSTYLE
  5
A
330
0
100
AcDbSymbolTable
 70
     1
100
AcDbDimStyleTable
  0
DIMSTYLE
105
27
102
{ACAD_REACTORS
330
2A1
330
2BB
330
2CB
330
2DB
330
2EB
330
2FB
330
309
330
317
330
325
330
333
330
343
330
351
330
35F
330
36D
330
37E
330
38C
330
39A
330
3A8
102
}
330
A
100
AcDbSymbolTableRecord
100
AcDbDimStyleTableRecord
  2
Standard
 70
     0
 41
2.5
 42
0.625
 43
3.75
 44
1.25
 73
     0
 74
     0
 77
     1
140
2.5
141
2.5
143
0.03937007874016
146
0.75
147
0.625
171
     3
172
     1
178
     0
271
     2
272
     2
274
     3
283
     0
284
     8
340
11
  0
ENDTAB
  0
TABLE
  2
BLOCK_RECORD
  5
1
330
0
100
AcDbSymbolTable
 70
    23
  0
BLOCK_RECORD
  5
1F
330
1
100
AcDbSymbolTableRecord
100
AcDbBlockTableRecord
  2
*Model_Space
340
22
  0
BLOCK_RECORD
  5
1B
330
1
100
AcDbSymbolTableRecord
100
AcDbBlockTableRecord
  2
*Paper_Space
340
1E
  0
BLOCK_RECORD
  5
23
330
1
100
AcDbSymbolTableRecord
100
AcDbBlockTableRecord
  2
*Paper_Space0
340
0
  0
BLOCK_RECORD
  5
75
330
1
100
AcDbSymbolTableRecord
100
AcDbBlockTableRecord
  2
JZB_0001
340
0
102
{BLKREFS
331
3B6
102
}
  0
BLOCK_RECORD
  5
78
330
1
100
AcDbSymbolTableRecord
100
AcDbBlockTableRecord
  2
JZB_0002
340
0
102
{BLKREFS
331
3B7
102
}
  0
BLOCK_RECORD
  5
7B
330
1
100
AcDbSymbolTableRecord
100
AcDbBlockTableRecord
  2
JZB_0003
340
0
102
{BLKREFS
331
3B8
102
}
  0
BLOCK_RECORD
  5
2A3
330
1
100
AcDbSymbolTableRecord
100
AcDbBlockTableRecord
  2
_OPEN30
340
0
102
{BLKREFS
331
2B2
331
2B1
331
2C6
331
2C5
331
2D6
331
2D5
331
2E6
331
2E5
331
2F4
331
2F3
331
304
331
303
331
312
331
311
331
320
331
31F
331
32E
331
32D
331
33E
331
33D
331
34C
331
34B
331
35A
331
359
331
368
331
367
331
379
331
378
331
387
331
386
331
395
331
394
331
3A3
331
3A2
331
3B1
331
3B0
102
}
  0
BLOCK_RECORD
  5
2A9
330
1
100
AcDbSymbolTableRecord
100
AcDbBlockTableRecord
  2
*D5
340
0
  0
BLOCK_RECORD
  5
2BD
330
1
100
AcDbSymbolTableRecord
100
AcDbBlockTableRecord
  2
*D6
340
0
  0
BLOCK_RECORD
  5
2CD
330
1
100
AcDbSymbolTableRecord
100
AcDbBlockTableRecord
  2
*D7
340
0
  0
BLOCK_RECORD
  5
2DD
330
1
100
AcDbSymbolTableRecord
100
AcDbBlockTableRecord
  2
*D8
340
0
  0
BLOCK_RECORD
  5
2ED
330
1
100
AcDbSymbolTableRecord
100
AcDbBlockTableRecord
  2
*D9
340
0
  0
BLOCK_RECORD
  5
2FD
330
1
100
AcDbSymbolTableRecord
100
AcDbBlockTableRecord
  2
*D10
340
0
  0
BLOCK_RECORD
  5
30B
330
1
100
AcDbSymbolTableRecord
100
AcDbBlockTableRecord
  2
*D11
340
0
  0
BLOCK_RECORD
  5
319
330
1
100
AcDbSymbolTableRecord
100
AcDbBlockTableRecord
  2
*D12
340
0
  0
BLOCK_RECORD
  5
327
330
1
100
AcDbSymbolTableRecord
100
AcDbBlockTableRecord
  2
*D13
340
0
  0
BLOCK_RECORD
  5
335
330
1
100
AcDbSymbolTableRecord
100
AcDbBlockTableRecord
  2
*D14
340
0
  0
BLOCK_RECORD
  5
345
330
1
100
AcDbSymbolTableRecord
100
AcDbBlockTableRecord
  2
*D15
340
0
  0
BLOCK_RECORD
  5
353
330
1
100
AcDbSymbolTableRecord
100
AcDbBlockTableRecord
  2
*D16
340
0
  0
BLOCK_RECORD
  5
361
330
1
100
AcDbSymbolTableRecord
100
AcDbBlockTableRecord
  2
*D17
340
0
  0
BLOCK_RECORD
  5
36F
330
1
100
AcDbSymbolTableRecord
100
AcDbBlockTableRecord
  2
*D18
340
0
  0
BLOCK_RECORD
  5
380
330
1
100
AcDbSymbolTableRecord
100
AcDbBlockTableRecord
  2
*D19
340
0
  0
BLOCK_RECORD
  5
38E
330
1
100
AcDbSymbolTableRecord
100
AcDbBlockTableRecord
  2
*D20
340
0
  0
BLOCK_RECORD
  5
39C
330
1
100
AcDbSymbolTableRecord
100
AcDbBlockTableRecord
  2
*D21
340
0
  0
BLOCK_RECORD
  5
3AA
330
1
100
AcDbSymbolTableRecord
100
AcDbBlockTableRecord
  2
*D22
340
0
  0
ENDTAB
  0
ENDSEC
  0
SECTION
  2
BLOCKS
  0
BLOCK
  5
20
330
1F
100
AcDbEntity
  8
0
100
AcDbBlockBegin
  2
*Model_Space
 70
     0
 10
0.0
 20
0.0
 30
0.0
  3
*Model_Space
  1
*Model_Space
  0
ENDBLK
  5
21
330
1F
100
AcDbEntity
  8
0
100
AcDbBlockEnd
  0
BLOCK
  5
1C
330
1B
100
AcDbEntity
 67
     1
  8
0
100
AcDbBlockBegin
  2
*Paper_Space
 70
     0
 10
0.0
 20
0.0
 30
0.0
  3
*Paper_Space
  1
*Paper_Space
  0
ENDBLK
  5
1D
330
1B
100
AcDbEntity
 67
     1
  8
0
100
AcDbBlockEnd
  0
BLOCK
  5
24
330
23
100
AcDbEntity
  8
0
100
AcDbBlockBegin
  2
*Paper_Space0
 70
     0
 10
0.0
 20
0.0
 30
0.0
  3
*Paper_Space0
  1
*Paper_Space0
  0
ENDBLK
  5
25
330
23
100
AcDbEntity
  8
0
100
AcDbBlockEnd
  0
BLOCK
  5
76
330
75
100
AcDbEntity
  8
0
100
AcDbBlockBegin
  2
JZB_0001
 70
     0
 10
0.0
 20
0.0
 30
0.0
  3
JZB_0001
  1
JZB_0001
  0
LINE
  5
7E
330
75
100
AcDbEntity
  8
NoLayerName_001
  6
Continuous
 62
     3
370
    25
100
AcDbLine
 10
88.73786034185378
 20
8.913093723504062
 30
0.0
 11
87.49783151904684
 21
51.68267138706193
 31
0.0
  0
LINE
  5
7F
330
75
100
AcDbEntity
  8
NoLayerName_001
  6
Continuous
 62
     3
370
    25
100
AcDbLine
 10
11.2620030893986
 20
8.913093723505881
 30
0.0
 11
12.50203191220549
 21
51.68267138706286
 31
0.0
  0
LINE
  5
80
330
75
100
AcDbEntity
  8
NoLayerName_001
  6
Continuous
 62
     3
370
    25
100
AcDbLine
 10
-0.0000682843738105
 20
0.0000369221288565
 30
0.0
 11
21.77911546933592
 21
0.0000369221288565
 31
0.0
  0
LINE
  5
81
330
75
100
AcDbEntity
  8
NoLayerName_001
  6
Continuous
 62
     3
370
    25
100
AcDbLine
 10
8.263263207344608
 20
6.000036922128857
 30
0.0
 11
1.999931715625735
 21
6.000036922128857
 31
0.0
  0
LINE
  5
82
330
75
100
AcDbEntity
  8
NoLayerName_001
  6
Continuous
 62
     3
370
    25
100
AcDbLine
 10
20.45918909335796
 20
59.50003692212886
 30
0.0
 11
49.99993171562629
 21
60.50003692212897
 31
0.0
  0
LINE
  5
83
330
75
100
AcDbEntity
  8
NoLayerName_001
  6
Continuous
 62
     3
370
    25
100
AcDbLine
 10
49.99993171562619
 20
60.50003692212886
 30
0.0
 11
79.54067433789473
 21
59.50003692212897
 31
0.0
  0
LINE
  5
84
330
75
100
AcDbEntity
  8
NoLayerName_001
  6
Continuous
 62
     3
370
    25
100
AcDbLine
 10
91.73660022390595
 20
6.000036922128857
 30
0.0
 11
97.99993171562551
 21
6.00003692212897
 31
0.0
  0
ARC
  5
85
330
75
100
AcDbEntity
  8
NoLayerName_001
  6
Continuous
 62
     3
370
    25
100
AcDbCircle
 10
1.99993171562619
 20
4.000036922128857
 30
0.0
 40
2.0
100
AcDbArc
 50
90.0
 51
180.0
  0
ARC
  5
86
330
75
100
AcDbEntity
  8
NoLayerName_001
  6
Continuous
 62
     3
370
    25
100
AcDbCircle
 10
20.45918909335796
 20
51.50003692212886
 30
0.0
 40
7.999999999999999
100
AcDbArc
 50
90.0
 51
178.7811247648684
  0
ARC
  5
87
330
75
100
AcDbEntity
  8
NoLayerName_001
  6
Continuous
 62
     3
370
    25
100
AcDbCircle
 10
79.54067433789442
 20
51.50003692212886
 30
0.0
 40
8.0
100
AcDbArc
 50
1.218875235131631
 51
90.0
  0
ARC
  5
88
330
75
100
AcDbEntity
  8
NoLayerName_001
  6
Continuous
 62
     3
370
    25
100
AcDbCircle
 10
97.99993171562619
 20
4.000036922128857
 30
0.0
 40
2.0
100
AcDbArc
 50
0.0
 51
90.0
  0
LINE
  5
89
330
75
100
AcDbEntity
  8
NoLayerName_001
  6
Continuous
 62
     3
370
    25
100
AcDbLine
 10
99.99993171562619
 20
4.000036922128857
 30
0.0
 11
99.99993171562619
 21
0.0000369221288565
 31
0.0
  0
LINE
  5
8A
330
75
100
AcDbEntity
  8
NoLayerName_001
  6
Continuous
 62
     3
370
    25
100
AcDbLine
 10
-0.0000682843738105
 20
4.000036922128857
 30
0.0
 11
-0.0000682843737347
 21
0.0000369221288565
 31
0.0
  0
LINE
  5
8B
330
75
100
AcDbEntity
  8
NoLayerName_001
  6
Continuous
 62
     3
370
    25
100
AcDbLine
 10
21.77911546933592
 20
0.0000369221288565
 30
0.0
 11
99.99993171562619
 21
0.0000369221288565
 31
0.0
  0
ARC
  5
8C
330
75
100
AcDbEntity
  8
NoLayerName_001
  6
Continuous
 62
     3
370
    25
100
AcDbCircle
 10
8.263263207344608
 20
9.000036922128857
 30
0.0
 40
3.0
100
AcDbArc
 50
270.0
 51
358.3392746906825
  0
ARC
  5
8D
330
75
100
AcDbEntity
  8
NoLayerName_001
  6
Continuous
 62
     3
370
    25
100
AcDbCircle
 10
91.73660022390595
 20
9.000036922128857
 30
0.0
 40
3.0
100
AcDbArc
 50
181.6607253093175
 51
270.000000000001
  0
ENDBLK
  5
77
330
75
100
AcDbEntity
  8
0
100
AcDbBlockEnd
  0
BLOCK
  5
79
330
78
100
AcDbEntity
  8
0
100
AcDbBlockBegin
  2
JZB_0002
 70
     0
 10
0.0
 20
0.0
 30
0.0
  3
JZB_0002
  1
JZB_0002
  0
LINE
  5
8E
330
78
100
AcDbEntity
  8
NoLayerName_001
  6
Continuous
 62
     7
370
    25
100
AcDbLine
 10
2.00005378593869
 20
0.0000369221288565
 30
0.0
 11
82.00005378593869
 21
0.0000369221288565
 31
0.0
  0
LINE
  5
8F
330
78
100
AcDbEntity
  8
NoLayerName_001
  6
Continuous
 62
     7
370
    25
100
AcDbLine
 10
81.00005378593869
 20
28.50003692212886
 30
0.0
 11
3.00005378593869
 21
28.50003692212886
 31
0.0
  0
LINE
  5
90
330
78
100
AcDbEntity
  8
NoLayerName_001
  6
Continuous
 62
     7
370
    25
100
AcDbLine
 10
84.00005378593869
 20
25.50003692212886
 30
0.0
 11
84.00005378593869
 21
21.00003692212886
 31
0.0
  0
LINE
  5
91
330
78
100
AcDbEntity
  8
NoLayerName_001
  6
Continuous
 62
     7
370
    25
100
AcDbLine
 10
0.0000537859386895
 20
25.50003692212886
 30
0.0
 11
0.0000537859386895
 21
21.00003692212886
 31
0.0
  0
ARC
  5
92
330
78
100
AcDbEntity
  8
NoLayerName_001
  6
Continuous
 62
     7
370
    25
100
AcDbCircle
 10
3.00005378593869
 20
25.50003692212886
 30
0.0
 40
3.0
100
AcDbArc
 50
90.0
 51
180.0
  0
ARC
  5
93
330
78
100
AcDbEntity
  8
NoLayerName_001
  6
Continuous
 62
     7
370
    25
100
AcDbCircle
 10
81.00005378593869
 20
25.50003692212886
 30
0.0
 40
3.0
100
AcDbArc
 50
0.0
 51
90.0
  0
LINE
  5
94
330
78
100
AcDbEntity
  8
NoLayerName_001
  6
Continuous
 62
     7
370
    25
100
AcDbLine
 10
39.00005378593869
 20
92.00003692212886
 30
0.0
 11
33.07185055566322
 21
88.00003692212886
 31
0.0
  0
LINE
  5
95
330
78
100
AcDbEntity
  8
NoLayerName_001
  6
Continuous
 62
     7
370
    25
100
AcDbLine
 10
45.00005378593869
 20
92.00003692212886
 30
0.0
 11
50.92825701621416
 21
88.00003692212886
 31
0.0
  0
LINE
  5
96
330
78
100
AcDbEntity
  8
NoLayerName_001
  6
Continuous
 62
     7
370
    25
100
AcDbLine
 10
33.07185055566333
 20
88.00003692212886
 30
0.0
 11
50.9282570162145
 21
88.00003692212886
 31
0.0
  0
LINE
  5
97
330
78
100
AcDbEntity
  8
NoLayerName_001
  6
Continuous
 62
     7
370
    25
100
AcDbLine
 10
45.00005378593869
 20
92.00003692212886
 30
0.0
 11
39.00005378593869
 21
92.00003692212886
 31
0.0
  0
LINE
  5
98
330
78
100
AcDbEntity
  8
NoLayerName_001
  6
Continuous
 62
     7
370
    25
100
AcDbLine
 10
16.00005378593869
 20
20.00003692212886
 30
0.0
 11
68.00005378593869
 21
20.00003692212886
 31
0.0
  0
LINE
  5
99
330
78
100
AcDbEntity
  8
NoLayerName_001
  6
Continuous
 62
     7
370
    25
100
AcDbLine
 10
0.0000537859386895
 20
21.00003692212886
 30
0.0
 11
84.00005378593869
 21
21.00003692212886
 31
0.0
  0
LINE
  5
9A
330
78
100
AcDbEntity
  8
NoLayerName_001
  6
Continuous
 62
     7
370
    25
100
AcDbLine
 10
2.00005378593869
 20
20.00003692212886
 30
0.0
 11
2.00005378593869
 21
0.0000369221288565
 31
0.0
  0
LINE
  5
9B
330
78
100
AcDbEntity
  8
NoLayerName_001
  6
Continuous
 62
     7
370
    25
100
AcDbLine
 10
82.00005378593869
 20
0.0000369221288565
 30
0.0
 11
82.00005378593869
 21
20.00003692212886
 31
0.0
  0
LINE
  5
9C
330
78
100
AcDbEntity
  8
NoLayerName_001
  6
Continuous
 62
     7
370
    25
100
AcDbLine
 10
82.00005378593869
 20
20.00003692212886
 30
0.0
 11
2.00005378593869
 21
20.00003692212886
 31
0.0
  0
ARC
  5
9D
330
78
100
AcDbEntity
  8
NoLayerName_001
  6
Continuous
 62
     7
370
    25
100
AcDbCircle
 10
20.00005378593869
 20
84.40000552715628
 30
0.0
 40
1.0
100
AcDbArc
 50
105.0
 51
180.0
  0
LINE
  5
9E
330
78
100
AcDbEntity
  8
NoLayerName_001
  6
Continuous
 62
     7
370
    25
100
AcDbLine
 10
19.74123474083626
 20
85.36593135344538
 30
0.0
 11
33.07185055566333
 21
88.00003692212886
 31
0.0
  0
LINE
  5
9F
330
78
100
AcDbEntity
  8
NoLayerName_001
  6
Continuous
 62
     7
370
    25
100
AcDbLine
 10
19.00005378593869
 20
84.40000552715628
 30
0.0
 11
19.00005378593869
 21
28.50003692212886
 31
0.0
  0
LINE
  5
A0
330
78
100
AcDbEntity
  8
NoLayerName_001
  6
Continuous
 62
     7
370
    25
100
AcDbLine
 10
65.00005378593869
 20
84.40000552715628
 30
0.0
 11
65.00005378593869
 21
84.0000369221288
 31
0.0
  0
ARC
  5
A1
330
78
100
AcDbEntity
  8
NoLayerName_001
  6
Continuous
 62
     7
370
    25
100
AcDbCircle
 10
64.00005378593869
 20
84.40000552715628
 30
0.0
 40
1.0
100
AcDbArc
 50
0.0
 51
75.0
  0
LINE
  5
A2
330
78
100
AcDbEntity
  8
NoLayerName_001
  6
Continuous
 62
     7
370
    25
100
AcDbLine
 10
64.25887283104112
 20
85.36593135344538
 30
0.0
 11
50.92825701621405
 21
88.00003692212886
 31
0.0
  0
LINE
  5
A3
330
78
100
AcDbEntity
  8
NoLayerName_001
  6
Continuous
 62
     7
370
    25
100
AcDbLine
 10
65.00005378593869
 20
84.00003692212886
 30
0.0
 11
19.00005378593869
 21
84.00003692212886
 31
0.0
  0
LINE
  5
A4
330
78
100
AcDbEntity
  8
NoLayerName_001
  6
Continuous
 62
     7
370
    25
100
AcDbLine
 10
65.00005378593869
 20
28.50003692212886
 30
0.0
 11
65.00005378593869
 21
84.00003692212886
 31
0.0
  0
ENDBLK
  5
7A
330
78
100
AcDbEntity
  8
0
100
AcDbBlockEnd
  0
BLOCK
  5
7C
330
7B
100
AcDbEntity
  8
0
100
AcDbBlockBegin
  2
JZB_0003
 70
     0
 10
0.0
 20
0.0
 30
0.0
  3
JZB_0003
  1
JZB_0003
  0
LINE
  5
A5
330
7B
100
AcDbEntity
  8
NoLayerName_001
  6
Continuous
 62
     3
370
    25
100
AcDbLine
 10
88.73787063248528
 20
8.913093723504062
 30
0.0
 11
87.49784180967835
 21
51.68267138706193
 31
0.0
  0
LINE
  5
A6
330
7B
100
AcDbEntity
  8
NoLayerName_001
  6
Continuous
 62
     3
370
    25
100
AcDbLine
 10
11.26201338003011
 20
8.913093723505881
 30
0.0
 11
12.502042202837
 21
51.68267138706286
 31
0.0
  0
LINE
  5
A7
330
7B
100
AcDbEntity
  8
NoLayerName_001
  6
Continuous
 62
     3
370
    25
100
AcDbLine
 10
-0.0000579937423026
 20
0.0000369221288565
 30
0.0
 11
21.77912575996743
 21
0.0000369221288565
 31
0.0
  0
LINE
  5
A8
330
7B
100
AcDbEntity
  8
NoLayerName_001
  6
Continuous
 62
     3
370
    25
100
AcDbLine
 10
8.263273497976115
 20
6.000036922128857
 30
0.0
 11
1.999942006257243
 21
6.000036922128857
 31
0.0
  0
LINE
  5
A9
330
7B
100
AcDbEntity
  8
NoLayerName_001
  6
Continuous
 62
     3
370
    25
100
AcDbLine
 10
20.45919938398947
 20
59.50003692212886
 30
0.0
 11
49.9999420062578
 21
60.50003692212897
 31
0.0
  0
LINE
  5
AA
330
7B
100
AcDbEntity
  8
NoLayerName_001
  6
Continuous
 62
     3
370
    25
100
AcDbLine
 10
49.9999420062577
 20
60.50003692212886
 30
0.0
 11
79.54068462852624
 21
59.50003692212897
 31
0.0
  0
LINE
  5
AB
330
7B
100
AcDbEntity
  8
NoLayerName_001
  6
Continuous
 62
     3
370
    25
100
AcDbLine
 10
91.73661051453746
 20
6.000036922128857
 30
0.0
 11
97.99994200625702
 21
6.00003692212897
 31
0.0
  0
ARC
  5
AC
330
7B
100
AcDbEntity
  8
NoLayerName_001
  6
Continuous
 62
     3
370
    25
100
AcDbCircle
 10
1.999942006257697
 20
4.000036922128857
 30
0.0
 40
2.0
100
AcDbArc
 50
90.0
 51
180.0
  0
ARC
  5
AD
330
7B
100
AcDbEntity
  8
NoLayerName_001
  6
Continuous
 62
     3
370
    25
100
AcDbCircle
 10
20.45919938398947
 20
51.50003692212886
 30
0.0
 40
7.999999999999999
100
AcDbArc
 50
90.0
 51
178.7811247648684
  0
ARC
  5
AE
330
7B
100
AcDbEntity
  8
NoLayerName_001
  6
Continuous
 62
     3
370
    25
100
AcDbCircle
 10
79.54068462852592
 20
51.50003692212886
 30
0.0
 40
8.0
100
AcDbArc
 50
1.218875235131631
 51
90.0
  0
ARC
  5
AF
330
7B
100
AcDbEntity
  8
NoLayerName_001
  6
Continuous
 62
     3
370
    25
100
AcDbCircle
 10
97.9999420062577
 20
4.000036922128857
 30
0.0
 40
2.0
100
AcDbArc
 50
0.0
 51
90.0
  0
LINE
  5
B0
330
7B
100
AcDbEntity
  8
NoLayerName_001
  6
Continuous
 62
     3
370
    25
100
AcDbLine
 10
99.9999420062577
 20
4.000036922128857
 30
0.0
 11
99.9999420062577
 21
0.0000369221288565
 31
0.0
  0
LINE
  5
B1
330
7B
100
AcDbEntity
  8
NoLayerName_001
  6
Continuous
 62
     3
370
    25
100
AcDbLine
 10
-0.0000579937423026
 20
4.000036922128857
 30
0.0
 11
-0.0000579937422269
 21
0.0000369221288565
 31
0.0
  0
LINE
  5
B2
330
7B
100
AcDbEntity
  8
NoLayerName_001
  6
Continuous
 62
     3
370
    25
100
AcDbLine
 10
21.77912575996743
 20
0.0000369221288565
 30
0.0
 11
99.9999420062577
 21
0.0000369221288565
 31
0.0
  0
ARC
  5
B3
330
7B
100
AcDbEntity
  8
NoLayerName_001
  6
Continuous
 62
     3
370
    25
100
AcDbCircle
 10
8.263273497976115
 20
9.000036922128857
 30
0.0
 40
3.0
100
AcDbArc
 50
270.0
 51
358.3392746906825
  0
ARC
  5
B4
330
7B
100
AcDbEntity
  8
NoLayerName_001
  6
Continuous
 62
     3
370
    25
100
AcDbCircle
 10
91.73661051453746
 20
9.000036922128857
 30
0.0
 40
3.0
100
AcDbArc
 50
181.6607253093175
 51
270.000000000001
  0
ENDBLK
  5
7D
330
7B
100
AcDbEntity
  8
0
100
AcDbBlockEnd
  0
BLOCK
  5
2A7
330
2A3
100
AcDbEntity
  8
0
100
AcDbBlockBegin
  2
_OPEN30
 70
     0
 10
0.0
 20
0.0
 30
0.0
  3
_OPEN30
  1
_OPEN30
  0
LINE
  5
2A4
330
2A3
100
AcDbEntity
  8
0
  6
ByBlock
 62
     0
370
    -2
100
AcDbLine
 10
-1.0
 20
0.267949
 30
0.0
 11
0.0
 21
0.0
 31
0.0
  0
LINE
  5
2A5
330
2A3
100
AcDbEntity
  8
0
  6
ByBlock
 62
     0
370
    -2
100
AcDbLine
 10
0.0
 20
0.0
 30
0.0
 11
-1.0
 21
-0.267949
 31
0.0
  0
LINE
  5
2A6
330
2A3
100
AcDbEntity
  8
0
  6
ByBlock
 62
     0
370
    -2
100
AcDbLine
 10
0.0
 20
0.0
 30
0.0
 11
-1.0
 21
0.0
 31
0.0
  0
ENDBLK
  5
2A8
330
2A3
100
AcDbEntity
  8
0
100
AcDbBlockEnd
  0
BLOCK
  5
2AA
330
2A9
100
AcDbEntity
  8
0
100
AcDbBlockBegin
  2
*D5
 70
     1
 10
0.0
 20
0.0
 30
0.0
  3
*D5
  1
*D5
  0
LINE
  5
2AC
330
2A9
100
AcDbEntity
  8
NoLayerName_001
  6
Continuous
 62
     0
370
    25
100
AcDbLine
 10
2390.007650076503
 20
4755.500462096963
 30
0.0
 11
2563.218277186643
 21
4755.500462096963
 31
0.0
  0
LINE
  5
2AD
330
2A9
100
AcDbEntity
  8
NoLayerName_001
  6
Continuous
 62
     0
370
    25
100
AcDbLine
 10
2533.217977183643
 20
4755.500462096963
 30
0.0
 11
2533.217977183643
 21
5126.218455497927
 31
0.0
  0
LINE
  5
2AE
330
2A9
100
AcDbEntity
  8
NoLayerName_001
  6
Continuous
 62
     0
370
    25
100
AcDbLine
 10
2533.217977183643
 20
4755.500462096963
 30
0.0
 11
2533.217977183643
 21
4619.500525203379
 31
0.0
  0
LINE
  5
2AF
330
2A9
100
AcDbEntity
  8
NoLayerName_001
  6
Continuous
 62
     0
370
    25
100
AcDbLine
 10
2533.217977183643
 20
4815.501062102963
 30
0.0
 11
2533.217977183643
 21
4875.501662108964
 31
0.0
  0
LINE
  5
2B0
330
2A9
100
AcDbEntity
  8
NoLayerName_001
  6
Continuous
 62
     0
370
    25
100
AcDbLine
 10
2533.217977183643
 20
4559.499925197379
 30
0.0
 11
2533.217977183643
 21
4499.499325191378
 31
0.0
  0
INSERT
  5
2B1
330
2A9
100
AcDbEntity
  8
NoLayerName_001
 62
     0
370
    25
100
AcDbBlockReference
  2
_OPEN30
 10
2533.217977183643
 20
4755.500462096963
 30
0.0
 41
60.00060000600006
 42
60.00060000600006
 43
60.00060000600006
 50
270.0
  0
INSERT
  5
2B2
330
2A9
100
AcDbEntity
  8
NoLayerName_001
 62
     0
370
    25
100
AcDbBlockReference
  2
_OPEN30
 10
2533.217977183643
 20
4619.500525203379
 30
0.0
 41
60.00060000600006
 42
60.00060000600006
 43
60.00060000600006
 50
90.0
  0
MTEXT
  5
2B3
330
2A9
100
AcDbEntity
  8
NoLayerName_001
 62
     0
370
    25
100
AcDbMText
 10
2450.717152045616
 20
5000.860058803445
 30
0.0
 40
90.00090026855469
 41
0.0
 71
     5
 72
     1
  1
\T0.7500;136
 11
0.0
 21
1.0
 31
0.0
 73
     1
 44
1.0
  0
POINT
  5
2B4
330
2A9
100
AcDbEntity
  8
Defpoints
 62
     0
100
AcDbPoint
 10
2375.007500075003
 20
4755.500462096963
 30
0.0
  0
POINT
  5
2B5
330
2A9
100
AcDbEntity
  8
Defpoints
 62
     0
100
AcDbPoint
 10
3215.007500075001
 20
4619.500525203379
 30
0.0
  0
POINT
  5
2B6
330
2A9
100
AcDbEntity
  8
Defpoints
 62
     0
100
AcDbPoint
 10
2533.217977183643
 20
4619.500525203379
 30
0.0
  0
ENDBLK
  5
2AB
330
2A9
100
AcDbEntity
  8
0
100
AcDbBlockEnd
  0
BLOCK
  5
2BE
330
2BD
100
AcDbEntity
  8
0
100
AcDbBlockBegin
  2
*D6
 70
     1
 10
0.0
 20
0.0
 30
0.0
  3
*D6
  1
*D6
  0
LINE
  5
2C0
330
2BD
100
AcDbEntity
  8
NoLayerName_001
  6
Continuous
 62
     0
370
    25
100
AcDbLine
 10
2375.007500075001
 20
6410.078000332928
 30
0.0
 11
2375.007500075001
 21
5933.877850778508
 31
0.0
  0
LINE
  5
2C1
330
2BD
100
AcDbEntity
  8
NoLayerName_001
  6
Continuous
 62
     0
370
    25
100
AcDbLine
 10
2225.007500075001
 20
6360.078000780008
 30
0.0
 11
2225.007500075001
 21
5933.877850778508
 31
0.0
  0
LINE
  5
2C2
330
2BD
100
AcDbEntity
  8
NoLayerName_001
  6
Continuous
 62
     0
370
    25
100
AcDbLine
 10
2375.007500075001
 20
5963.878150781508
 30
0.0
 11
2225.007500075001
 21
5963.878150781508
 31
0.0
  0
LINE
  5
2C3
330
2BD
100
AcDbEntity
  8
NoLayerName_001
  6
Continuous
 62
     0
370
    25
100
AcDbLine
 10
2420.007950079501
 20
5963.878150781508
 30
0.0
 11
2465.008400084002
 21
5963.878150781508
 31
0.0
  0
LINE
  5
2C4
330
2BD
100
AcDbEntity
  8
NoLayerName_001
  6
Continuous
 62
     0
370
    25
100
AcDbLine
 10
2180.007050070501
 20
5963.878150781508
 30
0.0
 11
2135.006600066001
 21
5963.878150781508
 31
0.0
  0
INSERT
  5
2C5
330
2BD
100
AcDbEntity
  8
NoLayerName_001
 62
     0
370
    25
100
AcDbBlockReference
  2
_OPEN30
 10
2375.007500075001
 20
5963.878150781508
 30
0.0
 41
45.00045000450005
 42
45.00045000450005
 43
45.00045000450005
 50
180.0
  0
INSERT
  5
2C6
330
2BD
100
AcDbEntity
  8
NoLayerName_001
 62
     0
370
    25
100
AcDbBlockReference
  2
_OPEN30
 10
2225.007500075001
 20
5963.878150781508
 30
0.0
 41
45.00045000450005
 42
45.00045000450005
 43
45.00045000450005
  0
MTEXT
  5
2C7
330
2BD
100
AcDbEntity
  8
NoLayerName_001
 62
     0
370
    25
100
AcDbMText
 10
2300.007500075001
 20
6049.379006437114
 30
0.0
 40
96.00096130371094
 41
0.0
 71
     5
 72
     1
  1
\W0.6667;\T0.7500;150
 73
     1
 44
1.0
  0
POINT
  5
2C8
330
2BD
100
AcDbEntity
  8
Defpoints
 62
     0
100
AcDbPoint
 10
2375.007500075001
 20
6425.078150334428
 30
0.0
  0
POINT
  5
2C9
330
2BD
100
AcDbEntity
  8
Defpoints
 62
     0
100
AcDbPoint
 10
2225.007500075001
 20
6375.078150781507
 30
0.0
  0
POINT
  5
2CA
330
2BD
100
AcDbEntity
  8
Defpoints
 62
     0
100
AcDbPoint
 10
2225.007500075001
 20
5963.878150781508
 30
0.0
  0
ENDBLK
  5
2BF
330
2BD
100
AcDbEntity
  8
0
100
AcDbBlockEnd
  0
BLOCK
  5
2CE
330
2CD
100
AcDbEntity
  8
0
100
AcDbBlockBegin
  2
*D7
 70
     1
 10
0.0
 20
0.0
 30
0.0
  3
*D7
  1
*D7
  0
LINE
  5
2D0
330
2CD
100
AcDbEntity
  8
NoLayerName_001
  6
Continuous
 62
     0
370
    25
100
AcDbLine
 10
2225.007500075001
 20
6360.078000780008
 30
0.0
 11
2225.007500075001
 21
5933.877850778509
 31
0.0
  0
LINE
  5
2D1
330
2CD
100
AcDbEntity
  8
NoLayerName_001
  6
Continuous
 62
     0
370
    25
100
AcDbLine
 10
2075.007500075001
 20
6360.078000780009
 30
0.0
 11
2075.007500075001
 21
5933.877850778509
 31
0.0
  0
LINE
  5
2D2
330
2CD
100
AcDbEntity
  8
NoLayerName_001
  6
Continuous
 62
     0
370
    25
100
AcDbLine
 10
2225.007500075001
 20
5963.878150781509
 30
0.0
 11
2075.007500075001
 21
5963.878150781509
 31
0.0
  0
LINE
  5
2D3
330
2CD
100
AcDbEntity
  8
NoLayerName_001
  6
Continuous
 62
     0
370
    25
100
AcDbLine
 10
2270.007950079501
 20
5963.878150781509
 30
0.0
 11
2315.008400084002
 21
5963.878150781509
 31
0.0
  0
LINE
  5
2D4
330
2CD
100
AcDbEntity
  8
NoLayerName_001
  6
Continuous
 62
     0
370
    25
100
AcDbLine
 10
2030.007050070501
 20
5963.878150781509
 30
0.0
 11
1985.006600066001
 21
5963.878150781509
 31
0.0
  0
INSERT
  5
2D5
330
2CD
100
AcDbEntity
  8
NoLayerName_001
 62
     0
370
    25
100
AcDbBlockReference
  2
_OPEN30
 10
2225.007500075001
 20
5963.878150781509
 30
0.0
 41
45.00045000450005
 42
45.00045000450005
 43
45.00045000450005
 50
180.0
  0
INSERT
  5
2D6
330
2CD
100
AcDbEntity
  8
NoLayerName_001
 62
     0
370
    25
100
AcDbBlockReference
  2
_OPEN30
 10
2075.007500075001
 20
5963.878150781509
 30
0.0
 41
45.00045000450005
 42
45.00045000450005
 43
45.00045000450005
  0
MTEXT
  5
2D7
330
2CD
100
AcDbEntity
  8
NoLayerName_001
 62
     0
370
    25
100
AcDbMText
 10
2150.007500074998
 20
6049.379006437115
 30
0.0
 40
96.00096130371094
 41
0.0
 71
     5
 72
     1
  1
\W0.6667;\T0.7500;150
 73
     1
 44
1.0
  0
POINT
  5
2D8
330
2CD
100
AcDbEntity
  8
Defpoints
 62
     0
100
AcDbPoint
 10
2225.007500075001
 20
6375.078150781507
 30
0.0
  0
POINT
  5
2D9
330
2CD
100
AcDbEntity
  8
Defpoints
 62
     0
100
AcDbPoint
 10
2075.007500075001
 20
6375.078150781508
 30
0.0
  0
POINT
  5
2DA
330
2CD
100
AcDbEntity
  8
Defpoints
 62
     0
100
AcDbPoint
 10
2075.007500075001
 20
5963.878150781509
 30
0.0
  0
ENDBLK
  5
2CF
330
2CD
100
AcDbEntity
  8
0
100
AcDbBlockEnd
  0
BLOCK
  5
2DE
330
2DD
100
AcDbEntity
  8
0
100
AcDbBlockBegin
  2
*D8
 70
     1
 10
0.0
 20
0.0
 30
0.0
  3
*D8
  1
*D8
  0
LINE
  5
2E0
330
2DD
100
AcDbEntity
  8
NoLayerName_001
  6
Continuous
 62
     0
370
    25
100
AcDbLine
 10
2075.007500075001
 20
6360.078000780009
 30
0.0
 11
2075.007500075001
 21
5933.877850778508
 31
0.0
  0
LINE
  5
2E1
330
2DD
100
AcDbEntity
  8
NoLayerName_001
  6
Continuous
 62
     0
370
    25
100
AcDbLine
 10
1925.007500075001
 20
6360.078000780009
 30
0.0
 11
1925.007500075001
 21
5933.877850778508
 31
0.0
  0
LINE
  5
2E2
330
2DD
100
AcDbEntity
  8
NoLayerName_001
  6
Continuous
 62
     0
370
    25
100
AcDbLine
 10
2075.007500075001
 20
5963.878150781508
 30
0.0
 11
1925.007500075001
 21
5963.878150781508
 31
0.0
  0
LINE
  5
2E3
330
2DD
100
AcDbEntity
  8
NoLayerName_001
  6
Continuous
 62
     0
370
    25
100
AcDbLine
 10
2120.007950079501
 20
5963.878150781508
 30
0.0
 11
2165.008400084002
 21
5963.878150781508
 31
0.0
  0
LINE
  5
2E4
330
2DD
100
AcDbEntity
  8
NoLayerName_001
  6
Continuous
 62
     0
370
    25
100
AcDbLine
 10
1880.007050070501
 20
5963.878150781508
 30
0.0
 11
1835.006600066001
 21
5963.878150781508
 31
0.0
  0
INSERT
  5
2E5
330
2DD
100
AcDbEntity
  8
NoLayerName_001
 62
     0
370
    25
100
AcDbBlockReference
  2
_OPEN30
 10
2075.007500075001
 20
5963.878150781508
 30
0.0
 41
45.00045000450005
 42
45.00045000450005
 43
45.00045000450005
 50
180.0
  0
INSERT
  5
2E6
330
2DD
100
AcDbEntity
  8
NoLayerName_001
 62
     0
370
    25
100
AcDbBlockReference
  2
_OPEN30
 10
1925.007500075001
 20
5963.878150781508
 30
0.0
 41
45.00045000450005
 42
45.00045000450005
 43
45.00045000450005
  0
MTEXT
  5
2E7
330
2DD
100
AcDbEntity
  8
NoLayerName_001
 62
     0
370
    25
100
AcDbMText
 10
2000.007500075001
 20
6049.379006437114
 30
0.0
 40
96.00096130371094
 41
0.0
 71
     5
 72
     1
  1
\W0.6667;\T0.7500;150
 73
     1
 44
1.0
  0
POINT
  5
2E8
330
2DD
100
AcDbEntity
  8
Defpoints
 62
     0
100
AcDbPoint
 10
2075.007500075001
 20
6375.078150781508
 30
0.0
  0
POINT
  5
2E9
330
2DD
100
AcDbEntity
  8
Defpoints
 62
     0
100
AcDbPoint
 10
1925.007500075001
 20
6375.078150781508
 30
0.0
  0
POINT
  5
2EA
330
2DD
100
AcDbEntity
  8
Defpoints
 62
     0
100
AcDbPoint
 10
1925.007500075001
 20
5963.878150781508
 30
0.0
  0
ENDBLK
  5
2DF
330
2DD
100
AcDbEntity
  8
0
100
AcDbBlockEnd
  0
BLOCK
  5
2EE
330
2ED
100
AcDbEntity
  8
0
100
AcDbBlockBegin
  2
*D9
 70
     1
 10
0.0
 20
0.0
 30
0.0
  3
*D9
  1
*D9
  0
LINE
  5
2F0
330
2ED
100
AcDbEntity
  8
NoLayerName_001
  6
Continuous
 62
     0
370
    25
100
AcDbLine
 10
3082.507500075001
 20
7020.078300783006
 30
0.0
 11
3082.507500075001
 21
7396.278450784506
 31
0.0
  0
LINE
  5
2F1
330
2ED
100
AcDbEntity
  8
NoLayerName_001
  6
Continuous
 62
     0
370
    25
100
AcDbLine
 10
1217.507500075001
 20
7020.078300783006
 30
0.0
 11
1217.507500075001
 21
7396.278450784506
 31
0.0
  0
LINE
  5
2F2
330
2ED
100
AcDbEntity
  8
NoLayerName_001
  6
Continuous
 62
     0
370
    25
100
AcDbLine
 10
3022.506900069001
 20
7366.278150781506
 30
0.0
 11
1277.508100081001
 21
7366.278150781506
 31
0.0
  0
INSERT
  5
2F3
330
2ED
100
AcDbEntity
  8
NoLayerName_001
 62
     0
370
    25
100
AcDbBlockReference
  2
_OPEN30
 10
3082.507500075001
 20
7366.278150781506
 30
0.0
 41
60.00060000600006
 42
60.00060000600006
 43
60.00060000600006
  0
INSERT
  5
2F4
330
2ED
100
AcDbEntity
  8
NoLayerName_001
 62
     0
370
    25
100
AcDbBlockReference
  2
_OPEN30
 10
1217.507500075001
 20
7366.278150781506
 30
0.0
 41
60.00060000600006
 42
60.00060000600006
 43
60.00060000600006
 50
180.0
  0
MTEXT
  5
2F5
330
2ED
100
AcDbEntity
  8
NoLayerName_001
 62
     0
370
    25
100
AcDbMText
 10
2150.007500075001
 20
7451.779006437112
 30
0.0
 40
96.00096130371094
 41
0.0
 71
     5
 72
     1
  1
\W0.8000;1865
 73
     1
 44
1.0
  0
POINT
  5
2F6
330
2ED
100
AcDbEntity
  8
Defpoints
 62
     0
100
AcDbPoint
 10
3082.507500075001
 20
7005.078150781506
 30
0.0
  0
POINT
  5
2F7
330
2ED
100
AcDbEntity
  8
Defpoints
 62
     0
100
AcDbPoint
 10
1217.507500075001
 20
7005.078150781506
 30
0.0
  0
POINT
  5
2F8
330
2ED
100
AcDbEntity
  8
Defpoints
 62
     0
100
AcDbPoint
 10
1217.507500075001
 20
7366.278150781506
 30
0.0
  0
ENDBLK
  5
2EF
330
2ED
100
AcDbEntity
  8
0
100
AcDbBlockEnd
  0
BLOCK
  5
2FE
330
2FD
100
AcDbEntity
  8
0
100
AcDbBlockBegin
  2
*D10
 70
     1
 10
0.0
 20
0.0
 30
0.0
  3
*D10
  1
*D10
  0
LINE
  5
300
330
2FD
100
AcDbEntity
  8
NoLayerName_001
  6
Continuous
 62
     0
370
    25
100
AcDbLine
 10
1550.007500075001
 20
3182.500375201881
 30
0.0
 11
1550.007500075001
 21
2987.50022520038
 31
0.0
  0
LINE
  5
301
330
2FD
100
AcDbEntity
  8
NoLayerName_001
  6
Continuous
 62
     0
370
    25
100
AcDbLine
 10
2750.007500075001
 20
3182.500375201881
 30
0.0
 11
2750.007500075001
 21
2987.50022520038
 31
0.0
  0
LINE
  5
302
330
2FD
100
AcDbEntity
  8
NoLayerName_001
  6
Continuous
 62
     0
370
    25
100
AcDbLine
 10
1610.008100081001
 20
3017.50052520338
 30
0.0
 11
2690.006900069001
 21
3017.50052520338
 31
0.0
  0
INSERT
  5
303
330
2FD
100
AcDbEntity
  8
NoLayerName_001
 62
     0
370
    25
100
AcDbBlockReference
  2
_OPEN30
 10
1550.007500075001
 20
3017.50052520338
 30
0.0
 41
60.00060000600006
 42
60.00060000600006
 43
60.00060000600006
 50
180.0
  0
INSERT
  5
304
330
2FD
100
AcDbEntity
  8
NoLayerName_001
 62
     0
370
    25
100
AcDbBlockReference
  2
_OPEN30
 10
2750.007500075001
 20
3017.50052520338
 30
0.0
 41
60.00060000600006
 42
60.00060000600006
 43
60.00060000600006
  0
MTEXT
  5
305
330
2FD
100
AcDbEntity
  8
NoLayerName_001
 62
     0
370
    25
100
AcDbMText
 10
2150.007500075001
 20
3103.001380858986
 30
0.0
 40
96.00096130371094
 41
0.0
 71
     5
 72
     1
  1
\W0.8000;1200
 73
     1
 44
1.0
  0
POINT
  5
306
330
2FD
100
AcDbEntity
  8
Defpoints
 62
     0
100
AcDbPoint
 10
1550.007500075001
 20
3197.500525203381
 30
0.0
  0
POINT
  5
307
330
2FD
100
AcDbEntity
  8
Defpoints
 62
     0
100
AcDbPoint
 10
2750.007500075001
 20
3197.500525203381
 30
0.0
  0
POINT
  5
308
330
2FD
100
AcDbEntity
  8
Defpoints
 62
     0
100
AcDbPoint
 10
2750.007500075001
 20
3017.50052520338
 30
0.0
  0
ENDBLK
  5
2FF
330
2FD
100
AcDbEntity
  8
0
100
AcDbBlockEnd
  0
BLOCK
  5
30C
330
30B
100
AcDbEntity
  8
0
100
AcDbBlockBegin
  2
*D11
 70
     1
 10
0.0
 20
0.0
 30
0.0
  3
*D11
  1
*D11
  0
LINE
  5
30E
330
30B
100
AcDbEntity
  8
NoLayerName_001
  6
Continuous
 62
     0
370
    25
100
AcDbLine
 10
1510.007500075002
 20
3212.500375201881
 30
0.0
 11
1510.007500075002
 21
2837.50022520038
 31
0.0
  0
LINE
  5
30F
330
30B
100
AcDbEntity
  8
NoLayerName_001
  6
Continuous
 62
     0
370
    25
100
AcDbLine
 10
2790.007500075002
 20
3212.500375201879
 30
0.0
 11
2790.007500075002
 21
2837.50022520038
 31
0.0
  0
LINE
  5
310
330
30B
100
AcDbEntity
  8
NoLayerName_001
  6
Continuous
 62
     0
370
    25
100
AcDbLine
 10
1570.008100081002
 20
2867.50052520338
 30
0.0
 11
2730.006900069002
 21
2867.50052520338
 31
0.0
  0
INSERT
  5
311
330
30B
100
AcDbEntity
  8
NoLayerName_001
 62
     0
370
    25
100
AcDbBlockReference
  2
_OPEN30
 10
1510.007500075002
 20
2867.50052520338
 30
0.0
 41
60.00060000600006
 42
60.00060000600006
 43
60.00060000600006
 50
180.0
  0
INSERT
  5
312
330
30B
100
AcDbEntity
  8
NoLayerName_001
 62
     0
370
    25
100
AcDbBlockReference
  2
_OPEN30
 10
2790.007500075002
 20
2867.50052520338
 30
0.0
 41
60.00060000600006
 42
60.00060000600006
 43
60.00060000600006
  0
MTEXT
  5
313
330
30B
100
AcDbEntity
  8
NoLayerName_001
 62
     0
370
    25
100
AcDbMText
 10
2150.007500075002
 20
2953.001380858986
 30
0.0
 40
96.00096130371094
 41
0.0
 71
     5
 72
     1
  1
\W0.8000;1280
 73
     1
 44
1.0
  0
POINT
  5
314
330
30B
100
AcDbEntity
  8
Defpoints
 62
     0
100
AcDbPoint
 10
1510.007500075002
 20
3227.500525203381
 30
0.0
  0
POINT
  5
315
330
30B
100
AcDbEntity
  8
Defpoints
 62
     0
100
AcDbPoint
 10
2790.007500075002
 20
3227.500525203379
 30
0.0
  0
POINT
  5
316
330
30B
100
AcDbEntity
  8
Defpoints
 62
     0
100
AcDbPoint
 10
2790.007500075002
 20
2867.50052520338
 30
0.0
  0
ENDBLK
  5
30D
330
30B
100
AcDbEntity
  8
0
100
AcDbBlockEnd
  0
BLOCK
  5
31A
330
319
100
AcDbEntity
  8
0
100
AcDbBlockBegin
  2
*D12
 70
     1
 10
0.0
 20
0.0
 30
0.0
  3
*D12
  1
*D12
  0
LINE
  5
31C
330
319
100
AcDbEntity
  8
NoLayerName_001
  6
Continuous
 62
     0
370
    25
100
AcDbLine
 10
4250.060000600006
 20
3212.500375201881
 30
0.0
 11
4250.060000600006
 21
2819.973600132258
 31
0.0
  0
LINE
  5
31D
330
319
100
AcDbEntity
  8
NoLayerName_001
  6
Continuous
 62
     0
370
    25
100
AcDbLine
 10
5150.060000600005
 20
3212.500375201881
 30
0.0
 11
5150.060000600005
 21
2819.973600132258
 31
0.0
  0
LINE
  5
31E
330
319
100
AcDbEntity
  8
NoLayerName_001
  6
Continuous
 62
     0
370
    25
100
AcDbLine
 10
4310.060600606006
 20
2849.973900135258
 30
0.0
 11
5090.059400594005
 21
2849.973900135258
 31
0.0
  0
INSERT
  5
31F
330
319
100
AcDbEntity
  8
NoLayerName_001
 62
     0
370
    25
100
AcDbBlockReference
  2
_OPEN30
 10
4250.060000600006
 20
2849.973900135258
 30
0.0
 41
60.00060000600006
 42
60.00060000600006
 43
60.00060000600006
 50
180.0
  0
INSERT
  5
320
330
319
100
AcDbEntity
  8
NoLayerName_001
 62
     0
370
    25
100
AcDbBlockReference
  2
_OPEN30
 10
5150.060000600005
 20
2849.973900135258
 30
0.0
 41
60.00060000600006
 42
60.00060000600006
 43
60.00060000600006
  0
MTEXT
  5
321
330
319
100
AcDbEntity
  8
NoLayerName_001
 62
     0
370
    25
100
AcDbMText
 10
4700.060000600006
 20
2935.474755790864
 30
0.0
 40
96.00096130371094
 41
0.0
 71
     5
 72
     1
  1
\W0.8000;900
 73
     1
 44
1.0
  0
POINT
  5
322
330
319
100
AcDbEntity
  8
Defpoints
 62
     0
100
AcDbPoint
 10
4250.060000600006
 20
3227.500525203381
 30
0.0
  0
POINT
  5
323
330
319
100
AcDbEntity
  8
Defpoints
 62
     0
100
AcDbPoint
 10
5150.060000600005
 20
3227.500525203381
 30
0.0
  0
POINT
  5
324
330
319
100
AcDbEntity
  8
Defpoints
 62
     0
100
AcDbPoint
 10
5150.060000600005
 20
2849.973900135258
 30
0.0
  0
ENDBLK
  5
31B
330
319
100
AcDbEntity
  8
0
100
AcDbBlockEnd
  0
BLOCK
  5
328
330
327
100
AcDbEntity
  8
0
100
AcDbBlockBegin
  2
*D13
 70
     1
 10
0.0
 20
0.0
 30
0.0
  3
*D13
  1
*D13
  0
LINE
  5
32A
330
327
100
AcDbEntity
  8
NoLayerName_001
  6
Continuous
 62
     0
370
    25
100
AcDbLine
 10
4300.060000600006
 20
3182.500375201881
 30
0.0
 11
4300.060000600006
 21
2969.973600132258
 31
0.0
  0
LINE
  5
32B
330
327
100
AcDbEntity
  8
NoLayerName_001
  6
Continuous
 62
     0
370
    25
100
AcDbLine
 10
5100.060000600005
 20
3182.500375201881
 30
0.0
 11
5100.060000600005
 21
2969.973600132258
 31
0.0
  0
LINE
  5
32C
330
327
100
AcDbEntity
  8
NoLayerName_001
  6
Continuous
 62
     0
370
    25
100
AcDbLine
 10
4360.060600606006
 20
2999.973900135258
 30
0.0
 11
5040.059400594005
 21
2999.973900135258
 31
0.0
  0
INSERT
  5
32D
330
327
100
AcDbEntity
  8
NoLayerName_001
 62
     0
370
    25
100
AcDbBlockReference
  2
_OPEN30
 10
4300.060000600006
 20
2999.973900135258
 30
0.0
 41
60.00060000600006
 42
60.00060000600006
 43
60.00060000600006
 50
180.0
  0
INSERT
  5
32E
330
327
100
AcDbEntity
  8
NoLayerName_001
 62
     0
370
    25
100
AcDbBlockReference
  2
_OPEN30
 10
5100.060000600005
 20
2999.973900135258
 30
0.0
 41
60.00060000600006
 42
60.00060000600006
 43
60.00060000600006
  0
MTEXT
  5
32F
330
327
100
AcDbEntity
  8
NoLayerName_001
 62
     0
370
    25
100
AcDbMText
 10
4700.060000600006
 20
3085.474755790864
 30
0.0
 40
96.00096130371094
 41
0.0
 71
     5
 72
     1
  1
\W0.8000;800
 73
     1
 44
1.0
  0
POINT
  5
330
330
327
100
AcDbEntity
  8
Defpoints
 62
     0
100
AcDbPoint
 10
4300.060000600006
 20
3197.500525203381
 30
0.0
  0
POINT
  5
331
330
327
100
AcDbEntity
  8
Defpoints
 62
     0
100
AcDbPoint
 10
5100.060000600005
 20
3197.500525203381
 30
0.0
  0
POINT
  5
332
330
327
100
AcDbEntity
  8
Defpoints
 62
     0
100
AcDbPoint
 10
5100.060000600005
 20
2999.973900135258
 30
0.0
  0
ENDBLK
  5
329
330
327
100
AcDbEntity
  8
0
100
AcDbBlockEnd
  0
BLOCK
  5
336
330
335
100
AcDbEntity
  8
0
100
AcDbBlockBegin
  2
*D14
 70
     1
 10
0.0
 20
0.0
 30
0.0
  3
*D14
  1
*D14
  0
LINE
  5
338
330
335
100
AcDbEntity
  8
NoLayerName_001
  6
Continuous
 62
     0
370
    25
100
AcDbLine
 10
4540.059850598506
 20
4776.500525203381
 30
0.0
 11
4138.859700597006
 21
4776.500525203381
 31
0.0
  0
LINE
  5
339
330
335
100
AcDbEntity
  8
NoLayerName_001
  6
Continuous
 62
     0
370
    25
100
AcDbLine
 10
4447.559850598506
 20
4619.500525203379
 30
0.0
 11
4138.859700597006
 21
4619.500525203379
 31
0.0
  0
LINE
  5
33A
330
335
100
AcDbEntity
  8
NoLayerName_001
  6
Continuous
 62
     0
370
    25
100
AcDbLine
 10
4168.860000600006
 20
4776.500525203381
 30
0.0
 11
4168.860000600006
 21
4619.500525203379
 31
0.0
  0
LINE
  5
33B
330
335
100
AcDbEntity
  8
NoLayerName_001
  6
Continuous
 62
     0
370
    25
100
AcDbLine
 10
4168.860000600006
 20
4836.501125209381
 30
0.0
 11
4168.860000600006
 21
4896.501725215381
 31
0.0
  0
LINE
  5
33C
330
335
100
AcDbEntity
  8
NoLayerName_001
  6
Continuous
 62
     0
370
    25
100
AcDbLine
 10
4168.860000600006
 20
4559.499925197379
 30
0.0
 11
4168.860000600006
 21
4499.499325191378
 31
0.0
  0
INSERT
  5
33D
330
335
100
AcDbEntity
  8
NoLayerName_001
 62
     0
370
    25
100
AcDbBlockReference
  2
_OPEN30
 10
4168.860000600006
 20
4776.500525203381
 30
0.0
 41
60.00060000600006
 42
60.00060000600006
 43
60.00060000600006
 50
270.0
  0
INSERT
  5
33E
330
335
100
AcDbEntity
  8
NoLayerName_001
 62
     0
370
    25
100
AcDbBlockReference
  2
_OPEN30
 10
4168.860000600006
 20
4619.500525203379
 30
0.0
 41
60.00060000600006
 42
60.00060000600006
 43
60.00060000600006
 50
90.0
  0
MTEXT
  5
33F
330
335
100
AcDbEntity
  8
NoLayerName_001
 62
     0
370
    25
100
AcDbMText
 10
4083.359144944401
 20
4698.000523105213
 30
0.0
 40
96.00096130371094
 41
0.0
 71
     5
 72
     1
  1
\W0.8000;\T0.7500;157
 11
0.0
 21
1.0
 31
0.0
 73
     1
 44
1.0
  0
POINT
  5
340
330
335
100
AcDbEntity
  8
Defpoints
 62
     0
100
AcDbPoint
 10
4555.060000600006
 20
4776.500525203381
 30
0.0
  0
POINT
  5
341
330
335
100
AcDbEntity
  8
Defpoints
 62
     0
100
AcDbPoint
 10
4462.560000600006
 20
4619.500525203379
 30
0.0
  0
POINT
  5
342
330
335
100
AcDbEntity
  8
Defpoints
 62
     0
100
AcDbPoint
 10
4168.860000600006
 20
4619.500525203379
 30
0.0
  0
ENDBLK
  5
337
330
335
100
AcDbEntity
  8
0
100
AcDbBlockEnd
  0
BLOCK
  5
346
330
345
100
AcDbEntity
  8
0
100
AcDbBlockBegin
  2
*D15
 70
     1
 10
0.0
 20
0.0
 30
0.0
  3
*D15
  1
*D15
  0
LINE
  5
348
330
345
100
AcDbEntity
  8
NoLayerName_001
  6
Continuous
 62
     0
370
    25
100
AcDbLine
 10
4960.060150601505
 20
4879.500525203379
 30
0.0
 11
5321.260300603006
 21
4879.500525203379
 31
0.0
  0
LINE
  5
349
330
345
100
AcDbEntity
  8
NoLayerName_001
  6
Continuous
 62
     0
370
    25
100
AcDbLine
 10
5102.560150601505
 20
4619.500525203379
 30
0.0
 11
5321.260300603006
 21
4619.500525203379
 31
0.0
  0
LINE
  5
34A
330
345
100
AcDbEntity
  8
NoLayerName_001
  6
Continuous
 62
     0
370
    25
100
AcDbLine
 10
5291.260000600006
 20
4819.499925197379
 30
0.0
 11
5291.260000600006
 21
4679.501125209379
 31
0.0
  0
INSERT
  5
34B
330
345
100
AcDbEntity
  8
NoLayerName_001
 62
     0
370
    25
100
AcDbBlockReference
  2
_OPEN30
 10
5291.260000600006
 20
4879.500525203379
 30
0.0
 41
60.00060000600006
 42
60.00060000600006
 43
60.00060000600006
 50
90.0
  0
INSERT
  5
34C
330
345
100
AcDbEntity
  8
NoLayerName_001
 62
     0
370
    25
100
AcDbBlockReference
  2
_OPEN30
 10
5291.260000600006
 20
4619.500525203379
 30
0.0
 41
60.00060000600006
 42
60.00060000600006
 43
60.00060000600006
 50
270.0
  0
MTEXT
  5
34D
330
345
100
AcDbEntity
  8
NoLayerName_001
 62
     0
370
    25
100
AcDbMText
 10
5205.7591449444
 20
4749.500523105211
 30
0.0
 40
96.00096130371094
 41
0.0
 71
     5
 72
     1
  1
\W0.8000;\T0.7500;260
 11
0.0
 21
1.0
 31
0.0
 73
     1
 44
1.0
  0
POINT
  5
34E
330
345
100
AcDbEntity
  8
Defpoints
 62
     0
100
AcDbPoint
 10
4945.060000600006
 20
4879.500525203379
 30
0.0
  0
POINT
  5
34F
330
345
100
AcDbEntity
  8
Defpoints
 62
     0
100
AcDbPoint
 10
5087.560000600006
 20
4619.500525203379
 30
0.0
  0
POINT
  5
350
330
345
100
AcDbEntity
  8
Defpoints
 62
     0
100
AcDbPoint
 10
5291.260000600006
 20
4619.500525203379
 30
0.0
  0
ENDBLK
  5
347
330
345
100
AcDbEntity
  8
0
100
AcDbBlockEnd
  0
BLOCK
  5
354
330
353
100
AcDbEntity
  8
0
100
AcDbBlockBegin
  2
*D16
 70
     1
 10
0.0
 20
0.0
 30
0.0
  3
*D16
  1
*D16
  0
LINE
  5
356
330
353
100
AcDbEntity
  8
NoLayerName_001
  6
Continuous
 62
     0
370
    25
100
AcDbLine
 10
5165.060150601505
 20
3227.500525203381
 30
0.0
 11
5501.260300603006
 21
3227.500525203381
 31
0.0
  0
LINE
  5
357
330
353
100
AcDbEntity
  8
NoLayerName_001
  6
Continuous
 62
     0
370
    25
100
AcDbLine
 10
4935.060150601505
 20
4879.500525203379
 30
0.0
 11
5501.260300603006
 21
4879.500525203379
 31
0.0
  0
LINE
  5
358
330
353
100
AcDbEntity
  8
NoLayerName_001
  6
Continuous
 62
     0
370
    25
100
AcDbLine
 10
5471.260000600006
 20
3287.501125209381
 30
0.0
 11
5471.260000600006
 21
4819.499925197379
 31
0.0
  0
INSERT
  5
359
330
353
100
AcDbEntity
  8
NoLayerName_001
 62
     0
370
    25
100
AcDbBlockReference
  2
_OPEN30
 10
5471.260000600006
 20
3227.500525203381
 30
0.0
 41
60.00060000600006
 42
60.00060000600006
 43
60.00060000600006
 50
270.0
  0
INSERT
  5
35A
330
353
100
AcDbEntity
  8
NoLayerName_001
 62
     0
370
    25
100
AcDbBlockReference
  2
_OPEN30
 10
5471.260000600006
 20
4879.500525203379
 30
0.0
 41
60.00060000600006
 42
60.00060000600006
 43
60.00060000600006
 50
90.0
  0
MTEXT
  5
35B
330
353
100
AcDbEntity
  8
NoLayerName_001
 62
     0
370
    25
100
AcDbMText
 10
5385.7591449444
 20
4053.500523105212
 30
0.0
 40
96.00096130371094
 41
0.0
 71
     5
 72
     1
  1
\W0.8000;1652
 11
0.0
 21
1.0
 31
0.0
 73
     1
 44
1.0
  0
POINT
  5
35C
330
353
100
AcDbEntity
  8
Defpoints
 62
     0
100
AcDbPoint
 10
5150.060000600005
 20
3227.500525203381
 30
0.0
  0
POINT
  5
35D
330
353
100
AcDbEntity
  8
Defpoints
 62
     0
100
AcDbPoint
 10
4920.060000600006
 20
4879.500525203379
 30
0.0
  0
POINT
  5
35E
330
353
100
AcDbEntity
  8
Defpoints
 62
     0
100
AcDbPoint
 10
5471.260000600006
 20
4879.500525203379
 30
0.0
  0
ENDBLK
  5
355
330
353
100
AcDbEntity
  8
0
100
AcDbBlockEnd
  0
BLOCK
  5
362
330
361
100
AcDbEntity
  8
0
100
AcDbBlockBegin
  2
*D17
 70
     1
 10
0.0
 20
0.0
 30
0.0
  3
*D17
  1
*D17
  0
LINE
  5
364
330
361
100
AcDbEntity
  8
NoLayerName_001
  6
Continuous
 62
     0
370
    25
100
AcDbLine
 10
4920.060000600006
 20
4924.500675204879
 30
0.0
 11
4920.060000600006
 21
4995.587057942624
 31
0.0
  0
LINE
  5
365
330
361
100
AcDbEntity
  8
NoLayerName_001
  6
Continuous
 62
     0
370
    25
100
AcDbLine
 10
4700.060000600006
 20
4924.500675204879
 30
0.0
 11
4700.060000600006
 21
4995.587057942624
 31
0.0
  0
LINE
  5
366
330
361
100
AcDbEntity
  8
NoLayerName_001
  6
Continuous
 62
     0
370
    25
100
AcDbLine
 10
4860.059400594006
 20
4965.586757939624
 30
0.0
 11
4760.060600606006
 21
4965.586757939624
 31
0.0
  0
INSERT
  5
367
330
361
100
AcDbEntity
  8
NoLayerName_001
 62
     0
370
    25
100
AcDbBlockReference
  2
_OPEN30
 10
4920.060000600006
 20
4965.586757939624
 30
0.0
 41
60.00060000600006
 42
60.00060000600006
 43
60.00060000600006
  0
INSERT
  5
368
330
361
100
AcDbEntity
  8
NoLayerName_001
 62
     0
370
    25
100
AcDbBlockReference
  2
_OPEN30
 10
4700.060000600006
 20
4965.586757939624
 30
0.0
 41
60.00060000600006
 42
60.00060000600006
 43
60.00060000600006
 50
180.0
  0
MTEXT
  5
369
330
361
100
AcDbEntity
  8
NoLayerName_001
 62
     0
370
    25
100
AcDbMText
 10
4810.060000600006
 20
5051.087613595229
 30
0.0
 40
96.00096130371094
 41
0.0
 71
     5
 72
     1
  1
\W0.8000;\T0.7500;220
 73
     1
 44
1.0
  0
POINT
  5
36A
330
361
100
AcDbEntity
  8
Defpoints
 62
     0
100
AcDbPoint
 10
4920.060000600006
 20
4909.500525203379
 30
0.0
  0
POINT
  5
36B
330
361
100
AcDbEntity
  8
Defpoints
 62
     0
100
AcDbPoint
 10
4700.060000600006
 20
4909.500525203379
 30
0.0
  0
POINT
  5
36C
330
361
100
AcDbEntity
  8
Defpoints
 62
     0
100
AcDbPoint
 10
4700.060000600006
 20
4965.586757939624
 30
0.0
  0
ENDBLK
  5
363
330
361
100
AcDbEntity
  8
0
100
AcDbBlockEnd
  0
BLOCK
  5
370
330
36F
100
AcDbEntity
  8
0
100
AcDbBlockBegin
  2
*D18
 70
     1
 10
0.0
 20
0.0
 30
0.0
  3
*D18
  1
*D18
  0
LINE
  5
372
330
36F
100
AcDbEntity
  8
NoLayerName_001
  6
Continuous
 62
     0
370
    25
100
AcDbLine
 10
4555.060000600006
 20
4927.500675204879
 30
0.0
 11
4555.060000600006
 21
4995.587057942624
 31
0.0
  0
LINE
  5
373
330
36F
100
AcDbEntity
  8
NoLayerName_001
  6
Continuous
 62
     0
370
    25
100
AcDbLine
 10
4700.060000600006
 20
4924.500675204879
 30
0.0
 11
4700.060000600006
 21
4995.587057942624
 31
0.0
  0
LINE
  5
374
330
36F
100
AcDbEntity
  8
NoLayerName_001
  6
Continuous
 62
     0
370
    25
100
AcDbLine
 10
4555.060000600006
 20
4965.586757939624
 30
0.0
 11
4235.098170725812
 21
4965.586757939624
 31
0.0
  0
LINE
  5
375
330
36F
100
AcDbEntity
  8
NoLayerName_001
  6
Continuous
 62
     0
370
    25
100
AcDbLine
 10
4555.060000600006
 20
4965.586757939624
 30
0.0
 11
4700.060000600006
 21
4965.586757939624
 31
0.0
  0
LINE
  5
376
330
36F
100
AcDbEntity
  8
NoLayerName_001
  6
Continuous
 62
     0
370
    25
100
AcDbLine
 10
4495.059400594006
 20
4965.586757939624
 30
0.0
 11
4435.058800588005
 21
4965.586757939624
 31
0.0
  0
LINE
  5
377
330
36F
100
AcDbEntity
  8
NoLayerName_001
  6
Continuous
 62
     0
370
    25
100
AcDbLine
 10
4760.060600606006
 20
4965.586757939624
 30
0.0
 11
4820.061200612006
 21
4965.586757939624
 31
0.0
  0
INSERT
  5
378
330
36F
100
AcDbEntity
  8
NoLayerName_001
 62
     0
370
    25
100
AcDbBlockReference
  2
_OPEN30
 10
4555.060000600006
 20
4965.586757939624
 30
0.0
 41
60.00060000600006
 42
60.00060000600006
 43
60.00060000600006
  0
INSERT
  5
379
330
36F
100
AcDbEntity
  8
NoLayerName_001
 62
     0
370
    25
100
AcDbBlockReference
  2
_OPEN30
 10
4700.060000600006
 20
4965.586757939624
 30
0.0
 41
60.00060000600006
 42
60.00060000600006
 43
60.00060000600006
 50
180.0
  0
MTEXT
  5
37A
330
36F
100
AcDbEntity
  8
NoLayerName_001
 62
     0
370
    25
100
AcDbMText
 10
4335.078485656909
 20
5051.087613595229
 30
0.0
 40
96.00096130371094
 41
0.0
 71
     5
 72
     1
  1
\W0.6667;\T0.7500;145
 73
     1
 44
1.0
  0
POINT
  5
37B
330
36F
100
AcDbEntity
  8
Defpoints
 62
     0
100
AcDbPoint
 10
4555.060000600006
 20
4912.500525203379
 30
0.0
  0
POINT
  5
37C
330
36F
100
AcDbEntity
  8
Defpoints
 62
     0
100
AcDbPoint
 10
4700.060000600006
 20
4909.500525203379
 30
0.0
  0
POINT
  5
37D
330
36F
100
AcDbEntity
  8
Defpoints
 62
     0
100
AcDbPoint
 10
4700.060000600006
 20
4965.586757939624
 30
0.0
  0
ENDBLK
  5
371
330
36F
100
AcDbEntity
  8
0
100
AcDbBlockEnd
  0
BLOCK
  5
381
330
380
100
AcDbEntity
  8
0
100
AcDbBlockBegin
  2
*D19
 70
     1
 10
0.0
 20
0.0
 30
0.0
  3
*D19
  1
*D19
  0
LINE
  5
383
330
380
100
AcDbEntity
  8
NoLayerName_001
  6
Continuous
 62
     0
370
    25
100
AcDbLine
 10
2150.007500075001
 20
7119.278300783006
 30
0.0
 11
2150.007500075001
 21
7216.278450784506
 31
0.0
  0
LINE
  5
384
330
380
100
AcDbEntity
  8
NoLayerName_001
  6
Continuous
 62
     0
370
    25
100
AcDbLine
 10
1970.007500075001
 20
6935.078522310914
 30
0.0
 11
1970.007500075001
 21
7216.278450784506
 31
0.0
  0
LINE
  5
385
330
380
100
AcDbEntity
  8
NoLayerName_001
  6
Continuous
 62
     0
370
    25
100
AcDbLine
 10
2105.007050070501
 20
7186.278150781506
 30
0.0
 11
2015.007950079501
 21
7186.278150781506
 31
0.0
  0
INSERT
  5
386
330
380
100
AcDbEntity
  8
NoLayerName_001
 62
     0
370
    25
100
AcDbBlockReference
  2
_OPEN30
 10
2150.007500075001
 20
7186.278150781506
 30
0.0
 41
45.00045000450005
 42
45.00045000450005
 43
45.00045000450005
  0
INSERT
  5
387
330
380
100
AcDbEntity
  8
NoLayerName_001
 62
     0
370
    25
100
AcDbBlockReference
  2
_OPEN30
 10
1970.007500075001
 20
7186.278150781506
 30
0.0
 41
45.00045000450005
 42
45.00045000450005
 43
45.00045000450005
 50
180.0
  0
MTEXT
  5
388
330
380
100
AcDbEntity
  8
NoLayerName_001
 62
     0
370
    25
100
AcDbMText
 10
2060.007500075001
 20
7271.779006437112
 30
0.0
 40
96.00096130371094
 41
0.0
 71
     5
 72
     1
  1
\W0.8000;\T0.7500;180
 73
     1
 44
1.0
  0
POINT
  5
389
330
380
100
AcDbEntity
  8
Defpoints
 62
     0
100
AcDbPoint
 10
2150.007500075001
 20
7104.278150781506
 30
0.0
  0
POINT
  5
38A
330
380
100
AcDbEntity
  8
Defpoints
 62
     0
100
AcDbPoint
 10
1970.007500075001
 20
6920.078372309415
 30
0.0
  0
POINT
  5
38B
330
380
100
AcDbEntity
  8
Defpoints
 62
     0
100
AcDbPoint
 10
1970.007500075001
 20
7186.278150781506
 30
0.0
  0
ENDBLK
  5
382
330
380
100
AcDbEntity
  8
0
100
AcDbBlockEnd
  0
BLOCK
  5
38F
330
38E
100
AcDbEntity
  8
0
100
AcDbBlockBegin
  2
*D20
 70
     1
 10
0.0
 20
0.0
 30
0.0
  3
*D20
  1
*D20
  0
LINE
  5
391
330
38E
100
AcDbEntity
  8
NoLayerName_001
  6
Continuous
 62
     0
370
    25
100
AcDbLine
 10
2330.007500075001
 20
6935.078522310914
 30
0.0
 11
2330.007500075001
 21
7216.278450784506
 31
0.0
  0
LINE
  5
392
330
38E
100
AcDbEntity
  8
NoLayerName_001
  6
Continuous
 62
     0
370
    25
100
AcDbLine
 10
2150.007500075001
 20
7119.278300783006
 30
0.0
 11
2150.007500075001
 21
7216.278450784506
 31
0.0
  0
LINE
  5
393
330
38E
100
AcDbEntity
  8
NoLayerName_001
  6
Continuous
 62
     0
370
    25
100
AcDbLine
 10
2285.007050070501
 20
7186.278150781506
 30
0.0
 11
2195.007950079501
 21
7186.278150781506
 31
0.0
  0
INSERT
  5
394
330
38E
100
AcDbEntity
  8
NoLayerName_001
 62
     0
370
    25
100
AcDbBlockReference
  2
_OPEN30
 10
2330.007500075001
 20
7186.278150781506
 30
0.0
 41
45.00045000450005
 42
45.00045000450005
 43
45.00045000450005
  0
INSERT
  5
395
330
38E
100
AcDbEntity
  8
NoLayerName_001
 62
     0
370
    25
100
AcDbBlockReference
  2
_OPEN30
 10
2150.007500075001
 20
7186.278150781506
 30
0.0
 41
45.00045000450005
 42
45.00045000450005
 43
45.00045000450005
 50
180.0
  0
MTEXT
  5
396
330
38E
100
AcDbEntity
  8
NoLayerName_001
 62
     0
370
    25
100
AcDbMText
 10
2240.007500075001
 20
7271.779006437112
 30
0.0
 40
96.00096130371094
 41
0.0
 71
     5
 72
     1
  1
\W0.8000;\T0.7500;180
 73
     1
 44
1.0
  0
POINT
  5
397
330
38E
100
AcDbEntity
  8
Defpoints
 62
     0
100
AcDbPoint
 10
2330.007500075001
 20
6920.078372309415
 30
0.0
  0
POINT
  5
398
330
38E
100
AcDbEntity
  8
Defpoints
 62
     0
100
AcDbPoint
 10
2150.007500075001
 20
7104.278150781506
 30
0.0
  0
POINT
  5
399
330
38E
100
AcDbEntity
  8
Defpoints
 62
     0
100
AcDbPoint
 10
2150.007500075001
 20
7186.278150781506
 30
0.0
  0
ENDBLK
  5
390
330
38E
100
AcDbEntity
  8
0
100
AcDbBlockEnd
  0
BLOCK
  5
39D
330
39C
100
AcDbEntity
  8
0
100
AcDbBlockBegin
  2
*D21
 70
     1
 10
0.0
 20
0.0
 30
0.0
  3
*D21
  1
*D21
  0
LINE
  5
39F
330
39C
100
AcDbEntity
  8
NoLayerName_001
  6
Continuous
 62
     0
370
    25
100
AcDbLine
 10
1172.507350073501
 20
6615.078150781507
 30
0.0
 11
1087.507200072001
 21
6615.078150781507
 31
0.0
  0
LINE
  5
3A0
330
39C
100
AcDbEntity
  8
NoLayerName_001
  6
Continuous
 62
     0
370
    25
100
AcDbLine
 10
1279.745700016563
 20
6130.363146058835
 30
0.0
 11
1087.507200072001
 21
6130.363146058835
 31
0.0
  0
LINE
  5
3A1
330
39C
100
AcDbEntity
  8
NoLayerName_001
  6
Continuous
 62
     0
370
    25
100
AcDbLine
 10
1117.507500075001
 20
6555.077550775507
 30
0.0
 11
1117.507500075001
 21
6190.363746064835
 31
0.0
  0
INSERT
  5
3A2
330
39C
100
AcDbEntity
  8
NoLayerName_001
 62
     0
370
    25
100
AcDbBlockReference
  2
_OPEN30
 10
1117.507500075001
 20
6615.078150781507
 30
0.0
 41
60.00060000600006
 42
60.00060000600006
 43
60.00060000600006
 50
90.0
  0
INSERT
  5
3A3
330
39C
100
AcDbEntity
  8
NoLayerName_001
 62
     0
370
    25
100
AcDbBlockReference
  2
_OPEN30
 10
1117.507500075001
 20
6130.363146058835
 30
0.0
 41
60.00060000600006
 42
60.00060000600006
 43
60.00060000600006
 50
270.0
  0
MTEXT
  5
3A4
330
39C
100
AcDbEntity
  8
NoLayerName_001
 62
     0
370
    25
100
AcDbMText
 10
1032.006644419396
 20
6372.720646322003
 30
0.0
 40
96.00096130371094
 41
0.0
 71
     5
 72
     1
  1
\W0.8000;４８５
 11
0.0
 21
1.0
 31
0.0
 73
     1
 44
1.0
  0
POINT
  5
3A5
330
39C
100
AcDbEntity
  8
Defpoints
 62
     0
100
AcDbPoint
 10
1187.507500075001
 20
6615.078150781507
 30
0.0
  0
POINT
  5
3A6
330
39C
100
AcDbEntity
  8
Defpoints
 62
     0
100
AcDbPoint
 10
1294.745850018063
 20
6130.363146058835
 30
0.0
  0
POINT
  5
3A7
330
39C
100
AcDbEntity
  8
Defpoints
 62
     0
100
AcDbPoint
 10
1117.507500075001
 20
6130.363146058835
 30
0.0
  0
ENDBLK
  5
39E
330
39C
100
AcDbEntity
  8
0
100
AcDbBlockEnd
  0
BLOCK
  5
3AB
330
3AA
100
AcDbEntity
  8
0
100
AcDbBlockBegin
  2
*D22
 70
     1
 10
0.0
 20
0.0
 30
0.0
  3
*D22
  1
*D22
  0
LINE
  5
3AD
330
3AA
100
AcDbEntity
  8
NoLayerName_001
  6
Continuous
 62
     0
370
    25
100
AcDbLine
 10
1102.507350073501
 20
6130.363146058835
 30
0.0
 11
927.0136946766503
 21
6130.363146058835
 31
0.0
  0
LINE
  5
3AE
330
3AA
100
AcDbEntity
  8
NoLayerName_001
  6
Continuous
 62
     0
370
    25
100
AcDbLine
 10
1405.007350073501
 20
7074.278150781506
 30
0.0
 11
927.0136946766504
 21
7074.278150781506
 31
0.0
  0
LINE
  5
3AF
330
3AA
100
AcDbEntity
  8
NoLayerName_001
  6
Continuous
 62
     0
370
    25
100
AcDbLine
 10
957.0139946796503
 20
6175.363596063335
 30
0.0
 11
957.0139946796504
 21
7029.277700777006
 31
0.0
  0
INSERT
  5
3B0
330
3AA
100
AcDbEntity
  8
NoLayerName_001
 62
     0
370
    25
100
AcDbBlockReference
  2
_OPEN30
 10
957.0139946796503
 20
6130.363146058835
 30
0.0
 41
45.00045000450005
 42
45.00045000450005
 43
45.00045000450005
 50
270.0
  0
INSERT
  5
3B1
330
3AA
100
AcDbEntity
  8
NoLayerName_001
 62
     0
370
    25
100
AcDbBlockReference
  2
_OPEN30
 10
957.0139946796504
 20
7074.278150781506
 30
0.0
 41
45.00045000450005
 42
45.00045000450005
 43
45.00045000450005
 50
90.0
  0
MTEXT
  5
3B2
330
3AA
100
AcDbEntity
  8
NoLayerName_001
 62
     0
370
    25
100
AcDbMText
 10
871.5131390240448
 20
6602.320646322003
 30
0.0
 40
96.00096130371094
 41
0.0
 71
     5
 72
     1
  1
\W0.8000;９５０
 11
1.204418164271242E-16
 21
1.0
 31
0.0
 73
     1
 44
1.0
  0
POINT
  5
3B3
330
3AA
100
AcDbEntity
  8
Defpoints
 62
     0
100
AcDbPoint
 10
1117.507500075001
 20
6130.363146058835
 30
0.0
  0
POINT
  5
3B4
330
3AA
100
AcDbEntity
  8
Defpoints
 62
     0
100
AcDbPoint
 10
1420.007500075001
 20
7074.278150781506
 30
0.0
  0
POINT
  5
3B5
330
3AA
100
AcDbEntity
  8
Defpoints
 62
     0
100
AcDbPoint
 10
957.0139946796503
 20
7074.278150781506
 30
0.0
  0
ENDBLK
  5
3AC
330
3AA
100
AcDbEntity
  8
0
100
AcDbBlockEnd
  0
ENDSEC
  0
SECTION
  2
ENTITIES
  0
POINT
  5
B5
330
1F
100
AcDbEntity
  8
NoLayerName_001
  6
Continuous
 62
     7
 60
     1
370
    50
100
AcDbPoint
 10
0.0
 20
0.0
 30
0.0
  0
LINE
  5
B6
330
1F
100
AcDbEntity
  8
NoLayerName_001
  6
Continuous
 62
     7
370
    25
100
AcDbLine
 10
2154.507500075001
 20
3337.50052520338
 30
0.0
 11
2145.507500075001
 21
3337.50052520338
 31
0.0
  0
LINE
  5
B7
330
1F
100
AcDbEntity
  8
NoLayerName_001
  6
Continuous
 62
     7
370
    25
100
AcDbLine
 10
4502.960000600006
 20
3337.50052520338
 30
0.0
 11
4493.960000600006
 21
3337.50052520338
 31
0.0
  0
LINE
  5
B8
330
1F
100
AcDbEntity
  8
NoLayerName_001
  6
Continuous
 62
     7
370
    25
100
AcDbLine
 10
4897.160000600006
 20
3337.50052520338
 30
0.0
 11
4906.160000600006
 21
3337.50052520338
 31
0.0
  0
LINE
  5
B9
330
1F
100
AcDbEntity
  8
NoLayerName_001
  6
Continuous
 62
     7
370
    50
100
AcDbLine
 10
1217.507500075001
 20
7005.078150781506
 30
0.0
 11
3082.507500075001
 21
7005.078150781506
 31
0.0
  0
CIRCLE
  5
BA
330
1F
100
AcDbEntity
  8
NoLayerName_001
  6
Continuous
 62
     2
370
    25
100
AcDbCircle
 10
2932.507500075001
 20
6805.078150781505
 30
0.0
 40
24.99999988824129
  0
LINE
  5
BB
330
1F
100
AcDbEntity
  8
NoLayerName_001
  6
Continuous
 62
     7
370
    50
100
AcDbLine
 10
1217.507500075001
 20
7005.078150781506
 30
0.0
 11
1217.507500075001
 21
6225.078150781507
 31
0.0
  0
LINE
  5
BC
330
1F
100
AcDbEntity
  8
NoLayerName_001
  6
Continuous
 62
     7
370
    50
100
AcDbLine
 10
3082.507500075001
 20
7005.078150781506
 30
0.0
 11
3082.507500075001
 21
6225.078150781507
 31
0.0
  0
CIRCLE
  5
BD
330
1F
100
AcDbEntity
  8
NoLayerName_001
  6
Continuous
 62
     7
370
    25
100
AcDbCircle
 10
1417.507500075001
 20
6475.078150781507
 30
0.0
 40
16.0
  0
LINE
  5
BE
330
1F
100
AcDbEntity
  8
NoLayerName_001
  6
Continuous
 62
     7
370
    25
100
AcDbLine
 10
2892.007500075001
 20
7066.078150781505
 30
0.0
 11
2908.007500075001
 21
7066.078150781505
 31
0.0
  0
LINE
  5
BF
330
1F
100
AcDbEntity
  8
NoLayerName_001
  6
Continuous
 62
     7
370
    25
100
AcDbLine
 10
2892.007500075001
 20
7005.078150781505
 30
0.0
 11
2892.007500075001
 21
7066.078150781505
 31
0.0
  0
LINE
  5
C0
330
1F
100
AcDbEntity
  8
NoLayerName_001
  6
Continuous
 62
     7
370
    25
100
AcDbLine
 10
2908.007500075001
 20
7005.078150781505
 30
0.0
 11
2908.007500075001
 21
7066.078150781505
 31
0.0
  0
LINE
  5
C1
330
1F
100
AcDbEntity
  8
NoLayerName_001
  6
Continuous
 62
     7
370
    25
100
AcDbLine
 10
1408.007500075004
 20
7066.078150781507
 30
0.0
 11
1392.007500075004
 21
7066.078150781507
 31
0.0
  0
LINE
  5
C2
330
1F
100
AcDbEntity
  8
NoLayerName_001
  6
Continuous
 62
     7
370
    25
100
AcDbLine
 10
1408.007500075004
 20
7005.078150781507
 30
0.0
 11
1408.007500075004
 21
7066.078150781507
 31
0.0
  0
LINE
  5
C3
330
1F
100
AcDbEntity
  8
NoLayerName_001
  6
Continuous
 62
     7
370
    25
100
AcDbLine
 10
1392.007500075004
 20
7005.078150781507
 30
0.0
 11
1392.007500075004
 21
7066.078150781507
 31
0.0
  0
LINE
  5
C4
330
1F
100
AcDbEntity
  8
NoLayerName_001
  6
Continuous
 62
     7
370
    25
100
AcDbLine
 10
2892.007500075001
 20
6164.078150781509
 30
0.0
 11
2908.007500075001
 21
6164.078150781509
 31
0.0
  0
LINE
  5
C5
330
1F
100
AcDbEntity
  8
NoLayerName_001
  6
Continuous
 62
     7
370
    25
100
AcDbLine
 10
2892.007500075001
 20
6225.078150781509
 30
0.0
 11
2892.007500075001
 21
6164.078150781509
 31
0.0
  0
LINE
  5
C6
330
1F
100
AcDbEntity
  8
NoLayerName_001
  6
Continuous
 62
     7
370
    25
100
AcDbLine
 10
2908.007500075001
 20
6225.078150781509
 30
0.0
 11
2908.007500075001
 21
6164.078150781509
 31
0.0
  0
LINE
  5
C7
330
1F
100
AcDbEntity
  8
NoLayerName_001
  6
Continuous
 62
     7
370
    25
100
AcDbLine
 10
1408.007500075004
 20
6164.078150781507
 30
0.0
 11
1392.007500075004
 21
6164.078150781507
 31
0.0
  0
LINE
  5
C8
330
1F
100
AcDbEntity
  8
NoLayerName_001
  6
Continuous
 62
     7
370
    25
100
AcDbLine
 10
1408.007500075004
 20
6225.078150781507
 30
0.0
 11
1408.007500075004
 21
6164.078150781507
 31
0.0
  0
LINE
  5
C9
330
1F
100
AcDbEntity
  8
NoLayerName_001
  6
Continuous
 62
     7
370
    25
100
AcDbLine
 10
1392.007500075004
 20
6225.078150781507
 30
0.0
 11
1392.007500075004
 21
6164.078150781507
 31
0.0
  0
LINE
  5
CA
330
1F
100
AcDbEntity
  8
NoLayerName_001
  6
Continuous
 62
     7
370
    50
100
AcDbLine
 10
1281.507500075001
 20
3412.86052520338
 30
0.0
 11
1280.707500075001
 21
3413.50052520338
 31
0.0
  0
LINE
  5
CB
330
1F
100
AcDbEntity
  8
NoLayerName_001
  6
Continuous
 62
     7
370
    50
100
AcDbLine
 10
3018.507500075001
 20
3337.50052520338
 30
0.0
 11
3068.507500075001
 21
3337.50052520338
 31
0.0
  0
LINE
  5
CC
330
1F
100
AcDbEntity
  8
NoLayerName_001
  6
Continuous
 62
     7
370
    50
100
AcDbLine
 10
3037.286146849739
 20
3337.50052520338
 30
0.0
 11
3078.507500075
 21
3337.50052520338
 31
0.0
  0
LINE
  5
CD
330
1F
100
AcDbEntity
  8
NoLayerName_001
  6
Continuous
 62
     7
370
    50
100
AcDbLine
 10
3018.507500075001
 20
3412.86052520338
 30
0.0
 11
3019.307500075002
 21
3413.50052520338
 31
0.0
  0
LINE
  5
CE
330
1F
100
AcDbEntity
  8
NoLayerName_001
  6
Continuous
 62
     7
370
    25
100
AcDbLine
 10
2892.007500074999
 20
3337.50052520338
 30
0.0
 11
2908.007500074999
 21
3337.50052520338
 31
0.0
  0
LINE
  5
CF
330
1F
100
AcDbEntity
  8
NoLayerName_001
  6
Continuous
 62
     7
370
    25
100
AcDbLine
 10
1408.007500075003
 20
3337.50052520338
 30
0.0
 11
1392.007500075003
 21
3337.50052520338
 31
0.0
  0
LINE
  5
D0
330
1F
100
AcDbEntity
  8
NoLayerName_001
  6
Continuous
 62
     7
370
    25
100
AcDbLine
 10
1600.007500075002
 20
3317.500525203379
 30
0.0
 11
1600.007500075002
 21
3227.500525203379
 31
0.0
  0
LINE
  5
D1
330
1F
100
AcDbEntity
  8
NoLayerName_001
  6
Continuous
 62
     7
370
    25
100
AcDbLine
 10
1510.007500075002
 20
3237.500525203379
 30
0.0
 11
1510.007500075002
 21
3227.500525203379
 31
0.0
  0
LINE
  5
D2
330
1F
100
AcDbEntity
  8
NoLayerName_001
  6
Continuous
 62
     7
370
    25
100
AcDbLine
 10
1510.007500075002
 20
3227.500525203381
 30
0.0
 11
1600.007500075002
 21
3227.500525203381
 31
0.0
  0
LINE
  5
D3
330
1F
100
AcDbEntity
  8
NoLayerName_001
  6
Continuous
 62
     7
370
    25
100
AcDbLine
 10
1590.007500075002
 20
3317.500525203379
 30
0.0
 11
1590.007500075002
 21
3237.500525203379
 31
0.0
  0
LINE
  5
D4
330
1F
100
AcDbEntity
  8
NoLayerName_001
  6
Continuous
 62
     7
370
    25
100
AcDbLine
 10
1510.007500075002
 20
3237.50052520338
 30
0.0
 11
1590.007500075003
 21
3237.50052520338
 31
0.0
  0
LINE
  5
D5
330
1F
100
AcDbEntity
  8
NoLayerName_001
  6
Continuous
 62
     7
370
    25
100
AcDbLine
 10
1600.007500075002
 20
3312.500546774967
 30
0.0
 11
1630.007502981019
 21
3312.500546774967
 31
0.0
  0
LINE
  5
D6
330
1F
100
AcDbEntity
  8
NoLayerName_001
  6
Continuous
 62
     7
370
    25
100
AcDbLine
 10
1600.007500075002
 20
3293.500539398154
 30
0.0
 11
1630.007502981019
 21
3293.500539398154
 31
0.0
  0
LINE
  5
D7
330
1F
100
AcDbEntity
  8
NoLayerName_001
  6
Continuous
 62
     7
370
    25
100
AcDbLine
 10
1630.007502981019
 20
3312.500546774966
 30
0.0
 11
1630.007502981019
 21
3293.500539398154
 31
0.0
  0
LINE
  5
D8
330
1F
100
AcDbEntity
  8
NoLayerName_001
  6
Continuous
 62
     7
370
    25
100
AcDbLine
 10
2700.007500075002
 20
3317.500525203379
 30
0.0
 11
2700.007500075002
 21
3227.500525203379
 31
0.0
  0
LINE
  5
D9
330
1F
100
AcDbEntity
  8
NoLayerName_001
  6
Continuous
 62
     7
370
    25
100
AcDbLine
 10
2790.007500075002
 20
3237.500525203379
 30
0.0
 11
2790.007500075002
 21
3227.500525203379
 31
0.0
  0
LINE
  5
DA
330
1F
100
AcDbEntity
  8
NoLayerName_001
  6
Continuous
 62
     7
370
    25
100
AcDbLine
 10
2790.007500075002
 20
3227.500525203381
 30
0.0
 11
2700.007500075002
 21
3227.500525203381
 31
0.0
  0
LINE
  5
DB
330
1F
100
AcDbEntity
  8
NoLayerName_001
  6
Continuous
 62
     7
370
    25
100
AcDbLine
 10
2710.007500075002
 20
3317.500525203379
 30
0.0
 11
2710.007500075002
 21
3237.500525203379
 31
0.0
  0
LINE
  5
DC
330
1F
100
AcDbEntity
  8
NoLayerName_001
  6
Continuous
 62
     7
370
    25
100
AcDbLine
 10
2790.007500075002
 20
3237.50052520338
 30
0.0
 11
2710.007500075002
 21
3237.50052520338
 31
0.0
  0
LINE
  5
DD
330
1F
100
AcDbEntity
  8
NoLayerName_001
  6
Continuous
 62
     7
370
    50
100
AcDbLine
 10
1600.007500075002
 20
3242.500525203381
 30
0.0
 11
2700.007500075003
 21
3242.500525203381
 31
0.0
  0
LINE
  5
DE
330
1F
100
AcDbEntity
  8
NoLayerName_001
  6
DASHED
 62
     7
370
    25
100
AcDbLine
 10
2670.007497168983
 20
3312.500546774966
 30
0.0
 11
2670.007497168983
 21
3293.500539398154
 31
0.0
  0
LINE
  5
DF
330
1F
100
AcDbEntity
  8
NoLayerName_001
  6
DASHED
 62
     7
370
    25
100
AcDbLine
 10
2700.007500075001
 20
3293.500539398154
 30
0.0
 11
2670.007497168983
 21
3293.500539398154
 31
0.0
  0
LINE
  5
E0
330
1F
100
AcDbEntity
  8
NoLayerName_001
  6
DASHED
 62
     7
370
    25
100
AcDbLine
 10
2700.007500075001
 20
3312.500546774967
 30
0.0
 11
2670.007497168983
 21
3312.500546774967
 31
0.0
  0
LINE
  5
E1
330
1F
100
AcDbEntity
  8
NoLayerName_001
  6
Continuous
 62
     7
370
    50
100
AcDbLine
 10
4250.060000600006
 20
3317.500525203379
 30
0.0
 11
4250.060000600006
 21
3227.500525203379
 31
0.0
  0
LINE
  5
E2
330
1F
100
AcDbEntity
  8
NoLayerName_001
  6
Continuous
 62
     7
370
    50
100
AcDbLine
 10
5150.060000600005
 20
3317.500525203379
 30
0.0
 11
5150.060000600005
 21
3227.500525203379
 31
0.0
  0
LINE
  5
E3
330
1F
100
AcDbEntity
  8
NoLayerName_001
  6
Continuous
 62
     7
370
    50
100
AcDbLine
 10
4250.060000600006
 20
3227.500525203381
 30
0.0
 11
5150.060000600005
 21
3227.500525203381
 31
0.0
  0
LINE
  5
E4
330
1F
100
AcDbEntity
  8
NoLayerName_001
  6
Continuous
 62
     7
370
    25
100
AcDbLine
 10
4250.060000600006
 20
3237.50052520338
 30
0.0
 11
5150.060000600005
 21
3237.50052520338
 31
0.0
  0
LINE
  5
E5
330
1F
100
AcDbEntity
  8
NoLayerName_001
  6
Continuous
 62
     7
370
    50
100
AcDbLine
 10
4250.060000600006
 20
3317.50052520338
 30
0.0
 11
5150.060000600005
 21
3317.50052520338
 31
0.0
  0
LINE
  5
E6
330
1F
100
AcDbEntity
  8
NoLayerName_001
  6
Continuous
 62
     7
370
    25
100
AcDbLine
 10
5039.060000600006
 20
3323.50052520338
 30
0.0
 11
5039.060000600006
 21
3317.500525203379
 31
0.0
  0
LINE
  5
E7
330
1F
100
AcDbEntity
  8
NoLayerName_001
  6
Continuous
 62
     7
370
    25
100
AcDbLine
 10
4361.060000600006
 20
3323.50052520338
 30
0.0
 11
4361.060000600006
 21
3317.500525203379
 31
0.0
  0
LINE
  5
E8
330
1F
100
AcDbEntity
  8
NoLayerName_001
  6
Continuous
 62
     7
370
    25
100
AcDbLine
 10
4361.060000600006
 20
3323.50052520338
 30
0.0
 11
5039.060000600006
 21
3323.50052520338
 31
0.0
  0
LINE
  5
E9
330
1F
100
AcDbEntity
  8
NoLayerName_001
  6
Continuous
 62
     7
370
    50
100
AcDbLine
 10
4372.860000600007
 20
3337.50052520338
 30
0.0
 11
4249.060000600006
 21
3337.50052520338
 31
0.0
  0
LINE
  5
EA
330
1F
100
AcDbEntity
  8
NoLayerName_001
  6
Continuous
 62
     7
370
    50
100
AcDbLine
 10
5027.260000600006
 20
3337.50052520338
 30
0.0
 11
5151.060000600006
 21
3337.50052520338
 31
0.0
  0
LINE
  5
EB
330
1F
100
AcDbEntity
  8
NoLayerName_001
  6
Continuous
 62
     7
370
    25
100
AcDbLine
 10
2145.507500075001
 20
4597.500525203379
 30
0.0
 11
2145.507500075001
 21
3337.500525203379
 31
0.0
  0
LINE
  5
EC
330
1F
100
AcDbEntity
  8
NoLayerName_001
  6
Continuous
 62
     7
370
    25
100
AcDbLine
 10
2154.507500075001
 20
4597.500525203379
 30
0.0
 11
2154.507500075001
 21
3337.500525203379
 31
0.0
  0
LINE
  5
ED
330
1F
100
AcDbEntity
  8
NoLayerName_001
  6
Continuous
 62
     5
370
    25
100
AcDbLine
 10
2378.007377959987
 20
4667.500585478574
 30
0.0
 11
2378.007377959987
 21
4753.50064523223
 31
0.0
  0
LINE
  5
EE
330
1F
100
AcDbEntity
  8
NoLayerName_001
  6
CENTER
 62
     3
370
    25
100
AcDbLine
 10
2385.387443767987
 20
4738.500645455748
 30
0.0
 11
2364.907402569257
 21
4738.500645455748
 31
0.0
  0
LINE
  5
EF
330
1F
100
AcDbEntity
  8
NoLayerName_001
  6
CENTER
 62
     3
370
    25
100
AcDbLine
 10
2385.387443767987
 20
4698.500646051794
 30
0.0
 11
2364.907402569257
 21
4698.500646051794
 31
0.0
  0
LINE
  5
F0
330
1F
100
AcDbEntity
  8
NoLayerName_001
  6
Continuous
 62
     5
370
    25
100
AcDbLine
 10
2376.007561095258
 20
4755.500462096963
 30
0.0
 11
2374.00743905475
 21
4755.500462096963
 31
0.0
  0
LINE
  5
F1
330
1F
100
AcDbEntity
  8
NoLayerName_001
  6
Continuous
 62
     5
370
    25
100
AcDbLine
 10
2397.007621817488
 20
4665.500463438068
 30
0.0
 11
2353.007378332518
 21
4665.500463438068
 31
0.0
  0
LINE
  5
F2
330
1F
100
AcDbEntity
  8
NoLayerName_001
  6
Continuous
 62
     5
370
    25
100
AcDbLine
 10
2372.007622190015
 20
4753.50064523223
 30
0.0
 11
2372.007622190015
 21
4667.500585478575
 31
0.0
  0
LINE
  5
F3
330
1F
100
AcDbEntity
  8
NoLayerName_001
  6
Continuous
 62
     5
370
    25
100
AcDbLine
 10
2351.477532163909
 20
4656.000463587079
 30
0.0
 11
2398.537467986099
 21
4656.000463587079
 31
0.0
  0
LINE
  5
F4
330
1F
100
AcDbEntity
  8
NoLayerName_001
  6
Continuous
 62
     5
370
    25
100
AcDbLine
 10
2397.507499739727
 20
4659.500707668096
 30
0.0
 11
2397.507499739727
 21
4656.000463587079
 31
0.0
  0
LINE
  5
F5
330
1F
100
AcDbEntity
  8
NoLayerName_001
  6
Continuous
 62
     5
370
    25
100
AcDbLine
 10
2343.507561579544
 20
4627.000647169381
 30
0.0
 11
2343.507561579544
 21
4623.500708264141
 31
0.0
  0
LINE
  5
F6
330
1F
100
AcDbEntity
  8
NoLayerName_001
  6
CENTER
 62
     7
370
    25
100
AcDbLine
 10
2375.007500075003
 20
4764.025852594925
 30
0.0
 11
2375.007500075003
 21
4609.372290505922
 31
0.0
  0
LINE
  5
F7
330
1F
100
AcDbEntity
  8
NoLayerName_001
  6
Continuous
 62
     7
370
    25
100
AcDbLine
 10
2342.507500559309
 20
4635.000524979856
 30
0.0
 11
2349.595889481925
 21
4654.678452606994
 31
0.0
  0
LINE
  5
F8
330
1F
100
AcDbEntity
  8
NoLayerName_001
  6
Continuous
 62
     5
370
    25
100
AcDbLine
 10
2407.507499590715
 20
4628.000708189636
 30
0.0
 11
2407.507499590715
 21
4635.000524979862
 31
0.0
  0
LINE
  5
F9
330
1F
100
AcDbEntity
  8
NoLayerName_001
  6
Continuous
 62
     5
370
    25
100
AcDbLine
 10
2342.507500559291
 20
4628.000708189636
 30
0.0
 11
2342.507500559291
 21
4635.000524979862
 31
0.0
  0
LINE
  5
FA
330
1F
100
AcDbEntity
  8
NoLayerName_001
  6
Continuous
 62
     5
370
    25
100
AcDbLine
 10
2352.507500410279
 20
4659.500707668096
 30
0.0
 11
2352.507500410279
 21
4656.000463587079
 31
0.0
  0
LINE
  5
FB
330
1F
100
AcDbEntity
  8
NoLayerName_001
  6
Continuous
 62
     7
370
    25
100
AcDbLine
 10
2407.507499590755
 20
4635.000524979874
 30
0.0
 11
2400.41911066814
 21
4654.678452607011
 31
0.0
  0
ARC
  5
FC
330
1F
100
AcDbEntity
  8
NoLayerName_001
  6
Continuous
 62
     5
370
    25
100
AcDbCircle
 10
2376.007561095256
 20
4753.50064523223
 30
0.0
 40
2.000000000000002
100
AcDbArc
 50
0.0
 51
90.00000250448173
  0
ARC
  5
FD
330
1F
100
AcDbEntity
  8
NoLayerName_001
  6
Continuous
 62
     5
370
    25
100
AcDbCircle
 10
2374.007439054748
 20
4753.50064523223
 30
0.0
 40
2.000000000000008
100
AcDbArc
 50
90.00000250448173
 51
180.0000049783127
  0
ARC
  5
FE
330
1F
100
AcDbEntity
  8
NoLayerName_001
  6
Continuous
 62
     5
370
    25
100
AcDbCircle
 10
2353.007378332516
 20
4662.50058555308
 30
0.0
 40
3.000000074505818
100
AcDbArc
 50
90.00000250447732
 51
180.0000050509927
  0
ARC
  5
FF
330
1F
100
AcDbEntity
  8
NoLayerName_001
  6
Continuous
 62
     5
370
    25
100
AcDbCircle
 10
2397.007621817486
 20
4662.50058555308
 30
0.0
 40
3.000000074505809
100
AcDbArc
 50
0.0
 51
90.00000250447732
  0
ARC
  5
100
330
1F
100
AcDbEntity
  8
NoLayerName_001
  6
Continuous
 62
     5
370
    25
100
AcDbCircle
 10
2383.007377885481
 20
4670.500463363562
 30
0.0
 40
4.999999925494198
100
AcDbArc
 50
180.0000086226908
 51
269.9999974955205
  0
ARC
  5
101
330
1F
100
AcDbEntity
  8
NoLayerName_001
  6
Continuous
 62
     5
370
    25
100
AcDbCircle
 10
2367.007622264521
 20
4670.500463363562
 30
0.0
 40
4.999999925494194
100
AcDbArc
 50
269.9999974955205
 51
359.9999999999997
  0
ARC
  5
102
330
1F
100
AcDbEntity
  8
NoLayerName_001
  6
Continuous
 62
     5
370
    25
100
AcDbCircle
 10
2376.007561095256
 20
4667.500585478574
 30
0.0
 40
2.0
100
AcDbArc
 50
269.9999974955179
 51
359.9999999999997
  0
ARC
  5
103
330
1F
100
AcDbEntity
  8
NoLayerName_001
  6
Continuous
 62
     5
370
    25
100
AcDbCircle
 10
2374.007439054748
 20
4667.500585478574
 30
0.0
 40
2.000000000000002
100
AcDbArc
 50
180.0000086226908
 51
269.9999974955179
  0
ARC
  5
104
330
1F
100
AcDbEntity
  8
NoLayerName_001
  6
Continuous
 62
     5
370
    25
100
AcDbCircle
 10
2398.537467986097
 20
4654.000646722347
 30
0.0
 40
2.000000000000133
100
AcDbArc
 50
19.8100494851484
 51
90.00750205218579
  0
ARC
  5
105
330
1F
100
AcDbEntity
  8
NoLayerName_001
  6
Continuous
 62
     5
370
    25
100
AcDbCircle
 10
2406.50743857046
 20
4628.000708189636
 30
0.0
 40
1.0
100
AcDbArc
 50
269.9999974955309
 51
359.9999999999997
  0
ARC
  5
106
330
1F
100
AcDbEntity
  8
NoLayerName_001
  6
Continuous
 62
     5
370
    25
100
AcDbCircle
 10
2343.507561579544
 20
4628.000708189636
 30
0.0
 40
1.000000000000001
100
AcDbArc
 50
180.0000086226908
 51
269.9999974955309
  0
ARC
  5
107
330
1F
100
AcDbEntity
  8
NoLayerName_001
  6
Continuous
 62
     5
370
    25
100
AcDbCircle
 10
2351.477532163907
 20
4654.000646722347
 30
0.0
 40
2.000000000000254
100
AcDbArc
 50
89.9925029567647
 51
160.1899698429645
  0
LWPOLYLINE
  5
108
330
1F
100
AcDbEntity
  8
NoLayerName_001
  6
Continuous
 62
     5
370
    25
100
AcDbPolyline
 90
        4
 70
     0
 43
0.0
 10
2350.007500447532
 20
4662.50058555308
 10
2350.007500447532
 20
4659.500707668094
 10
2400.007499702474
 20
4659.500707668094
 10
2400.007499702474
 20
4662.50058555308
  0
LWPOLYLINE
  5
109
330
1F
100
AcDbEntity
  8
NoLayerName_001
  6
Continuous
 62
     5
370
    25
100
AcDbPolyline
 90
        4
 70
     0
 43
0.0
 10
2343.507561579544
 20
4627.000647169381
 10
2406.50743857046
 20
4627.000647169381
 10
2406.50743857046
 20
4623.500708264141
 10
2343.507561579544
 20
4623.500708264141
  0
LINE
  5
10A
330
1F
100
AcDbEntity
  8
FRAME
  6
Continuous
 62
     1
370
    25
100
AcDbLine
 10
1872.507500075001
 20
4619.500525203379
 30
0.0
 11
1872.507500075001
 21
4623.500525203379
 31
0.0
  0
LINE
  5
10B
330
1F
100
AcDbEntity
  8
NoLayerName_001
  6
Continuous
 62
     7
370
    25
100
AcDbLine
 10
2427.507500075003
 20
4623.500525203379
 30
0.0
 11
2427.507500075003
 21
4619.500525203379
 31
0.0
  0
LINE
  5
10C
330
1F
100
AcDbEntity
  8
FRAME
  6
Continuous
 62
     1
370
    25
100
AcDbLine
 10
1872.507500075001
 20
4623.500525203379
 30
0.0
 11
2427.507500075003
 21
4623.500525203379
 31
0.0
  0
LINE
  5
10D
330
1F
100
AcDbEntity
  8
NoLayerName_001
  6
Continuous
 62
     7
370
    50
100
AcDbLine
 10
1217.507500075001
 20
4597.500525203381
 30
0.0
 11
1217.507500075001
 21
4619.500525203382
 31
0.0
  0
LINE
  5
10E
330
1F
100
AcDbEntity
  8
NoLayerName_001
  6
Continuous
 62
     7
370
    50
100
AcDbLine
 10
3082.507500075001
 20
4597.500525203381
 30
0.0
 11
3082.507500075001
 21
4619.500525203382
 31
0.0
  0
LINE
  5
10F
330
1F
100
AcDbEntity
  8
NoLayerName_001
  6
Continuous
 62
     7
370
    25
100
AcDbLine
 10
2892.007500074999
 20
4597.500525203379
 30
0.0
 11
2892.007500074999
 21
3337.500525203379
 31
0.0
  0
LINE
  5
110
330
1F
100
AcDbEntity
  8
NoLayerName_001
  6
Continuous
 62
     7
370
    25
100
AcDbLine
 10
2908.007500074999
 20
4597.500525203379
 30
0.0
 11
2908.007500074999
 21
3337.500525203379
 31
0.0
  0
LINE
  5
111
330
1F
100
AcDbEntity
  8
NoLayerName_001
  6
Continuous
 62
     7
370
    25
100
AcDbLine
 10
1408.007500075003
 20
4597.500525203379
 30
0.0
 11
1408.007500075003
 21
3337.500525203379
 31
0.0
  0
LINE
  5
112
330
1F
100
AcDbEntity
  8
NoLayerName_001
  6
Continuous
 62
     7
370
    25
100
AcDbLine
 10
1392.007500075003
 20
4597.500525203379
 30
0.0
 11
1392.007500075003
 21
3337.500525203379
 31
0.0
  0
LINE
  5
113
330
1F
100
AcDbEntity
  8
NoLayerName_001
  6
Continuous
 62
     7
370
    50
100
AcDbLine
 10
1287.507580727533
 20
4749.500365835469
 30
0.0
 11
1287.507580727533
 21
4619.500525203379
 31
0.0
  0
LINE
  5
114
330
1F
100
AcDbEntity
  8
NoLayerName_001
  6
Continuous
 62
     7
370
    50
100
AcDbLine
 10
1287.507580727533
 20
4749.500365835469
 30
0.0
 11
1417.507535800534
 21
4749.500365835469
 31
0.0
  0
CIRCLE
  5
115
330
1F
100
AcDbEntity
  8
NoLayerName_001
  6
DOTSX
 62
     7
370
    25
100
AcDbCircle
 10
1352.507501043578
 20
4684.500525203379
 30
0.0
 40
19.0
  0
LINE
  5
116
330
1F
100
AcDbEntity
  8
NoLayerName_001
  6
Continuous
 62
     7
370
    25
100
AcDbLine
 10
4895.060000600006
 20
4831.500525203379
 30
0.0
 11
4945.060000600006
 21
4831.500525203379
 31
0.0
  0
LINE
  5
117
330
1F
100
AcDbEntity
  8
NoLayerName_001
  6
Continuous
 62
     7
370
    25
100
AcDbLine
 10
4895.060000600006
 20
4811.500525203379
 30
0.0
 11
4945.060000600006
 21
4811.500525203379
 31
0.0
  0
LINE
  5
118
330
1F
100
AcDbEntity
  8
NoLayerName_001
  6
PHANTOM
 62
     7
370
    25
100
AcDbLine
 10
4895.060000600006
 20
4811.500525203379
 30
0.0
 11
4857.560000600006
 21
4790.000525203379
 31
0.0
  0
LINE
  5
119
330
1F
100
AcDbEntity
  8
NoLayerName_001
  6
PHANTOM
 62
     7
370
    25
100
AcDbLine
 10
4945.060000600006
 20
4811.500525203379
 30
0.0
 11
4982.560000600006
 21
4790.000525203379
 31
0.0
  0
LINE
  5
11A
330
1F
100
AcDbEntity
  8
NoLayerName_001
  6
PHANTOM
 62
     7
370
    25
100
AcDbLine
 10
4857.560000600006
 20
4790.000525203379
 30
0.0
 11
4982.560000600006
 21
4790.000525203379
 31
0.0
  0
LINE
  5
11B
330
1F
100
AcDbEntity
  8
NoLayerName_001
  6
PHANTOM
 62
     7
370
    25
100
AcDbLine
 10
4982.560000600006
 20
4790.000525203379
 30
0.0
 11
4982.560000600006
 21
4619.500525203379
 31
0.0
  0
LINE
  5
11C
330
1F
100
AcDbEntity
  8
NoLayerName_001
  6
Continuous
 62
     7
370
    25
100
AcDbLine
 10
4895.060000600006
 20
4879.500525203379
 30
0.0
 11
4945.060000600006
 21
4879.500525203379
 31
0.0
  0
LINE
  5
11D
330
1F
100
AcDbEntity
  8
NoLayerName_001
  6
Continuous
 62
     7
370
    25
100
AcDbLine
 10
4895.060000600006
 20
4879.500525203379
 30
0.0
 11
4895.060000600006
 21
4811.500525203379
 31
0.0
  0
LINE
  5
11E
330
1F
100
AcDbEntity
  8
NoLayerName_001
  6
Continuous
 62
     7
370
    25
100
AcDbLine
 10
4945.060000600006
 20
4879.500525203379
 30
0.0
 11
4945.060000600006
 21
4811.500525203379
 31
0.0
  0
CIRCLE
  5
11F
330
1F
100
AcDbEntity
  8
NoLayerName_001
  6
Continuous
 62
     7
370
    25
100
AcDbCircle
 10
4920.060000600006
 20
4859.500525203379
 30
0.0
 40
7.0
  0
LINE
  5
120
330
1F
100
AcDbEntity
  8
NoLayerName_001
  6
Continuous
 62
     7
370
    25
100
AcDbLine
 10
4897.160000600006
 20
4597.500525203379
 30
0.0
 11
4897.160000600006
 21
3337.500525203379
 31
0.0
  0
LINE
  5
121
330
1F
100
AcDbEntity
  8
NoLayerName_001
  6
Continuous
 62
     7
370
    25
100
AcDbLine
 10
4502.960000600006
 20
4597.500525203379
 30
0.0
 11
4502.960000600006
 21
3337.500525203379
 31
0.0
  0
LINE
  5
122
330
1F
100
AcDbEntity
  8
NoLayerName_001
  6
Continuous
 62
     7
370
    25
100
AcDbLine
 10
4493.960000600006
 20
4597.500525203379
 30
0.0
 11
4493.960000600006
 21
3337.500525203379
 31
0.0
  0
LINE
  5
123
330
1F
100
AcDbEntity
  8
NoLayerName_001
  6
Continuous
 62
     7
370
    25
100
AcDbLine
 10
4906.160000600006
 20
4597.500525203379
 30
0.0
 11
4906.160000600006
 21
3337.500525203379
 31
0.0
  0
LINE
  5
124
330
1F
100
AcDbEntity
  8
NoLayerName_001
  6
Continuous
 62
     7
370
    25
100
AcDbLine
 10
4726.060000600006
 20
4749.500365835469
 30
0.0
 11
4726.060000600006
 21
4619.50052520338
 31
0.0
  0
LINE
  5
125
330
1F
100
AcDbEntity
  8
NoLayerName_001
  6
Continuous
 62
     7
370
    25
100
AcDbLine
 10
4704.060000600006
 20
4749.500365835469
 30
0.0
 11
4704.060000600006
 21
4619.50052520338
 31
0.0
  0
LINE
  5
126
330
1F
100
AcDbEntity
  8
NoLayerName_001
  6
Continuous
 62
     7
370
    25
100
AcDbLine
 10
4726.060000600006
 20
4749.500365835469
 30
0.0
 11
4704.060000600006
 21
4749.500365835469
 31
0.0
  0
LINE
  5
127
330
1F
100
AcDbEntity
  8
NoLayerName_001
  6
Continuous
 62
     7
370
    50
100
AcDbLine
 10
4374.060000600006
 20
4597.500525203379
 30
0.0
 11
4249.060000600006
 21
4597.500525203379
 31
0.0
  0
LINE
  5
128
330
1F
100
AcDbEntity
  8
NoLayerName_001
  6
Continuous
 62
     7
370
    50
100
AcDbLine
 10
4310.060000600005
 20
4619.500525203381
 30
0.0
 11
4310.060000600005
 21
4597.50052520338
 31
0.0
  0
LINE
  5
129
330
1F
100
AcDbEntity
  8
NoLayerName_001
  6
Continuous
 62
     7
370
    50
100
AcDbLine
 10
5026.060000600006
 20
4597.500525203379
 30
0.0
 11
5151.060000600006
 21
4597.500525203379
 31
0.0
  0
LINE
  5
12A
330
1F
100
AcDbEntity
  8
NoLayerName_001
  6
Continuous
 62
     7
370
    50
100
AcDbLine
 10
5090.060000600006
 20
4619.500525203381
 30
0.0
 11
5090.060000600006
 21
4597.50052520338
 31
0.0
  0
LINE
  5
12B
330
1F
100
AcDbEntity
  8
NoLayerName_001
  6
Continuous
 62
     7
370
    50
100
AcDbLine
 10
4310.060000600005
 20
4619.500525203379
 30
0.0
 11
5090.060000600006
 21
4619.500525203379
 31
0.0
  0
LINE
  5
12C
330
1F
100
AcDbEntity
  8
NoLayerName_001
  6
Continuous
 62
     7
370
    50
100
AcDbLine
 10
5090.060000600006
 20
4597.500525203379
 30
0.0
 11
4310.060000600005
 21
4597.500525203379
 31
0.0
  0
LINE
  5
12D
330
1F
100
AcDbEntity
  8
NoLayerName_001
  6
Continuous
 62
     7
370
    25
100
AcDbLine
 10
3031.507500075001
 20
3323.50052520338
 30
0.0
 11
3031.507500075001
 21
3317.500525203379
 31
0.0
  0
LINE
  5
12E
330
1F
100
AcDbEntity
  8
NoLayerName_001
  6
Continuous
 62
     7
370
    25
100
AcDbLine
 10
1268.507500075002
 20
3323.50052520338
 30
0.0
 11
1268.507500075002
 21
3317.500525203379
 31
0.0
  0
LINE
  5
12F
330
1F
100
AcDbEntity
  8
NoLayerName_001
  6
Continuous
 62
     3
370
    25
100
AcDbLine
 10
3012.507533863382
 20
6641.078211242964
 30
0.0
 11
2882.507464349469
 21
6641.078211242964
 31
0.0
  0
LINE
  5
130
330
1F
100
AcDbEntity
  8
NoLayerName_001
  6
Continuous
 62
     3
370
    25
100
AcDbLine
 10
3012.507533863382
 20
6619.078090320048
 30
0.0
 11
2882.507464349469
 21
6619.078090320048
 31
0.0
  0
LINE
  5
131
330
1F
100
AcDbEntity
  8
NoLayerName_001
  6
Continuous
 62
     2
370
    25
100
AcDbLine
 10
3012.507533863382
 20
6641.078211242965
 30
0.0
 11
3012.507533863382
 21
6619.078090320048
 31
0.0
  0
LINE
  5
132
330
1F
100
AcDbEntity
  8
NoLayerName_001
  6
Continuous
 62
     2
370
    25
100
AcDbLine
 10
2882.507464349468
 20
6641.078211242965
 30
0.0
 11
2882.507464349468
 21
6619.078090320048
 31
0.0
  0
LINE
  5
133
330
1F
100
AcDbEntity
  8
NoLayerName_001
  6
Continuous
 62
     3
370
    25
100
AcDbLine
 10
1287.50746628662
 20
6641.078211242964
 30
0.0
 11
1417.507535800534
 21
6641.078211242964
 31
0.0
  0
LINE
  5
134
330
1F
100
AcDbEntity
  8
NoLayerName_001
  6
Continuous
 62
     3
370
    25
100
AcDbLine
 10
1287.50746628662
 20
6619.078090320048
 30
0.0
 11
1417.507535800534
 21
6619.078090320048
 31
0.0
  0
LINE
  5
135
330
1F
100
AcDbEntity
  8
NoLayerName_001
  6
Continuous
 62
     2
370
    25
100
AcDbLine
 10
1287.50746628662
 20
6641.078211242965
 30
0.0
 11
1287.50746628662
 21
6619.078090320048
 31
0.0
  0
LINE
  5
136
330
1F
100
AcDbEntity
  8
NoLayerName_001
  6
Continuous
 62
     2
370
    25
100
AcDbLine
 10
1417.507535800534
 20
6641.078211242965
 30
0.0
 11
1417.507535800534
 21
6619.078090320048
 31
0.0
  0
LINE
  5
137
330
1F
100
AcDbEntity
  8
NoLayerName_001
  6
Continuous
 62
     7
370
    50
100
AcDbLine
 10
3012.50741942247
 20
4749.500365835469
 30
0.0
 11
3012.50741942247
 21
4619.500525203379
 31
0.0
  0
LINE
  5
138
330
1F
100
AcDbEntity
  8
NoLayerName_001
  6
Continuous
 62
     7
370
    50
100
AcDbLine
 10
3012.50741942247
 20
4749.500365835469
 30
0.0
 11
2882.507464349468
 21
4749.500365835469
 31
0.0
  0
LINE
  5
139
330
1F
100
AcDbEntity
  8
NoLayerName_001
  6
Continuous
 62
     7
370
    50
100
AcDbLine
 10
1417.507421359623
 20
4749.500365835469
 30
0.0
 11
1287.507466286621
 21
4749.500365835469
 31
0.0
  0
LINE
  5
13A
330
1F
100
AcDbEntity
  8
NoLayerName_001
  6
Continuous
 62
     7
370
    25
100
AcDbLine
 10
1294.745850018063
 20
6130.363146058835
 30
0.0
 11
1222.336362294654
 21
6164.12824470734
 31
0.0
  0
LINE
  5
13B
330
1F
100
AcDbEntity
  8
NoLayerName_001
  6
Continuous
 62
     7
370
    25
100
AcDbLine
 10
1284.43929558385
 20
6225.078150781507
 30
0.0
 11
1294.745850018062
 21
6130.363146058835
 31
0.0
  0
LINE
  5
13C
330
1F
100
AcDbEntity
  8
NoLayerName_001
  6
Continuous
 62
     7
370
    25
100
AcDbLine
 10
1306.01461242274
 20
6220.124189173747
 30
0.0
 11
1222.336362294654
 21
6164.12824470734
 31
0.0
  0
LINE
  5
13D
330
1F
100
AcDbEntity
  8
NoLayerName_001
  6
Continuous
 62
     7
370
    25
100
AcDbLine
 10
1341.087171468032
 20
3370.50052520338
 30
0.0
 11
1316.435599660621
 21
3370.50052520338
 31
0.0
  0
LINE
  5
13E
330
1F
100
AcDbEntity
  8
NoLayerName_001
  6
Continuous
 62
     7
370
    25
100
AcDbLine
 10
1341.087171468032
 20
3336.50052520338
 30
0.0
 11
1316.435599660634
 21
3336.50052520338
 31
0.0
  0
LINE
  5
13F
330
1F
100
AcDbEntity
  8
NoLayerName_001
  6
Continuous
 62
     7
370
    25
100
AcDbLine
 10
1222.336362294653
 20
3353.448037764683
 30
0.0
 11
1222.336362294653
 21
3313.448034192011
 31
0.0
  0
LINE
  5
140
330
1F
100
AcDbEntity
  8
NoLayerName_001
  6
Continuous
 62
     7
370
    25
100
AcDbLine
 10
1316.435599660621
 20
3353.448037764683
 30
0.0
 11
1316.435599660621
 21
3313.448034192011
 31
0.0
  0
LINE
  5
141
330
1F
100
AcDbEntity
  8
NoLayerName_001
  6
Continuous
 62
     7
370
    25
100
AcDbLine
 10
1222.336362294653
 20
3393.448040142077
 30
0.0
 11
1316.435599660622
 21
3313.448034192011
 31
0.0
  0
LINE
  5
142
330
1F
100
AcDbEntity
  8
NoLayerName_001
  6
Continuous
 62
     7
370
    25
100
AcDbLine
 10
1222.336362294653
 20
3313.448034192011
 30
0.0
 11
1316.435599660622
 21
3393.448040142077
 31
0.0
  0
LINE
  5
143
330
1F
100
AcDbEntity
  8
NoLayerName_001
  6
Continuous
 62
     7
370
    25
100
AcDbLine
 10
1316.435599660621
 20
3353.448037764683
 30
0.0
 11
1316.435599660621
 21
3393.448040142077
 31
0.0
  0
LINE
  5
144
330
1F
100
AcDbEntity
  8
NoLayerName_001
  6
Continuous
 62
     7
370
    25
100
AcDbLine
 10
1222.336362294653
 20
3353.448037764683
 30
0.0
 11
1222.336362294653
 21
3393.448040142077
 31
0.0
  0
LINE
  5
145
330
1F
100
AcDbEntity
  8
NoLayerName_001
  6
Continuous
 62
     7
370
    50
100
AcDbLine
 10
1281.507500075001
 20
3323.50052520338
 30
0.0
 11
1281.507500075001
 21
3343.142729418996
 31
0.0
  0
LINE
  5
146
330
1F
100
AcDbEntity
  8
NoLayerName_001
  6
Continuous
 62
     7
370
    50
100
AcDbLine
 10
1281.507500075001
 20
3337.50052520338
 30
0.0
 11
1250.627873451968
 21
3337.50052520338
 31
0.0
  0
LINE
  5
147
330
1F
100
AcDbEntity
  8
NoLayerName_001
  6
Continuous
 62
     7
370
    50
100
AcDbLine
 10
1222.336362294653
 20
3337.50052520338
 30
0.0
 11
1221.507500075003
 21
3337.50052520338
 31
0.0
  0
LINE
  5
148
330
1F
100
AcDbEntity
  8
NoLayerName_001
  6
Continuous
 62
     7
370
    25
100
AcDbLine
 10
1268.507500075002
 20
3323.50052520338
 30
0.0
 11
1304.611453817577
 21
3323.50052520338
 31
0.0
  0
LINE
  5
149
330
1F
100
AcDbEntity
  8
NoLayerName_001
  6
Continuous
 62
     7
370
    25
100
AcDbLine
 10
1316.435599660621
 20
3323.50052520338
 30
0.0
 11
3031.507500075001
 21
3323.50052520338
 31
0.0
  0
LINE
  5
14A
330
1F
100
AcDbEntity
  8
NoLayerName_001
  6
Continuous
 62
     7
370
    25
100
AcDbLine
 10
1268.507500075002
 20
3317.50052520338
 30
0.0
 11
1311.668896095121
 21
3317.50052520338
 31
0.0
  0
LINE
  5
14B
330
1F
100
AcDbEntity
  8
NoLayerName_001
  6
Continuous
 62
     7
370
    25
100
AcDbLine
 10
1316.435599660621
 20
3317.50052520338
 30
0.0
 11
3031.507500075001
 21
3317.50052520338
 31
0.0
  0
LINE
  5
14C
330
1F
100
AcDbEntity
  8
NoLayerName_001
  6
Continuous
 62
     7
370
    50
100
AcDbLine
 10
1281.507500075001
 20
4597.500525203381
 30
0.0
 11
1281.507500075001
 21
4503.50052520338
 31
0.0
  0
LINE
  5
14D
330
1F
100
AcDbEntity
  8
NoLayerName_001
  6
Continuous
 62
     7
370
    50
100
AcDbLine
 10
1221.507500075002
 20
4597.500525203379
 30
0.0
 11
1221.507500075002
 21
4503.500525203379
 31
0.0
  0
LINE
  5
14E
330
1F
100
AcDbEntity
  8
NoLayerName_001
  6
Continuous
 62
     7
370
    50
100
AcDbLine
 10
3078.507500075
 20
4597.500525203379
 30
0.0
 11
3078.507500075
 21
4503.500525203379
 31
0.0
  0
LINE
  5
14F
330
1F
100
AcDbEntity
  8
NoLayerName_001
  6
Continuous
 62
     7
370
    50
100
AcDbLine
 10
3018.507500075001
 20
4597.500525203381
 30
0.0
 11
3018.507500075001
 21
4503.50052520338
 31
0.0
  0
LINE
  5
150
330
1F
100
AcDbEntity
  8
NoLayerName_001
  6
PHANTOM
 62
     7
370
    25
100
AcDbLine
 10
1218.307500075001
 20
4503.500525203379
 30
0.0
 11
3081.707500075001
 21
4503.500525203379
 31
0.0
  0
LINE
  5
151
330
1F
100
AcDbEntity
  8
NoLayerName_001
  6
Continuous
 62
     7
370
    50
100
AcDbLine
 10
4249.060000600006
 20
4597.500525203379
 30
0.0
 11
4249.060000600006
 21
4503.473692820176
 31
0.0
  0
LINE
  5
152
330
1F
100
AcDbEntity
  8
NoLayerName_001
  6
Continuous
 62
     7
370
    50
100
AcDbLine
 10
4374.060000600006
 20
4597.500525203381
 30
0.0
 11
4374.060000600006
 21
4503.500525203379
 31
0.0
  0
LINE
  5
153
330
1F
100
AcDbEntity
  8
NoLayerName_001
  6
Continuous
 62
     7
370
    50
100
AcDbLine
 10
5151.060000600006
 20
4597.500525203379
 30
0.0
 11
5151.060000600006
 21
4503.473692820176
 31
0.0
  0
LINE
  5
154
330
1F
100
AcDbEntity
  8
NoLayerName_001
  6
Continuous
 62
     7
370
    50
100
AcDbLine
 10
5026.060000600006
 20
4597.500525203381
 30
0.0
 11
5026.060000600006
 21
4503.500525203382
 31
0.0
  0
LINE
  5
155
330
1F
100
AcDbEntity
  8
NoLayerName_001
  6
Continuous
 62
     7
370
    50
100
AcDbLine
 10
4249.060000600006
 20
3423.473692820177
 30
0.0
 11
4249.060000600006
 21
3337.50052520338
 31
0.0
  0
LINE
  5
156
330
1F
100
AcDbEntity
  8
NoLayerName_001
  6
Continuous
 62
     7
370
    50
100
AcDbLine
 10
5151.060000600006
 20
3423.473692820177
 30
0.0
 11
5151.060000600006
 21
3337.50052520338
 31
0.0
  0
LINE
  5
157
330
1F
100
AcDbEntity
  8
NoLayerName_001
  6
Continuous
 62
     7
370
    50
100
AcDbLine
 10
4374.060000600006
 20
3423.500525203379
 30
0.0
 11
4374.060000600006
 21
3323.50052520338
 31
0.0
  0
LINE
  5
158
330
1F
100
AcDbEntity
  8
NoLayerName_001
  6
Continuous
 62
     7
370
    50
100
AcDbLine
 10
5026.060000600006
 20
3423.500525203379
 30
0.0
 11
5026.060000600006
 21
3323.50052520338
 31
0.0
  0
LINE
  5
159
330
1F
100
AcDbEntity
  8
NoLayerName_001
  6
PHANTOM
 62
     7
370
    25
100
AcDbLine
 10
4927.960000600006
 20
4503.500525203381
 30
0.0
 11
4927.960000600006
 21
3423.50052520338
 31
0.0
  0
LINE
  5
15A
330
1F
100
AcDbEntity
  8
NoLayerName_001
  6
PHANTOM
 62
     7
370
    25
100
AcDbLine
 10
4875.360000600006
 20
4503.500525203381
 30
0.0
 11
4875.360000600006
 21
3423.50052520338
 31
0.0
  0
LINE
  5
15B
330
1F
100
AcDbEntity
  8
NoLayerName_001
  6
PHANTOM
 62
     7
370
    25
100
AcDbLine
 10
4472.160000600006
 20
4503.500525203381
 30
0.0
 11
4472.160000600006
 21
3423.50052520338
 31
0.0
  0
LINE
  5
15C
330
1F
100
AcDbEntity
  8
NoLayerName_001
  6
PHANTOM
 62
     7
370
    25
100
AcDbLine
 10
4524.760000600006
 20
4503.500525203381
 30
0.0
 11
4524.760000600006
 21
3423.50052520338
 31
0.0
  0
LINE
  5
15D
330
1F
100
AcDbEntity
  8
NoLayerName_001
  6
Continuous
 62
     7
370
    50
100
AcDbLine
 10
1221.507500075002
 20
3423.50052520338
 30
0.0
 11
1221.507500075002
 21
3337.50052520338
 31
0.0
  0
LINE
  5
15E
330
1F
100
AcDbEntity
  8
NoLayerName_001
  6
Continuous
 62
     7
370
    50
100
AcDbLine
 10
1281.507500075002
 20
3423.500525203379
 30
0.0
 11
1281.507500075002
 21
3378.507600119033
 31
0.0
  0
LINE
  5
15F
330
1F
100
AcDbEntity
  8
NoLayerName_001
  6
Continuous
 62
     7
370
    50
100
AcDbLine
 10
3018.507500075001
 20
3423.500525203379
 30
0.0
 11
3018.507500075001
 21
3378.507600119033
 31
0.0
  0
LINE
  5
160
330
1F
100
AcDbEntity
  8
NoLayerName_001
  6
Continuous
 62
     7
370
    50
100
AcDbLine
 10
3018.507500075001
 20
3323.50052520338
 30
0.0
 11
3018.507500075002
 21
3423.500525203379
 31
0.0
  0
LINE
  5
161
330
1F
100
AcDbEntity
  8
NoLayerName_001
  6
Continuous
 62
     7
370
    50
100
AcDbLine
 10
3078.507500075
 20
3423.50052520338
 30
0.0
 11
3078.507500075
 21
3337.50052520338
 31
0.0
  0
LINE
  5
162
330
1F
100
AcDbEntity
  8
NoLayerName_001
  6
PHANTOM
 62
     7
370
    25
100
AcDbLine
 10
1218.307500075001
 20
3423.500525203379
 30
0.0
 11
3081.707500075001
 21
3423.500525203379
 31
0.0
  0
LINE
  5
163
330
1F
100
AcDbEntity
  8
NoLayerName_001
  6
Continuous
 62
     7
370
    50
100
AcDbLine
 10
1281.507500075001
 20
3363.753344915093
 30
0.0
 11
1281.507500075001
 21
3423.500525203379
 31
0.0
  0
LINE
  5
164
330
1F
100
AcDbEntity
  8
NoLayerName_001
  6
PHANTOM
 62
     7
370
    25
100
AcDbLine
 10
2123.707500075
 20
4503.500525203379
 30
0.0
 11
2123.707500075
 21
3423.500525203379
 31
0.0
  0
LINE
  5
165
330
1F
100
AcDbEntity
  8
NoLayerName_001
  6
PHANTOM
 62
     7
370
    25
100
AcDbLine
 10
2176.307500075
 20
4503.500525203379
 30
0.0
 11
2176.307500075
 21
3423.500525203379
 31
0.0
  0
LINE
  5
166
330
1F
100
AcDbEntity
  8
NoLayerName_001
  6
Continuous
 62
     7
370
    25
100
AcDbLine
 10
1218.307500075001
 20
4503.500525203379
 30
0.0
 11
1218.307500075001
 21
3423.500525203379
 31
0.0
  0
LINE
  5
167
330
1F
100
AcDbEntity
  8
NoLayerName_001
  6
Continuous
 62
     7
370
    25
100
AcDbLine
 10
3081.707500075001
 20
4503.500525203379
 30
0.0
 11
3081.707500075001
 21
3423.500525203379
 31
0.0
  0
LINE
  5
168
330
1F
100
AcDbEntity
  8
NoLayerName_001
  6
PHANTOM
 62
     7
370
    25
100
AcDbLine
 10
2880.007500075001
 20
4503.500525203379
 30
0.0
 11
2880.007500075001
 21
3423.500525203379
 31
0.0
  0
LINE
  5
169
330
1F
100
AcDbEntity
  8
NoLayerName_001
  6
PHANTOM
 62
     7
370
    25
100
AcDbLine
 10
2926.307500075
 20
4503.500525203379
 30
0.0
 11
2926.307500075
 21
3423.500525203379
 31
0.0
  0
LINE
  5
16A
330
1F
100
AcDbEntity
  8
NoLayerName_001
  6
PHANTOM
 62
     7
370
    25
100
AcDbLine
 10
1420.007500075001
 20
4503.500525203379
 30
0.0
 11
1420.007500075001
 21
3423.500525203379
 31
0.0
  0
LINE
  5
16B
330
1F
100
AcDbEntity
  8
NoLayerName_001
  6
PHANTOM
 62
     7
370
    25
100
AcDbLine
 10
1373.707500075002
 20
4503.500525203379
 30
0.0
 11
1373.707500075002
 21
3423.500525203379
 31
0.0
  0
LINE
  5
16C
330
1F
100
AcDbEntity
  8
FRAME
  6
Continuous
 62
     1
370
    25
100
AcDbLine
 10
4647.560000600006
 20
4619.500525203379
 30
0.0
 11
4647.560000600006
 21
4623.500525203379
 31
0.0
  0
LINE
  5
16D
330
1F
100
AcDbEntity
  8
FRAME
  6
Continuous
 62
     1
370
    25
100
AcDbLine
 10
4462.560000600006
 20
4619.500525203379
 30
0.0
 11
4462.560000600006
 21
4623.500525203379
 31
0.0
  0
LINE
  5
16E
330
1F
100
AcDbEntity
  8
FRAME
  6
Continuous
 62
     1
370
    25
100
AcDbLine
 10
4462.560000600006
 20
4623.500525203379
 30
0.0
 11
4647.560000600006
 21
4623.500525203379
 31
0.0
  0
LINE
  5
16F
330
1F
100
AcDbEntity
  8
FRAME
  6
Continuous
 62
     1
370
    25
100
AcDbLine
 10
4483.060000600002
 20
4623.500525203379
 30
0.0
 11
4483.060000600002
 21
4626.500525203379
 31
0.0
  0
LINE
  5
170
330
1F
100
AcDbEntity
  8
FRAME
  6
Continuous
 62
     1
370
    25
100
AcDbLine
 10
4547.060000600002
 20
4626.500525203381
 30
0.0
 11
4547.060000600002
 21
4623.500525203381
 31
0.0
  0
LINE
  5
171
330
1F
100
AcDbEntity
  8
FRAME
  6
Continuous
 62
     1
370
    25
100
AcDbLine
 10
4563.060000600002
 20
4623.500525203379
 30
0.0
 11
4563.060000600002
 21
4626.500525203379
 31
0.0
  0
LINE
  5
172
330
1F
100
AcDbEntity
  8
FRAME
  6
Continuous
 62
     1
370
    25
100
AcDbLine
 10
4627.060000600002
 20
4626.500525203381
 30
0.0
 11
4627.060000600002
 21
4623.500525203381
 31
0.0
  0
LINE
  5
173
330
1F
100
AcDbEntity
  8
FRAME
  6
Continuous
 62
     1
370
    25
100
AcDbLine
 10
4480.060000600006
 20
4634.500525203377
 30
0.0
 11
4489.520000600006
 21
4654.360525203377
 31
0.0
  0
LINE
  5
174
330
1F
100
AcDbEntity
  8
FRAME
  6
Continuous
 62
     1
370
    25
100
AcDbLine
 10
4540.610000600003
 20
4654.360525203376
 30
0.0
 11
4550.060000600003
 21
4634.500525203376
 31
0.0
  0
ARC
  5
175
330
1F
100
AcDbEntity
  8
FRAME
  6
Continuous
 62
     1
370
    25
100
AcDbCircle
 10
4549.060000600002
 20
4627.500525203379
 30
0.0
 40
1.0
100
AcDbArc
 50
270.0
 51
0.0
  0
ARC
  5
176
330
1F
100
AcDbEntity
  8
FRAME
  6
Continuous
 62
     1
370
    25
100
AcDbCircle
 10
4481.060000600004
 20
4627.500525203379
 30
0.0
 40
1.0
100
AcDbArc
 50
180.0
 51
270.0
  0
LINE
  5
177
330
1F
100
AcDbEntity
  8
FRAME
  6
Continuous
 62
     1
370
    25
100
AcDbLine
 10
4550.060000600006
 20
4634.500525203377
 30
0.0
 11
4550.060000600006
 21
4627.500525203377
 31
0.0
  0
LINE
  5
178
330
1F
100
AcDbEntity
  8
FRAME
  6
Continuous
 62
     1
370
    25
100
AcDbLine
 10
4480.060000600006
 20
4627.500525203379
 30
0.0
 11
4480.060000600006
 21
4634.500525203379
 31
0.0
  0
ARC
  5
179
330
1F
100
AcDbEntity
  8
FRAME
  6
Continuous
 62
     1
370
    25
100
AcDbCircle
 10
4491.330000600004
 20
4653.500525203379
 30
0.0
 40
1.999999999999944
100
AcDbArc
 50
90.0
 51
154.5369999999958
  0
ARC
  5
17A
330
1F
100
AcDbEntity
  8
FRAME
  6
Continuous
 62
     1
370
    25
100
AcDbCircle
 10
4538.800000600004
 20
4653.500525203379
 30
0.0
 40
2.0
100
AcDbArc
 50
25.46330000000272
 51
90.0
  0
ARC
  5
17B
330
1F
100
AcDbEntity
  8
FRAME
  6
Continuous
 62
     1
370
    25
100
AcDbCircle
 10
4629.060000600002
 20
4627.500525203379
 30
0.0
 40
1.0
100
AcDbArc
 50
270.0
 51
0.0
  0
ARC
  5
17C
330
1F
100
AcDbEntity
  8
FRAME
  6
Continuous
 62
     1
370
    25
100
AcDbCircle
 10
4561.060000600004
 20
4627.500525203379
 30
0.0
 40
1.0
100
AcDbArc
 50
180.0
 51
270.0
  0
LINE
  5
17D
330
1F
100
AcDbEntity
  8
FRAME
  6
Continuous
 62
     1
370
    25
100
AcDbLine
 10
4630.060000600006
 20
4634.500525203377
 30
0.0
 11
4630.060000600006
 21
4627.500525203377
 31
0.0
  0
LINE
  5
17E
330
1F
100
AcDbEntity
  8
FRAME
  6
Continuous
 62
     1
370
    25
100
AcDbLine
 10
4560.060000600006
 20
4627.500525203379
 30
0.0
 11
4560.060000600006
 21
4634.500525203379
 31
0.0
  0
LINE
  5
17F
330
1F
100
AcDbEntity
  8
FRAME
  6
Continuous
 62
     1
370
    25
100
AcDbLine
 10
4560.060000600006
 20
4634.500525203377
 30
0.0
 11
4569.520000600006
 21
4654.360525203377
 31
0.0
  0
LINE
  5
180
330
1F
100
AcDbEntity
  8
FRAME
  6
Continuous
 62
     1
370
    25
100
AcDbLine
 10
4620.610000600003
 20
4654.360525203376
 30
0.0
 11
4630.060000600003
 21
4634.500525203376
 31
0.0
  0
ARC
  5
181
330
1F
100
AcDbEntity
  8
FRAME
  6
Continuous
 62
     1
370
    25
100
AcDbCircle
 10
4571.330000600004
 20
4653.500525203379
 30
0.0
 40
1.999999999999944
100
AcDbArc
 50
90.0
 51
154.5369999999958
  0
ARC
  5
182
330
1F
100
AcDbEntity
  8
FRAME
  6
Continuous
 62
     1
370
    25
100
AcDbCircle
 10
4618.800000600004
 20
4653.500525203379
 30
0.0
 40
2.0
100
AcDbArc
 50
25.46330000000272
 51
90.0
  0
LINE
  5
183
330
1F
100
AcDbEntity
  8
FRAME
  6
Continuous
 62
     1
370
    25
100
AcDbLine
 10
4550.060000600006
 20
4634.500525203377
 30
0.0
 11
4480.060000600006
 21
4634.500525203377
 31
0.0
  0
LINE
  5
184
330
1F
100
AcDbEntity
  8
FRAME
  6
Continuous
 62
     1
370
    25
100
AcDbLine
 10
4481.060000600004
 20
4626.500525203381
 30
0.0
 11
4549.060000600004
 21
4626.500525203381
 31
0.0
  0
LINE
  5
185
330
1F
100
AcDbEntity
  8
FRAME
  6
Continuous
 62
     1
370
    25
100
AcDbLine
 10
4515.060000600006
 20
4655.500525203377
 30
0.0
 11
4491.330000600006
 21
4655.500525203377
 31
0.0
  0
LINE
  5
186
330
1F
100
AcDbEntity
  8
FRAME
  6
Continuous
 62
     1
370
    25
100
AcDbLine
 10
4538.800000600004
 20
4655.500525203377
 30
0.0
 11
4515.060000600004
 21
4655.500525203377
 31
0.0
  0
LINE
  5
187
330
1F
100
AcDbEntity
  8
FRAME
  6
Continuous
 62
     1
370
    25
100
AcDbLine
 10
4561.060000600004
 20
4626.500525203381
 30
0.0
 11
4629.060000600004
 21
4626.500525203381
 31
0.0
  0
LINE
  5
188
330
1F
100
AcDbEntity
  8
FRAME
  6
Continuous
 62
     1
370
    25
100
AcDbLine
 10
4630.060000600006
 20
4634.500525203377
 30
0.0
 11
4560.060000600006
 21
4634.500525203377
 31
0.0
  0
LINE
  5
189
330
1F
100
AcDbEntity
  8
FRAME
  6
Continuous
 62
     1
370
    25
100
AcDbLine
 10
4595.060000600006
 20
4655.500525203377
 30
0.0
 11
4571.330000600006
 21
4655.500525203377
 31
0.0
  0
LINE
  5
18A
330
1F
100
AcDbEntity
  8
FRAME
  6
Continuous
 62
     1
370
    25
100
AcDbLine
 10
4618.800000600004
 20
4655.500525203377
 30
0.0
 11
4595.060000600004
 21
4655.500525203377
 31
0.0
  0
LINE
  5
18B
330
1F
100
AcDbEntity
  8
FRAME
  6
Continuous
 62
     1
370
    25
100
AcDbLine
 10
4492.060000600002
 20
4655.500525203377
 30
0.0
 11
4492.060000600002
 21
4658.500525203377
 31
0.0
  0
LINE
  5
18C
330
1F
100
AcDbEntity
  8
FRAME
  6
Continuous
 62
     1
370
    25
100
AcDbLine
 10
4538.060000600002
 20
4658.500525203377
 30
0.0
 11
4538.060000600002
 21
4655.500525203377
 31
0.0
  0
LINE
  5
18D
330
1F
100
AcDbEntity
  8
FRAME
  6
Continuous
 62
     1
370
    25
100
AcDbLine
 10
4572.060000600002
 20
4655.500525203377
 30
0.0
 11
4572.060000600002
 21
4658.500525203377
 31
0.0
  0
LINE
  5
18E
330
1F
100
AcDbEntity
  8
FRAME
  6
Continuous
 62
     1
370
    25
100
AcDbLine
 10
4618.060000600002
 20
4658.500525203377
 30
0.0
 11
4618.060000600002
 21
4655.500525203377
 31
0.0
  0
LINE
  5
18F
330
1F
100
AcDbEntity
  8
FRAME
  6
Continuous
 62
     1
370
    25
100
AcDbLine
 10
4538.260000600003
 20
4655.500525203377
 30
0.0
 11
4538.260000600003
 21
4658.500525203377
 31
0.0
  0
LINE
  5
190
330
1F
100
AcDbEntity
  8
FRAME
  6
Continuous
 62
     1
370
    25
100
AcDbLine
 10
4620.060000600006
 20
4771.500525203381
 30
0.0
 11
4620.060000600006
 21
4678.500525203381
 31
0.0
  0
ARC
  5
191
330
1F
100
AcDbEntity
  8
FRAME
  6
Continuous
 62
     1
370
    25
100
AcDbCircle
 10
4615.060000600006
 20
4771.500525203381
 30
0.0
 40
5.0
100
AcDbArc
 50
0.0
 51
90.0
  0
LINE
  5
192
330
1F
100
AcDbEntity
  8
FRAME
  6
Continuous
 62
     1
370
    25
100
AcDbLine
 10
4615.060000600006
 20
4776.500525203381
 30
0.0
 11
4495.060000600006
 21
4776.500525203381
 31
0.0
  0
ARC
  5
193
330
1F
100
AcDbEntity
  8
FRAME
  6
Continuous
 62
     1
370
    25
100
AcDbCircle
 10
4495.060000600006
 20
4771.500525203381
 30
0.0
 40
5.0
100
AcDbArc
 50
90.0
 51
180.0
  0
LINE
  5
194
330
1F
100
AcDbEntity
  8
FRAME
  6
Continuous
 62
     1
370
    25
100
AcDbLine
 10
4490.060000600006
 20
4771.500525203381
 30
0.0
 11
4490.060000600006
 21
4678.500525203381
 31
0.0
  0
CIRCLE
  5
195
330
1F
100
AcDbEntity
  8
FRAME
  6
Continuous
 62
     1
370
    25
100
AcDbCircle
 10
4515.060000600006
 20
4756.500525203379
 30
0.0
 40
7.000000000000001
  0
CIRCLE
  5
196
330
1F
100
AcDbEntity
  8
FRAME
  6
Continuous
 62
     1
370
    25
100
AcDbCircle
 10
4555.060000600006
 20
4756.500525203379
 30
0.0
 40
7.000000000000001
  0
CIRCLE
  5
197
330
1F
100
AcDbEntity
  8
FRAME
  6
Continuous
 62
     1
370
    25
100
AcDbCircle
 10
4595.060000600006
 20
4756.500525203379
 30
0.0
 40
7.000000000000001
  0
CIRCLE
  5
198
330
1F
100
AcDbEntity
  8
FRAME
  6
Continuous
 62
     1
370
    25
100
AcDbCircle
 10
4595.060000600006
 20
4716.500525203379
 30
0.0
 40
7.000000000000001
  0
CIRCLE
  5
199
330
1F
100
AcDbEntity
  8
FRAME
  6
Continuous
 62
     1
370
    25
100
AcDbCircle
 10
4555.060000600006
 20
4716.500525203379
 30
0.0
 40
7.000000000000001
  0
CIRCLE
  5
19A
330
1F
100
AcDbEntity
  8
FRAME
  6
Continuous
 62
     1
370
    25
100
AcDbCircle
 10
4515.060000600006
 20
4716.500525203379
 30
0.0
 40
7.000000000000001
  0
LINE
  5
19B
330
1F
100
AcDbEntity
  8
FRAME
  6
Continuous
 62
     1
370
    25
100
AcDbLine
 10
4615.060000600006
 20
4678.500525203377
 30
0.0
 11
4495.060000600006
 21
4678.500525203377
 31
0.0
  0
LINE
  5
19C
330
1F
100
AcDbEntity
  8
FRAME
  6
Continuous
 62
     1
370
    25
100
AcDbLine
 10
4615.060000600006
 20
4658.500525203377
 30
0.0
 11
4495.060000600006
 21
4658.500525203377
 31
0.0
  0
LINE
  5
19D
330
1F
100
AcDbEntity
  8
FRAME
  6
Continuous
 62
     1
370
    25
100
AcDbLine
 10
4490.060000600006
 20
4678.500525203377
 30
0.0
 11
4490.060000600006
 21
4658.500525203377
 31
0.0
  0
LINE
  5
19E
330
1F
100
AcDbEntity
  8
FRAME
  6
Continuous
 62
     1
370
    25
100
AcDbLine
 10
4490.060000600006
 20
4658.500525203377
 30
0.0
 11
4495.060000600006
 21
4658.500525203377
 31
0.0
  0
LINE
  5
19F
330
1F
100
AcDbEntity
  8
FRAME
  6
Continuous
 62
     1
370
    25
100
AcDbLine
 10
4495.060000600006
 20
4678.500525203377
 30
0.0
 11
4490.060000600006
 21
4678.500525203377
 31
0.0
  0
LINE
  5
1A0
330
1F
100
AcDbEntity
  8
FRAME
  6
Continuous
 62
     1
370
    25
100
AcDbLine
 10
4620.060000600006
 20
4658.500525203377
 30
0.0
 11
4620.060000600006
 21
4678.500525203377
 31
0.0
  0
LINE
  5
1A1
330
1F
100
AcDbEntity
  8
FRAME
  6
Continuous
 62
     1
370
    25
100
AcDbLine
 10
4620.060000600006
 20
4678.500525203377
 30
0.0
 11
4615.060000600006
 21
4678.500525203377
 31
0.0
  0
LINE
  5
1A2
330
1F
100
AcDbEntity
  8
FRAME
  6
Continuous
 62
     1
370
    25
100
AcDbLine
 10
4615.060000600006
 20
4658.500525203377
 30
0.0
 11
4620.060000600006
 21
4658.500525203377
 31
0.0
  0
LINE
  5
1A3
330
1F
100
AcDbEntity
  8
FRAME
  6
Continuous
 62
     1
370
    25
100
AcDbLine
 10
2107.007500074999
 20
4626.500525203381
 30
0.0
 11
2107.007500074999
 21
4623.500525203381
 31
0.0
  0
ARC
  5
1A4
330
1F
100
AcDbEntity
  8
FRAME
  6
Continuous
 62
     1
370
    25
100
AcDbCircle
 10
2109.007500075002
 20
4627.500525203379
 30
0.0
 40
1.0
100
AcDbArc
 50
270.0
 51
0.0
  0
LINE
  5
1A5
330
1F
100
AcDbEntity
  8
FRAME
  6
Continuous
 62
     1
370
    25
100
AcDbLine
 10
2110.007500075001
 20
4634.500525203377
 30
0.0
 11
2110.007500075001
 21
4627.500525203377
 31
0.0
  0
LINE
  5
1A6
330
1F
100
AcDbEntity
  8
FRAME
  6
Continuous
 62
     1
370
    25
100
AcDbLine
 10
2100.547500075002
 20
4654.360525203376
 30
0.0
 11
2110.007500075002
 21
4634.500525203376
 31
0.0
  0
ARC
  5
1A7
330
1F
100
AcDbEntity
  8
FRAME
  6
Continuous
 62
     1
370
    25
100
AcDbCircle
 10
2098.747500074999
 20
4653.500525203379
 30
0.0
 40
2.0
100
AcDbArc
 50
25.46330000000272
 51
90.0
  0
LINE
  5
1A8
330
1F
100
AcDbEntity
  8
FRAME
  6
Continuous
 62
     1
370
    25
100
AcDbLine
 10
2098.747500074999
 20
4655.500525203377
 30
0.0
 11
2075.007500074999
 21
4655.500525203377
 31
0.0
  0
LINE
  5
1A9
330
1F
100
AcDbEntity
  8
FRAME
  6
Continuous
 62
     1
370
    25
100
AcDbLine
 10
2110.007500075001
 20
4634.500525203377
 30
0.0
 11
2075.007500075001
 21
4634.500525203377
 31
0.0
  0
LINE
  5
1AA
330
1F
100
AcDbEntity
  8
FRAME
  6
Continuous
 62
     1
370
    25
100
AcDbLine
 10
2075.007500075001
 20
4626.500525203381
 30
0.0
 11
2109.007500075001
 21
4626.500525203381
 31
0.0
  0
LINE
  5
1AB
330
1F
100
AcDbEntity
  8
FRAME
  6
Continuous
 62
     1
370
    25
100
AcDbLine
 10
2043.007500074998
 20
4626.500525203381
 30
0.0
 11
2043.007500074998
 21
4623.500525203381
 31
0.0
  0
ARC
  5
1AC
330
1F
100
AcDbEntity
  8
FRAME
  6
Continuous
 62
     1
370
    25
100
AcDbCircle
 10
2041.007500075
 20
4627.500525203379
 30
0.0
 40
1.0
100
AcDbArc
 50
180.0
 51
270.0
  0
LINE
  5
1AD
330
1F
100
AcDbEntity
  8
FRAME
  6
Continuous
 62
     1
370
    25
100
AcDbLine
 10
2040.007500075001
 20
4634.500525203377
 30
0.0
 11
2040.007500075001
 21
4627.500525203377
 31
0.0
  0
LINE
  5
1AE
330
1F
100
AcDbEntity
  8
FRAME
  6
Continuous
 62
     1
370
    25
100
AcDbLine
 10
2049.467500075
 20
4654.360525203376
 30
0.0
 11
2040.007500075
 21
4634.500525203376
 31
0.0
  0
ARC
  5
1AF
330
1F
100
AcDbEntity
  8
FRAME
  6
Continuous
 62
     1
370
    25
100
AcDbCircle
 10
2051.267500074999
 20
4653.500525203379
 30
0.0
 40
1.999999999999944
100
AcDbArc
 50
90.0
 51
154.5369999999958
  0
LINE
  5
1B0
330
1F
100
AcDbEntity
  8
FRAME
  6
Continuous
 62
     1
370
    25
100
AcDbLine
 10
2051.267500074999
 20
4655.500525203377
 30
0.0
 11
2075.007500074998
 21
4655.500525203377
 31
0.0
  0
LINE
  5
1B1
330
1F
100
AcDbEntity
  8
FRAME
  6
Continuous
 62
     1
370
    25
100
AcDbLine
 10
2040.007500075001
 20
4634.500525203377
 30
0.0
 11
2075.007500075001
 21
4634.500525203377
 31
0.0
  0
LINE
  5
1B2
330
1F
100
AcDbEntity
  8
FRAME
  6
Continuous
 62
     1
370
    25
100
AcDbLine
 10
2075.007500075001
 20
4626.500525203381
 30
0.0
 11
2041.007500075001
 21
4626.500525203381
 31
0.0
  0
LINE
  5
1B3
330
1F
100
AcDbEntity
  8
FRAME
  6
Continuous
 62
     1
370
    25
100
AcDbLine
 10
2257.007500074999
 20
4626.500525203381
 30
0.0
 11
2257.007500074999
 21
4623.500525203381
 31
0.0
  0
ARC
  5
1B4
330
1F
100
AcDbEntity
  8
FRAME
  6
Continuous
 62
     1
370
    25
100
AcDbCircle
 10
2259.007500075003
 20
4627.500525203379
 30
0.0
 40
1.0
100
AcDbArc
 50
270.0
 51
0.0
  0
LINE
  5
1B5
330
1F
100
AcDbEntity
  8
FRAME
  6
Continuous
 62
     1
370
    25
100
AcDbLine
 10
2260.007500075001
 20
4634.500525203377
 30
0.0
 11
2260.007500075001
 21
4627.500525203377
 31
0.0
  0
LINE
  5
1B6
330
1F
100
AcDbEntity
  8
FRAME
  6
Continuous
 62
     1
370
    25
100
AcDbLine
 10
2250.547500075002
 20
4654.360525203376
 30
0.0
 11
2260.007500075002
 21
4634.500525203376
 31
0.0
  0
ARC
  5
1B7
330
1F
100
AcDbEntity
  8
FRAME
  6
Continuous
 62
     1
370
    25
100
AcDbCircle
 10
2248.747500074999
 20
4653.500525203379
 30
0.0
 40
2.0
100
AcDbArc
 50
25.46330000000272
 51
90.0
  0
LINE
  5
1B8
330
1F
100
AcDbEntity
  8
FRAME
  6
Continuous
 62
     1
370
    25
100
AcDbLine
 10
2248.747500074999
 20
4655.500525203377
 30
0.0
 11
2225.007500074999
 21
4655.500525203377
 31
0.0
  0
LINE
  5
1B9
330
1F
100
AcDbEntity
  8
FRAME
  6
Continuous
 62
     1
370
    25
100
AcDbLine
 10
2260.007500075001
 20
4634.500525203377
 30
0.0
 11
2225.007500075001
 21
4634.500525203377
 31
0.0
  0
LINE
  5
1BA
330
1F
100
AcDbEntity
  8
FRAME
  6
Continuous
 62
     1
370
    25
100
AcDbLine
 10
2225.007500075001
 20
4626.500525203381
 30
0.0
 11
2259.007500075001
 21
4626.500525203381
 31
0.0
  0
LINE
  5
1BB
330
1F
100
AcDbEntity
  8
FRAME
  6
Continuous
 62
     1
370
    25
100
AcDbLine
 10
2193.007500074998
 20
4626.500525203381
 30
0.0
 11
2193.007500074998
 21
4623.500525203381
 31
0.0
  0
ARC
  5
1BC
330
1F
100
AcDbEntity
  8
FRAME
  6
Continuous
 62
     1
370
    25
100
AcDbCircle
 10
2191.007500075
 20
4627.500525203379
 30
0.0
 40
1.0
100
AcDbArc
 50
180.0
 51
270.0
  0
LINE
  5
1BD
330
1F
100
AcDbEntity
  8
FRAME
  6
Continuous
 62
     1
370
    25
100
AcDbLine
 10
2190.007500075001
 20
4634.500525203377
 30
0.0
 11
2190.007500075001
 21
4627.500525203377
 31
0.0
  0
LINE
  5
1BE
330
1F
100
AcDbEntity
  8
FRAME
  6
Continuous
 62
     1
370
    25
100
AcDbLine
 10
2199.467500075
 20
4654.360525203376
 30
0.0
 11
2190.007500075
 21
4634.500525203376
 31
0.0
  0
ARC
  5
1BF
330
1F
100
AcDbEntity
  8
FRAME
  6
Continuous
 62
     1
370
    25
100
AcDbCircle
 10
2201.267500074999
 20
4653.500525203379
 30
0.0
 40
1.999999999999944
100
AcDbArc
 50
90.0
 51
154.5369999999958
  0
LINE
  5
1C0
330
1F
100
AcDbEntity
  8
FRAME
  6
Continuous
 62
     1
370
    25
100
AcDbLine
 10
2201.267500074999
 20
4655.500525203377
 30
0.0
 11
2225.007500074998
 21
4655.500525203377
 31
0.0
  0
LINE
  5
1C1
330
1F
100
AcDbEntity
  8
FRAME
  6
Continuous
 62
     1
370
    25
100
AcDbLine
 10
2190.007500075001
 20
4634.500525203377
 30
0.0
 11
2225.007500075001
 21
4634.500525203377
 31
0.0
  0
LINE
  5
1C2
330
1F
100
AcDbEntity
  8
FRAME
  6
Continuous
 62
     1
370
    25
100
AcDbLine
 10
2225.007500075001
 20
4626.500525203381
 30
0.0
 11
2191.007500075001
 21
4626.500525203381
 31
0.0
  0
LINE
  5
1C3
330
1F
100
AcDbEntity
  8
FRAME
  6
Continuous
 62
     1
370
    25
100
AcDbLine
 10
1957.007500074999
 20
4626.500525203381
 30
0.0
 11
1957.007500074999
 21
4623.500525203381
 31
0.0
  0
ARC
  5
1C4
330
1F
100
AcDbEntity
  8
FRAME
  6
Continuous
 62
     1
370
    25
100
AcDbCircle
 10
1959.007500075002
 20
4627.500525203379
 30
0.0
 40
1.0
100
AcDbArc
 50
270.0
 51
0.0
  0
LINE
  5
1C5
330
1F
100
AcDbEntity
  8
FRAME
  6
Continuous
 62
     1
370
    25
100
AcDbLine
 10
1960.007500075001
 20
4634.500525203377
 30
0.0
 11
1960.007500075001
 21
4627.500525203377
 31
0.0
  0
LINE
  5
1C6
330
1F
100
AcDbEntity
  8
FRAME
  6
Continuous
 62
     1
370
    25
100
AcDbLine
 10
1950.547500075002
 20
4654.360525203376
 30
0.0
 11
1960.007500075002
 21
4634.500525203376
 31
0.0
  0
ARC
  5
1C7
330
1F
100
AcDbEntity
  8
FRAME
  6
Continuous
 62
     1
370
    25
100
AcDbCircle
 10
1948.747500074999
 20
4653.500525203379
 30
0.0
 40
2.0
100
AcDbArc
 50
25.46330000000272
 51
90.0
  0
LINE
  5
1C8
330
1F
100
AcDbEntity
  8
FRAME
  6
Continuous
 62
     1
370
    25
100
AcDbLine
 10
1948.747500074999
 20
4655.500525203377
 30
0.0
 11
1925.007500074999
 21
4655.500525203377
 31
0.0
  0
LINE
  5
1C9
330
1F
100
AcDbEntity
  8
FRAME
  6
Continuous
 62
     1
370
    25
100
AcDbLine
 10
1960.007500075001
 20
4634.500525203377
 30
0.0
 11
1925.007500075001
 21
4634.500525203377
 31
0.0
  0
LINE
  5
1CA
330
1F
100
AcDbEntity
  8
FRAME
  6
Continuous
 62
     1
370
    25
100
AcDbLine
 10
1925.007500075001
 20
4626.500525203381
 30
0.0
 11
1959.007500075001
 21
4626.500525203381
 31
0.0
  0
LINE
  5
1CB
330
1F
100
AcDbEntity
  8
FRAME
  6
Continuous
 62
     1
370
    25
100
AcDbLine
 10
1893.007500074998
 20
4626.500525203381
 30
0.0
 11
1893.007500074998
 21
4623.500525203381
 31
0.0
  0
ARC
  5
1CC
330
1F
100
AcDbEntity
  8
FRAME
  6
Continuous
 62
     1
370
    25
100
AcDbCircle
 10
1891.007500075
 20
4627.500525203379
 30
0.0
 40
1.0
100
AcDbArc
 50
180.0
 51
270.0
  0
LINE
  5
1CD
330
1F
100
AcDbEntity
  8
FRAME
  6
Continuous
 62
     1
370
    25
100
AcDbLine
 10
1890.007500075001
 20
4634.500525203377
 30
0.0
 11
1890.007500075001
 21
4627.500525203377
 31
0.0
  0
LINE
  5
1CE
330
1F
100
AcDbEntity
  8
FRAME
  6
Continuous
 62
     1
370
    25
100
AcDbLine
 10
1899.467500075
 20
4654.360525203376
 30
0.0
 11
1890.007500075
 21
4634.500525203376
 31
0.0
  0
ARC
  5
1CF
330
1F
100
AcDbEntity
  8
FRAME
  6
Continuous
 62
     1
370
    25
100
AcDbCircle
 10
1901.267500074999
 20
4653.500525203379
 30
0.0
 40
1.999999999999944
100
AcDbArc
 50
90.0
 51
154.5369999999958
  0
LINE
  5
1D0
330
1F
100
AcDbEntity
  8
FRAME
  6
Continuous
 62
     1
370
    25
100
AcDbLine
 10
1901.267500074999
 20
4655.500525203377
 30
0.0
 11
1925.007500074999
 21
4655.500525203377
 31
0.0
  0
LINE
  5
1D1
330
1F
100
AcDbEntity
  8
FRAME
  6
Continuous
 62
     1
370
    25
100
AcDbLine
 10
1890.007500075001
 20
4634.500525203377
 30
0.0
 11
1925.007500075001
 21
4634.500525203377
 31
0.0
  0
LINE
  5
1D2
330
1F
100
AcDbEntity
  8
FRAME
  6
Continuous
 62
     1
370
    25
100
AcDbLine
 10
1925.007500075001
 20
4626.500525203381
 30
0.0
 11
1891.007500075001
 21
4626.500525203381
 31
0.0
  0
LINE
  5
1D3
330
1F
100
AcDbEntity
  8
FRAME
  6
Continuous
 62
     1
370
    25
100
AcDbLine
 10
2098.007500074998
 20
4658.500525203377
 30
0.0
 11
2098.007500074998
 21
4655.500525203377
 31
0.0
  0
LINE
  5
1D4
330
1F
100
AcDbEntity
  8
FRAME
  6
Continuous
 62
     1
370
    25
100
AcDbLine
 10
2085.007500075001
 20
4771.500525203381
 30
0.0
 11
2085.007500075001
 21
4676.500525203381
 31
0.0
  0
LINE
  5
1D5
330
1F
100
AcDbEntity
  8
FRAME
  6
Continuous
 62
     1
370
    25
100
AcDbLine
 10
2085.007500075001
 20
4771.500525203381
 30
0.0
 11
2085.007500075001
 21
4776.500525203381
 31
0.0
  0
LINE
  5
1D6
330
1F
100
AcDbEntity
  8
FRAME
  6
Continuous
 62
     1
370
    25
100
AcDbLine
 10
2085.007500075001
 20
4676.500525203379
 30
0.0
 11
2085.007500075001
 21
4678.500525203379
 31
0.0
  0
LINE
  5
1D7
330
1F
100
AcDbEntity
  8
FRAME
  6
Continuous
 62
     1
370
    25
100
AcDbLine
 10
2095.007500075001
 20
4678.500525203377
 30
0.0
 11
2085.007500075001
 21
4678.500525203377
 31
0.0
  0
LINE
  5
1D8
330
1F
100
AcDbEntity
  8
FRAME
  6
Continuous
 62
     1
370
    25
100
AcDbLine
 10
2100.007500075001
 20
4658.500525203377
 30
0.0
 11
2100.007500075001
 21
4678.500525203377
 31
0.0
  0
LINE
  5
1D9
330
1F
100
AcDbEntity
  8
FRAME
  6
Continuous
 62
     1
370
    25
100
AcDbLine
 10
2100.007500075001
 20
4678.500525203377
 30
0.0
 11
2095.007500075001
 21
4678.500525203377
 31
0.0
  0
LINE
  5
1DA
330
1F
100
AcDbEntity
  8
FRAME
  6
Continuous
 62
     1
370
    25
100
AcDbLine
 10
2095.007500075001
 20
4658.500525203377
 30
0.0
 11
2100.007500075001
 21
4658.500525203377
 31
0.0
  0
LINE
  5
1DB
330
1F
100
AcDbEntity
  8
FRAME
  6
Continuous
 62
     1
370
    25
100
AcDbLine
 10
2085.007500075001
 20
4676.500525203379
 30
0.0
 11
2075.007500075001
 21
4676.500525203379
 31
0.0
  0
LINE
  5
1DC
330
1F
100
AcDbEntity
  8
FRAME
  6
Continuous
 62
     1
370
    25
100
AcDbLine
 10
2085.007500075001
 20
4776.500525203381
 30
0.0
 11
2075.007500075001
 21
4776.500525203381
 31
0.0
  0
LINE
  5
1DD
330
1F
100
AcDbEntity
  8
FRAME
  6
Continuous
 62
     1
370
    25
100
AcDbLine
 10
2085.007500075001
 20
4676.500525203379
 30
0.0
 11
2075.007500075001
 21
4676.500525203379
 31
0.0
  0
LINE
  5
1DE
330
1F
100
AcDbEntity
  8
FRAME
  6
Continuous
 62
     1
370
    25
100
AcDbLine
 10
2095.007500075001
 20
4658.500525203377
 30
0.0
 11
2075.007500075001
 21
4658.500525203377
 31
0.0
  0
LINE
  5
1DF
330
1F
100
AcDbEntity
  8
FRAME
  6
Continuous
 62
     1
370
    25
100
AcDbLine
 10
2052.007500074999
 20
4658.500525203377
 30
0.0
 11
2052.007500074999
 21
4655.500525203377
 31
0.0
  0
LINE
  5
1E0
330
1F
100
AcDbEntity
  8
FRAME
  6
Continuous
 62
     1
370
    25
100
AcDbLine
 10
2065.007500075001
 20
4771.500525203381
 30
0.0
 11
2065.007500075001
 21
4676.500525203381
 31
0.0
  0
LINE
  5
1E1
330
1F
100
AcDbEntity
  8
FRAME
  6
Continuous
 62
     1
370
    25
100
AcDbLine
 10
2065.007500075001
 20
4771.500525203381
 30
0.0
 11
2065.007500075001
 21
4776.500525203381
 31
0.0
  0
LINE
  5
1E2
330
1F
100
AcDbEntity
  8
FRAME
  6
Continuous
 62
     1
370
    25
100
AcDbLine
 10
2065.007500075001
 20
4676.500525203379
 30
0.0
 11
2065.007500075001
 21
4678.500525203379
 31
0.0
  0
LINE
  5
1E3
330
1F
100
AcDbEntity
  8
FRAME
  6
Continuous
 62
     1
370
    25
100
AcDbLine
 10
2055.007500075001
 20
4678.500525203377
 30
0.0
 11
2065.007500075001
 21
4678.500525203377
 31
0.0
  0
LINE
  5
1E4
330
1F
100
AcDbEntity
  8
FRAME
  6
Continuous
 62
     1
370
    25
100
AcDbLine
 10
2050.007500075001
 20
4658.500525203377
 30
0.0
 11
2050.007500075001
 21
4678.500525203377
 31
0.0
  0
LINE
  5
1E5
330
1F
100
AcDbEntity
  8
FRAME
  6
Continuous
 62
     1
370
    25
100
AcDbLine
 10
2050.007500075001
 20
4678.500525203377
 30
0.0
 11
2055.007500075001
 21
4678.500525203377
 31
0.0
  0
LINE
  5
1E6
330
1F
100
AcDbEntity
  8
FRAME
  6
Continuous
 62
     1
370
    25
100
AcDbLine
 10
2055.007500075001
 20
4658.500525203377
 30
0.0
 11
2050.007500075001
 21
4658.500525203377
 31
0.0
  0
LINE
  5
1E7
330
1F
100
AcDbEntity
  8
FRAME
  6
Continuous
 62
     1
370
    25
100
AcDbLine
 10
2065.007500075001
 20
4676.500525203379
 30
0.0
 11
2075.007500075001
 21
4676.500525203379
 31
0.0
  0
LINE
  5
1E8
330
1F
100
AcDbEntity
  8
FRAME
  6
Continuous
 62
     1
370
    25
100
AcDbLine
 10
2065.007500075001
 20
4776.500525203381
 30
0.0
 11
2075.007500075001
 21
4776.500525203381
 31
0.0
  0
LINE
  5
1E9
330
1F
100
AcDbEntity
  8
FRAME
  6
Continuous
 62
     1
370
    25
100
AcDbLine
 10
2065.007500075001
 20
4676.500525203379
 30
0.0
 11
2075.007500075001
 21
4676.500525203379
 31
0.0
  0
LINE
  5
1EA
330
1F
100
AcDbEntity
  8
FRAME
  6
Continuous
 62
     1
370
    25
100
AcDbLine
 10
2055.007500075001
 20
4658.500525203377
 30
0.0
 11
2075.007500075001
 21
4658.500525203377
 31
0.0
  0
LINE
  5
1EB
330
1F
100
AcDbEntity
  8
FRAME
  6
Continuous
 62
     1
370
    25
100
AcDbLine
 10
2248.007500074999
 20
4658.500525203377
 30
0.0
 11
2248.007500074999
 21
4655.500525203377
 31
0.0
  0
LINE
  5
1EC
330
1F
100
AcDbEntity
  8
FRAME
  6
Continuous
 62
     1
370
    25
100
AcDbLine
 10
2235.007500075001
 20
4771.500525203381
 30
0.0
 11
2235.007500075001
 21
4676.500525203381
 31
0.0
  0
LINE
  5
1ED
330
1F
100
AcDbEntity
  8
FRAME
  6
Continuous
 62
     1
370
    25
100
AcDbLine
 10
2235.007500075001
 20
4771.500525203381
 30
0.0
 11
2235.007500075001
 21
4776.500525203381
 31
0.0
  0
LINE
  5
1EE
330
1F
100
AcDbEntity
  8
FRAME
  6
Continuous
 62
     1
370
    25
100
AcDbLine
 10
2235.007500075001
 20
4676.500525203379
 30
0.0
 11
2235.007500075001
 21
4678.500525203379
 31
0.0
  0
LINE
  5
1EF
330
1F
100
AcDbEntity
  8
FRAME
  6
Continuous
 62
     1
370
    25
100
AcDbLine
 10
2245.007500075001
 20
4678.500525203377
 30
0.0
 11
2235.007500075001
 21
4678.500525203377
 31
0.0
  0
LINE
  5
1F0
330
1F
100
AcDbEntity
  8
FRAME
  6
Continuous
 62
     1
370
    25
100
AcDbLine
 10
2250.007500075001
 20
4658.500525203377
 30
0.0
 11
2250.007500075001
 21
4678.500525203377
 31
0.0
  0
LINE
  5
1F1
330
1F
100
AcDbEntity
  8
FRAME
  6
Continuous
 62
     1
370
    25
100
AcDbLine
 10
2250.007500075001
 20
4678.500525203377
 30
0.0
 11
2245.007500075001
 21
4678.500525203377
 31
0.0
  0
LINE
  5
1F2
330
1F
100
AcDbEntity
  8
FRAME
  6
Continuous
 62
     1
370
    25
100
AcDbLine
 10
2245.007500075001
 20
4658.500525203377
 30
0.0
 11
2250.007500075001
 21
4658.500525203377
 31
0.0
  0
LINE
  5
1F3
330
1F
100
AcDbEntity
  8
FRAME
  6
Continuous
 62
     1
370
    25
100
AcDbLine
 10
2235.007500075001
 20
4676.500525203379
 30
0.0
 11
2225.007500075001
 21
4676.500525203379
 31
0.0
  0
LINE
  5
1F4
330
1F
100
AcDbEntity
  8
FRAME
  6
Continuous
 62
     1
370
    25
100
AcDbLine
 10
2235.007500075001
 20
4776.500525203381
 30
0.0
 11
2225.007500075001
 21
4776.500525203381
 31
0.0
  0
LINE
  5
1F5
330
1F
100
AcDbEntity
  8
FRAME
  6
Continuous
 62
     1
370
    25
100
AcDbLine
 10
2235.007500075001
 20
4676.500525203379
 30
0.0
 11
2225.007500075001
 21
4676.500525203379
 31
0.0
  0
LINE
  5
1F6
330
1F
100
AcDbEntity
  8
FRAME
  6
Continuous
 62
     1
370
    25
100
AcDbLine
 10
2245.007500075001
 20
4658.500525203377
 30
0.0
 11
2225.007500075001
 21
4658.500525203377
 31
0.0
  0
LINE
  5
1F7
330
1F
100
AcDbEntity
  8
FRAME
  6
Continuous
 62
     1
370
    25
100
AcDbLine
 10
2202.007500074999
 20
4658.500525203377
 30
0.0
 11
2202.007500074999
 21
4655.500525203377
 31
0.0
  0
LINE
  5
1F8
330
1F
100
AcDbEntity
  8
FRAME
  6
Continuous
 62
     1
370
    25
100
AcDbLine
 10
2215.007500075001
 20
4771.500525203381
 30
0.0
 11
2215.007500075001
 21
4676.500525203381
 31
0.0
  0
LINE
  5
1F9
330
1F
100
AcDbEntity
  8
FRAME
  6
Continuous
 62
     1
370
    25
100
AcDbLine
 10
2215.007500075001
 20
4771.500525203381
 30
0.0
 11
2215.007500075001
 21
4776.500525203381
 31
0.0
  0
LINE
  5
1FA
330
1F
100
AcDbEntity
  8
FRAME
  6
Continuous
 62
     1
370
    25
100
AcDbLine
 10
2215.007500075001
 20
4676.500525203379
 30
0.0
 11
2215.007500075001
 21
4678.500525203379
 31
0.0
  0
LINE
  5
1FB
330
1F
100
AcDbEntity
  8
FRAME
  6
Continuous
 62
     1
370
    25
100
AcDbLine
 10
2205.007500075001
 20
4678.500525203377
 30
0.0
 11
2215.007500075001
 21
4678.500525203377
 31
0.0
  0
LINE
  5
1FC
330
1F
100
AcDbEntity
  8
FRAME
  6
Continuous
 62
     1
370
    25
100
AcDbLine
 10
2200.007500075001
 20
4658.500525203377
 30
0.0
 11
2200.007500075001
 21
4678.500525203377
 31
0.0
  0
LINE
  5
1FD
330
1F
100
AcDbEntity
  8
FRAME
  6
Continuous
 62
     1
370
    25
100
AcDbLine
 10
2200.007500075001
 20
4678.500525203377
 30
0.0
 11
2205.007500075001
 21
4678.500525203377
 31
0.0
  0
LINE
  5
1FE
330
1F
100
AcDbEntity
  8
FRAME
  6
Continuous
 62
     1
370
    25
100
AcDbLine
 10
2205.007500075001
 20
4658.500525203377
 30
0.0
 11
2200.007500075001
 21
4658.500525203377
 31
0.0
  0
LINE
  5
1FF
330
1F
100
AcDbEntity
  8
FRAME
  6
Continuous
 62
     1
370
    25
100
AcDbLine
 10
2215.007500075001
 20
4676.500525203379
 30
0.0
 11
2225.007500075001
 21
4676.500525203379
 31
0.0
  0
LINE
  5
200
330
1F
100
AcDbEntity
  8
FRAME
  6
Continuous
 62
     1
370
    25
100
AcDbLine
 10
2215.007500075001
 20
4776.500525203381
 30
0.0
 11
2225.007500075001
 21
4776.500525203381
 31
0.0
  0
LINE
  5
201
330
1F
100
AcDbEntity
  8
FRAME
  6
Continuous
 62
     1
370
    25
100
AcDbLine
 10
2215.007500075001
 20
4676.500525203379
 30
0.0
 11
2225.007500075001
 21
4676.500525203379
 31
0.0
  0
LINE
  5
202
330
1F
100
AcDbEntity
  8
FRAME
  6
Continuous
 62
     1
370
    25
100
AcDbLine
 10
2205.007500075001
 20
4658.500525203377
 30
0.0
 11
2225.007500075001
 21
4658.500525203377
 31
0.0
  0
LINE
  5
203
330
1F
100
AcDbEntity
  8
FRAME
  6
Continuous
 62
     1
370
    25
100
AcDbLine
 10
1948.007500074998
 20
4658.500525203377
 30
0.0
 11
1948.007500074998
 21
4655.500525203377
 31
0.0
  0
LINE
  5
204
330
1F
100
AcDbEntity
  8
FRAME
  6
Continuous
 62
     1
370
    25
100
AcDbLine
 10
1935.007500075001
 20
4771.500525203381
 30
0.0
 11
1935.007500075001
 21
4676.500525203381
 31
0.0
  0
LINE
  5
205
330
1F
100
AcDbEntity
  8
FRAME
  6
Continuous
 62
     1
370
    25
100
AcDbLine
 10
1935.007500075001
 20
4771.500525203381
 30
0.0
 11
1935.007500075001
 21
4776.500525203381
 31
0.0
  0
LINE
  5
206
330
1F
100
AcDbEntity
  8
FRAME
  6
Continuous
 62
     1
370
    25
100
AcDbLine
 10
1935.007500075001
 20
4676.500525203379
 30
0.0
 11
1935.007500075001
 21
4678.500525203379
 31
0.0
  0
LINE
  5
207
330
1F
100
AcDbEntity
  8
FRAME
  6
Continuous
 62
     1
370
    25
100
AcDbLine
 10
1945.007500075001
 20
4678.500525203377
 30
0.0
 11
1935.007500075001
 21
4678.500525203377
 31
0.0
  0
LINE
  5
208
330
1F
100
AcDbEntity
  8
FRAME
  6
Continuous
 62
     1
370
    25
100
AcDbLine
 10
1950.007500075001
 20
4658.500525203377
 30
0.0
 11
1950.007500075001
 21
4678.500525203377
 31
0.0
  0
LINE
  5
209
330
1F
100
AcDbEntity
  8
FRAME
  6
Continuous
 62
     1
370
    25
100
AcDbLine
 10
1950.007500075001
 20
4678.500525203377
 30
0.0
 11
1945.007500075001
 21
4678.500525203377
 31
0.0
  0
LINE
  5
20A
330
1F
100
AcDbEntity
  8
FRAME
  6
Continuous
 62
     1
370
    25
100
AcDbLine
 10
1945.007500075001
 20
4658.500525203377
 30
0.0
 11
1950.007500075001
 21
4658.500525203377
 31
0.0
  0
LINE
  5
20B
330
1F
100
AcDbEntity
  8
FRAME
  6
Continuous
 62
     1
370
    25
100
AcDbLine
 10
1935.007500075001
 20
4676.500525203379
 30
0.0
 11
1925.007500075001
 21
4676.500525203379
 31
0.0
  0
LINE
  5
20C
330
1F
100
AcDbEntity
  8
FRAME
  6
Continuous
 62
     1
370
    25
100
AcDbLine
 10
1935.007500075001
 20
4776.500525203381
 30
0.0
 11
1925.007500075001
 21
4776.500525203381
 31
0.0
  0
LINE
  5
20D
330
1F
100
AcDbEntity
  8
FRAME
  6
Continuous
 62
     1
370
    25
100
AcDbLine
 10
1935.007500075001
 20
4676.500525203379
 30
0.0
 11
1925.007500075001
 21
4676.500525203379
 31
0.0
  0
LINE
  5
20E
330
1F
100
AcDbEntity
  8
FRAME
  6
Continuous
 62
     1
370
    25
100
AcDbLine
 10
1945.007500075001
 20
4658.500525203377
 30
0.0
 11
1925.007500075001
 21
4658.500525203377
 31
0.0
  0
LINE
  5
20F
330
1F
100
AcDbEntity
  8
FRAME
  6
Continuous
 62
     1
370
    25
100
AcDbLine
 10
1902.007500074999
 20
4658.500525203377
 30
0.0
 11
1902.007500074999
 21
4655.500525203377
 31
0.0
  0
LINE
  5
210
330
1F
100
AcDbEntity
  8
FRAME
  6
Continuous
 62
     1
370
    25
100
AcDbLine
 10
1915.007500075001
 20
4771.500525203381
 30
0.0
 11
1915.007500075001
 21
4676.500525203381
 31
0.0
  0
LINE
  5
211
330
1F
100
AcDbEntity
  8
FRAME
  6
Continuous
 62
     1
370
    25
100
AcDbLine
 10
1915.007500075001
 20
4771.500525203381
 30
0.0
 11
1915.007500075001
 21
4776.500525203381
 31
0.0
  0
LINE
  5
212
330
1F
100
AcDbEntity
  8
FRAME
  6
Continuous
 62
     1
370
    25
100
AcDbLine
 10
1915.007500075001
 20
4676.500525203379
 30
0.0
 11
1915.007500075001
 21
4678.500525203379
 31
0.0
  0
LINE
  5
213
330
1F
100
AcDbEntity
  8
FRAME
  6
Continuous
 62
     1
370
    25
100
AcDbLine
 10
1905.007500075001
 20
4678.500525203377
 30
0.0
 11
1915.007500075001
 21
4678.500525203377
 31
0.0
  0
LINE
  5
214
330
1F
100
AcDbEntity
  8
FRAME
  6
Continuous
 62
     1
370
    25
100
AcDbLine
 10
1900.007500075001
 20
4658.500525203377
 30
0.0
 11
1900.007500075001
 21
4678.500525203377
 31
0.0
  0
LINE
  5
215
330
1F
100
AcDbEntity
  8
FRAME
  6
Continuous
 62
     1
370
    25
100
AcDbLine
 10
1900.007500075001
 20
4678.500525203377
 30
0.0
 11
1905.007500075001
 21
4678.500525203377
 31
0.0
  0
LINE
  5
216
330
1F
100
AcDbEntity
  8
FRAME
  6
Continuous
 62
     1
370
    25
100
AcDbLine
 10
1905.007500075001
 20
4658.500525203377
 30
0.0
 11
1900.007500075001
 21
4658.500525203377
 31
0.0
  0
LINE
  5
217
330
1F
100
AcDbEntity
  8
FRAME
  6
Continuous
 62
     1
370
    25
100
AcDbLine
 10
1915.007500075001
 20
4676.500525203379
 30
0.0
 11
1925.007500075001
 21
4676.500525203379
 31
0.0
  0
LINE
  5
218
330
1F
100
AcDbEntity
  8
FRAME
  6
Continuous
 62
     1
370
    25
100
AcDbLine
 10
1915.007500075001
 20
4776.500525203381
 30
0.0
 11
1925.007500075001
 21
4776.500525203381
 31
0.0
  0
LINE
  5
219
330
1F
100
AcDbEntity
  8
FRAME
  6
Continuous
 62
     1
370
    25
100
AcDbLine
 10
1915.007500075001
 20
4676.500525203379
 30
0.0
 11
1925.007500075001
 21
4676.500525203379
 31
0.0
  0
LINE
  5
21A
330
1F
100
AcDbEntity
  8
FRAME
  6
Continuous
 62
     1
370
    25
100
AcDbLine
 10
1905.007500075001
 20
4658.500525203377
 30
0.0
 11
1925.007500075001
 21
4658.500525203377
 31
0.0
  0
LINE
  5
21B
330
1F
100
AcDbEntity
  8
NoLayerName_002
  6
CENTER
 62
     1
370
    25
100
AcDbLine
 10
2225.007500075001
 20
4796.500525203381
 30
0.0
 11
2225.007500075001
 21
4619.500525203381
 31
0.0
  0
LINE
  5
21C
330
1F
100
AcDbEntity
  8
NoLayerName_002
  6
CENTER
 62
     1
370
    25
100
AcDbLine
 10
1925.007500075001
 20
4796.500525203381
 30
0.0
 11
1925.007500075001
 21
4619.500525203381
 31
0.0
  0
LINE
  5
21D
330
1F
100
AcDbEntity
  8
NoLayerName_002
  6
CENTER
 62
     1
370
    25
100
AcDbLine
 10
2075.007500075001
 20
4796.500525203381
 30
0.0
 11
2075.007500075001
 21
4619.500525203381
 31
0.0
  0
LINE
  5
21E
330
1F
100
AcDbEntity
  8
NoLayerName_001
  6
Continuous
 62
     7
370
    25
100
AcDbLine
 10
2700.007500075001
 20
6730.078150781507
 30
0.0
 11
2700.007500075001
 21
6790.078150781507
 31
0.0
  0
LINE
  5
21F
330
1F
100
AcDbEntity
  8
NoLayerName_001
  6
Continuous
 62
     7
370
    25
100
AcDbLine
 10
2780.007500075001
 20
6810.078150781507
 30
0.0
 11
2720.007500075001
 21
6810.078150781507
 31
0.0
  0
LINE
  5
220
330
1F
100
AcDbEntity
  8
NoLayerName_001
  6
Continuous
 62
     7
370
    25
100
AcDbLine
 10
2800.007500075001
 20
6790.078150781507
 30
0.0
 11
2800.007500075001
 21
6730.078150781507
 31
0.0
  0
LINE
  5
221
330
1F
100
AcDbEntity
  8
NoLayerName_001
  6
Continuous
 62
     7
370
    25
100
AcDbLine
 10
2780.007500075001
 20
6710.078150781507
 30
0.0
 11
2720.007500075001
 21
6710.078150781507
 31
0.0
  0
ARC
  5
222
330
1F
100
AcDbEntity
  8
NoLayerName_001
  6
Continuous
 62
     7
370
    25
100
AcDbCircle
 10
2720.007500075001
 20
6790.078150781507
 30
0.0
 40
20.0
100
AcDbArc
 50
90.0
 51
180.0
  0
ARC
  5
223
330
1F
100
AcDbEntity
  8
NoLayerName_001
  6
Continuous
 62
     7
370
    25
100
AcDbCircle
 10
2720.007500075001
 20
6730.078150781507
 30
0.0
 40
20.0
100
AcDbArc
 50
180.0
 51
270.0
  0
ARC
  5
224
330
1F
100
AcDbEntity
  8
NoLayerName_001
  6
Continuous
 62
     7
370
    25
100
AcDbCircle
 10
2780.007500075001
 20
6730.078150781507
 30
0.0
 40
20.0
100
AcDbArc
 50
270.0
 51
0.0
  0
ARC
  5
225
330
1F
100
AcDbEntity
  8
NoLayerName_001
  6
Continuous
 62
     7
370
    25
100
AcDbCircle
 10
2780.007500075001
 20
6790.078150781507
 30
0.0
 40
20.0
100
AcDbArc
 50
0.0
 51
90.0
  0
CIRCLE
  5
226
330
1F
100
AcDbEntity
  8
NoLayerName_001
  6
Continuous
 62
     7
370
    25
100
AcDbCircle
 10
2750.007500075001
 20
6760.078150781507
 30
0.0
 40
37.5
  0
LINE
  5
227
330
1F
100
AcDbEntity
  8
NoLayerName_001
  6
Continuous
 62
     7
370
    25
100
AcDbLine
 10
2800.007500075001
 20
4625.500525203379
 30
0.0
 11
2800.007500075001
 21
4619.500525203379
 31
0.0
  0
LINE
  5
228
330
1F
100
AcDbEntity
  8
NoLayerName_001
  6
Continuous
 62
     7
370
    25
100
AcDbLine
 10
2700.007500075001
 20
4625.500525203379
 30
0.0
 11
2700.007500075001
 21
4619.500525203379
 31
0.0
  0
LINE
  5
229
330
1F
100
AcDbEntity
  8
NoLayerName_001
  6
CENTER
 62
     7
370
    25
100
AcDbLine
 10
1550.007500075001
 20
3267.50052520338
 30
0.0
 11
1550.007500075001
 21
3197.500525203381
 31
0.0
  0
LINE
  5
22A
330
1F
100
AcDbEntity
  8
NoLayerName_001
  6
CENTER
 62
     7
370
    25
100
AcDbLine
 10
2750.007500075001
 20
3267.50052520338
 30
0.0
 11
2750.007500075001
 21
3197.500525203381
 31
0.0
  0
LINE
  5
22B
330
1F
100
AcDbEntity
  8
NoLayerName_001
  6
CENTER
 62
     7
370
    25
100
AcDbLine
 10
5100.060000600005
 20
3267.50052520338
 30
0.0
 11
5100.060000600005
 21
3197.500525203381
 31
0.0
  0
LINE
  5
22C
330
1F
100
AcDbEntity
  8
NoLayerName_001
  6
CENTER
 62
     7
370
    25
100
AcDbLine
 10
4300.060000600006
 20
3267.50052520338
 30
0.0
 11
4300.060000600006
 21
3197.500525203381
 31
0.0
  0
LINE
  5
22D
330
1F
100
AcDbEntity
  8
FRAME
  6
CENTER
 62
     1
370
    25
100
AcDbLine
 10
2040.007500075001
 20
6470.078150781507
 30
0.0
 11
2020.007500075001
 21
6470.078150781507
 31
0.0
  0
LINE
  5
22E
330
1F
100
AcDbEntity
  8
FRAME
  6
CENTER
 62
     1
370
    25
100
AcDbLine
 10
2130.007500075001
 20
6470.078150781507
 30
0.0
 11
2110.007500075001
 21
6470.078150781507
 31
0.0
  0
LINE
  5
22F
330
1F
100
AcDbEntity
  8
FRAME
  6
CENTER
 62
     1
370
    25
100
AcDbLine
 10
2189.747500075001
 20
6470.078150781507
 30
0.0
 11
2169.747500075001
 21
6470.078150781507
 31
0.0
  0
LINE
  5
230
330
1F
100
AcDbEntity
  8
FRAME
  6
CENTER
 62
     1
370
    25
100
AcDbLine
 10
2279.747500075001
 20
6470.078150781507
 30
0.0
 11
2259.747500075001
 21
6470.078150781507
 31
0.0
  0
LINE
  5
231
330
1F
100
AcDbEntity
  8
FRAME
  6
CENTER
 62
     1
370
    25
100
AcDbLine
 10
2225.007500075001
 20
6545.078150781507
 30
0.0
 11
2225.007500075001
 21
6565.078150781507
 31
0.0
  0
LINE
  5
232
330
1F
100
AcDbEntity
  8
FRAME
  6
CENTER
 62
     1
370
    25
100
AcDbLine
 10
2225.007500075001
 20
6395.078150781507
 30
0.0
 11
2225.007500075001
 21
6375.078150781507
 31
0.0
  0
LINE
  5
233
330
1F
100
AcDbEntity
  8
FRAME
  6
CENTER
 62
     1
370
    25
100
AcDbLine
 10
1889.747500075001
 20
6470.078150781507
 30
0.0
 11
1869.747500075001
 21
6470.078150781507
 31
0.0
  0
LINE
  5
234
330
1F
100
AcDbEntity
  8
FRAME
  6
CENTER
 62
     1
370
    25
100
AcDbLine
 10
1925.007500075001
 20
6545.078150781507
 30
0.0
 11
1925.007500075001
 21
6565.078150781507
 31
0.0
  0
LINE
  5
235
330
1F
100
AcDbEntity
  8
FRAME
  6
CENTER
 62
     1
370
    25
100
AcDbLine
 10
1979.747500075001
 20
6470.078150781507
 30
0.0
 11
1959.747500075001
 21
6470.078150781507
 31
0.0
  0
ARC
  5
236
330
1F
100
AcDbEntity
  8
NoLayerName_001
  6
Continuous
 62
     7
370
    25
100
AcDbCircle
 10
2224.747500075001
 20
6510.078150781507
 30
0.0
 40
35.0
100
AcDbArc
 50
0.0
 51
180.0
  0
ARC
  5
237
330
1F
100
AcDbEntity
  8
NoLayerName_001
  6
Continuous
 62
     7
370
    25
100
AcDbCircle
 10
2224.747500075001
 20
6430.078150781507
 30
0.0
 40
35.0
100
AcDbArc
 50
180.0
 51
0.0
  0
LINE
  5
238
330
1F
100
AcDbEntity
  8
FRAME
  6
Continuous
 62
     1
370
    25
100
AcDbLine
 10
2259.747500075001
 20
6430.078150781507
 30
0.0
 11
2259.747500075001
 21
6510.078150781507
 31
0.0
  0
LINE
  5
239
330
1F
100
AcDbEntity
  8
FRAME
  6
Continuous
 62
     1
370
    25
100
AcDbLine
 10
2189.747500075001
 20
6510.078150781507
 30
0.0
 11
2189.747500075001
 21
6430.078150781507
 31
0.0
  0
ARC
  5
23A
330
1F
100
AcDbEntity
  8
NoLayerName_001
  6
Continuous
 62
     7
370
    25
100
AcDbCircle
 10
2074.747500075001
 20
6510.078150781507
 30
0.0
 40
35.0
100
AcDbArc
 50
0.0
 51
180.0
  0
ARC
  5
23B
330
1F
100
AcDbEntity
  8
NoLayerName_001
  6
Continuous
 62
     7
370
    25
100
AcDbCircle
 10
2074.747500075001
 20
6430.078150781507
 30
0.0
 40
35.0
100
AcDbArc
 50
180.0
 51
0.0
  0
LINE
  5
23C
330
1F
100
AcDbEntity
  8
FRAME
  6
Continuous
 62
     1
370
    25
100
AcDbLine
 10
2109.747500075001
 20
6430.078150781507
 30
0.0
 11
2109.747500075001
 21
6510.078150781507
 31
0.0
  0
LINE
  5
23D
330
1F
100
AcDbEntity
  8
FRAME
  6
Continuous
 62
     1
370
    25
100
AcDbLine
 10
2039.747500075001
 20
6510.078150781507
 30
0.0
 11
2039.747500075001
 21
6430.078150781507
 31
0.0
  0
ARC
  5
23E
330
1F
100
AcDbEntity
  8
NoLayerName_001
  6
Continuous
 62
     7
370
    25
100
AcDbCircle
 10
1924.747500075001
 20
6510.078150781507
 30
0.0
 40
35.0
100
AcDbArc
 50
0.0
 51
180.0
  0
ARC
  5
23F
330
1F
100
AcDbEntity
  8
NoLayerName_001
  6
Continuous
 62
     7
370
    25
100
AcDbCircle
 10
1924.747500075001
 20
6430.078150781507
 30
0.0
 40
35.0
100
AcDbArc
 50
180.0
 51
0.0
  0
LINE
  5
240
330
1F
100
AcDbEntity
  8
FRAME
  6
Continuous
 62
     1
370
    25
100
AcDbLine
 10
1959.747500075001
 20
6430.078150781507
 30
0.0
 11
1959.747500075001
 21
6510.078150781507
 31
0.0
  0
LINE
  5
241
330
1F
100
AcDbEntity
  8
FRAME
  6
Continuous
 62
     1
370
    25
100
AcDbLine
 10
1889.747500075001
 20
6510.078150781507
 30
0.0
 11
1889.747500075001
 21
6430.078150781507
 31
0.0
  0
LINE
  5
242
330
1F
100
AcDbEntity
  8
FRAME
  6
CENTER
 62
     1
370
    25
100
AcDbLine
 10
1925.007500075001
 20
6393.523687105848
 30
0.0
 11
1925.007500075001
 21
6375.078150781508
 31
0.0
  0
LWPOLYLINE
  5
243
330
1F
100
AcDbEntity
  8
NoLayerName_001
  6
Continuous
 62
     3
370
    25
100
AcDbPolyline
 90
        7
 70
     0
 43
0.0
 10
1913.91442162702
 20
6486.297755032004
 10
1913.91442162702
 20
6457.808253503405
 10
1916.771599318819
 20
6452.093653979185
 10
1922.402458609913
 20
6449.404200894261
 10
1927.612541540089
 20
6449.404200894261
 10
1933.41136957868
 20
6452.345851241052
 10
1937.193229873888
 20
6457.47207186779
  0
LWPOLYLINE
  5
244
330
1F
100
AcDbEntity
  8
NoLayerName_001
  6
Continuous
 62
     3
370
    25
100
AcDbPolyline
 90
        5
 70
     0
 43
0.0
 10
1937.277458388258
 20
6486.718165181989
 10
1937.277458388258
 20
6453.438136381025
 10
1938.369865598543
 20
6451.253321960457
 10
1941.059318683467
 20
6449.740382529876
 10
1945.429313735536
 20
6449.740382529876
  0
LWPOLYLINE
  5
245
330
1F
100
AcDbEntity
  8
NoLayerName_001
  6
Continuous
 62
     3
370
    25
100
AcDbPolyline
 90
        6
 70
     0
 43
0.0
 10
2200.618340252376
 20
6482.651270711341
 10
2213.044487528149
 20
6449.404200894261
 10
2223.007500075001
 20
6476.718653612244
 10
2233.92168448268
 20
6449.572169641758
 10
2246.347709688142
 20
6482.763575397167
 10
2253.433036731
 20
6478.871973892657
  0
LWPOLYLINE
  5
246
330
1F
100
AcDbEntity
  8
NoLayerName_001
  6
Continuous
 62
     3
370
    25
100
AcDbPolyline
 90
        4
 70
     0
 43
0.0
 10
2061.356499301854
 20
6486.176661283808
 10
2075.007500075001
 20
6449.404200894261
 10
2089.888969579813
 20
6486.238184720391
 10
2097.241508532751
 20
6482.138331265859
  0
LINE
  5
247
330
1F
100
AcDbEntity
  8
FRAME
  6
CENTER
 62
     1
370
    25
100
AcDbLine
 10
2075.007500075001
 20
6545.078150781507
 30
0.0
 11
2075.007500075001
 21
6565.078150781507
 31
0.0
  0
LINE
  5
248
330
1F
100
AcDbEntity
  8
FRAME
  6
CENTER
 62
     1
370
    25
100
AcDbLine
 10
2075.007500075001
 20
6393.523687105848
 30
0.0
 11
2075.007500075001
 21
6375.078150781508
 31
0.0
  0
CIRCLE
  5
249
330
1F
100
AcDbEntity
  8
NoLayerName_001
  6
Continuous
 62
     7
370
    25
100
AcDbCircle
 10
2375.007500075001
 20
6470.078150781507
 30
0.0
 40
30.00000044707953
  0
LINE
  5
24A
330
1F
100
AcDbEntity
  8
NoLayerName_001
  6
CENTER
 62
     1
370
    25
100
AcDbLine
 10
2375.007500075001
 20
6500.078151228587
 30
0.0
 11
2375.007500075001
 21
6515.078151228587
 31
0.0
  0
LINE
  5
24B
330
1F
100
AcDbEntity
  8
NoLayerName_001
  6
CENTER
 62
     1
370
    25
100
AcDbLine
 10
2345.007499627922
 20
6470.078150781507
 30
0.0
 11
2330.007499627922
 21
6470.078150781507
 31
0.0
  0
LINE
  5
24C
330
1F
100
AcDbEntity
  8
NoLayerName_001
  6
CENTER
 62
     1
370
    25
100
AcDbLine
 10
2375.007500075001
 20
6440.078150334428
 30
0.0
 11
2375.007500075001
 21
6425.078150334428
 31
0.0
  0
LINE
  5
24D
330
1F
100
AcDbEntity
  8
NoLayerName_001
  6
CENTER
 62
     1
370
    25
100
AcDbLine
 10
2405.007500522081
 20
6470.078150781507
 30
0.0
 11
2420.007500522081
 21
6470.078150781507
 31
0.0
  0
CIRCLE
  5
24E
330
1F
100
AcDbEntity
  8
NoLayerName_001
  6
Continuous
 62
     7
370
    25
100
AcDbCircle
 10
2150.007500075001
 20
6835.078371862335
 30
0.0
 40
70.00000044707953
  0
LINE
  5
24F
330
1F
100
AcDbEntity
  8
NoLayerName_001
  6
CENTER
 62
     1
370
    25
100
AcDbLine
 10
2065.007499627921
 20
6835.078371862335
 30
0.0
 11
2080.007499627921
 21
6835.078371862335
 31
0.0
  0
LINE
  5
250
330
1F
100
AcDbEntity
  8
NoLayerName_001
  6
CENTER
 62
     1
370
    25
100
AcDbLine
 10
2220.007500522081
 20
6835.078371862335
 30
0.0
 11
2235.007500522081
 21
6835.078371862335
 31
0.0
  0
CIRCLE
  5
251
330
1F
100
AcDbEntity
  8
NoLayerName_001
  6
Continuous
 62
     7
370
    25
100
AcDbCircle
 10
2330.007500075001
 20
6835.078371862335
 30
0.0
 40
70.00000044707953
  0
LINE
  5
252
330
1F
100
AcDbEntity
  8
NoLayerName_001
  6
CENTER
 62
     1
370
    25
100
AcDbLine
 10
2245.007499627921
 20
6835.078371862335
 30
0.0
 11
2260.007499627921
 21
6835.078371862335
 31
0.0
  0
LINE
  5
253
330
1F
100
AcDbEntity
  8
NoLayerName_001
  6
CENTER
 62
     1
370
    25
100
AcDbLine
 10
2400.007500522081
 20
6835.078371862335
 30
0.0
 11
2415.007500522081
 21
6835.078371862335
 31
0.0
  0
CIRCLE
  5
254
330
1F
100
AcDbEntity
  8
NoLayerName_001
  6
Continuous
 62
     7
370
    25
100
AcDbCircle
 10
1970.007500075001
 20
6835.078371862335
 30
0.0
 40
70.00000044707953
  0
LINE
  5
255
330
1F
100
AcDbEntity
  8
NoLayerName_001
  6
CENTER
 62
     1
370
    25
100
AcDbLine
 10
1885.007499627921
 20
6835.078371862335
 30
0.0
 11
1900.007499627921
 21
6835.078371862335
 31
0.0
  0
LINE
  5
256
330
1F
100
AcDbEntity
  8
NoLayerName_001
  6
CENTER
 62
     1
370
    25
100
AcDbLine
 10
2040.007500522081
 20
6835.078371862335
 30
0.0
 11
2055.007500522081
 21
6835.078371862335
 31
0.0
  0
LINE
  5
257
330
1F
100
AcDbEntity
  8
NoLayerName_001
  6
CENTER
 62
     1
370
    25
100
AcDbLine
 10
1970.007500075001
 20
6750.078371415256
 30
0.0
 11
1970.007500075001
 21
6765.078371415256
 31
0.0
  0
LINE
  5
258
330
1F
100
AcDbEntity
  8
NoLayerName_001
  6
CENTER
 62
     1
370
    25
100
AcDbLine
 10
1970.007500075001
 20
6905.078372309415
 30
0.0
 11
1970.007500075001
 21
6920.078372309415
 31
0.0
  0
LINE
  5
259
330
1F
100
AcDbEntity
  8
NoLayerName_001
  6
CENTER
 62
     1
370
    25
100
AcDbLine
 10
2330.007500075001
 20
6750.078371415256
 30
0.0
 11
2330.007500075001
 21
6765.078371415256
 31
0.0
  0
LINE
  5
25A
330
1F
100
AcDbEntity
  8
NoLayerName_001
  6
CENTER
 62
     1
370
    25
100
AcDbLine
 10
2330.007500075001
 20
6905.078372309415
 30
0.0
 11
2330.007500075001
 21
6920.078372309415
 31
0.0
  0
LINE
  5
25B
330
1F
100
AcDbEntity
  8
NoLayerName_001
  6
CENTER
 62
     7
370
    25
100
AcDbLine
 10
4920.060000600006
 20
4909.500525203379
 30
0.0
 11
4920.060000600006
 21
4619.500525203379
 31
0.0
  0
LINE
  5
25C
330
1F
100
AcDbEntity
  8
NoLayerName_002
  6
CENTER
 62
     1
370
    25
100
AcDbLine
 10
4555.060000600006
 20
4909.500525203379
 30
0.0
 11
4555.060000600006
 21
4617.500525203381
 31
0.0
  0
LINE
  5
25D
330
1F
100
AcDbEntity
  8
NoLayerName_001
  6
CENTER
 62
     7
370
    25
100
AcDbLine
 10
4700.060000600006
 20
4909.500525203379
 30
0.0
 11
4700.060000600006
 21
3197.50052520338
 31
0.0
  0
LINE
  5
25E
330
1F
100
AcDbEntity
  8
NoLayerName_001
  6
CENTER
 62
     7
370
    25
100
AcDbLine
 10
2150.007500075001
 20
4796.500525203381
 30
0.0
 11
2150.007500075001
 21
3197.50052520338
 31
0.0
  0
LINE
  5
25F
330
1F
100
AcDbEntity
  8
NoLayerName_001
  6
CENTER
 62
     7
370
    25
100
AcDbLine
 10
1187.507500075001
 20
6615.078150781507
 30
0.0
 11
3112.507500075001
 21
6615.078150781507
 31
0.0
  0
LINE
  5
260
330
1F
100
AcDbEntity
  8
NoLayerName_001
  6
Continuous
 62
     7
370
    50
100
AcDbLine
 10
1532.507500075003
 20
6265.078150781507
 30
0.0
 11
1532.507500075003
 21
6215.078150781507
 31
0.0
  0
LINE
  5
261
330
1F
100
AcDbEntity
  8
NoLayerName_001
  6
DOTSX
 62
     7
370
    25
100
AcDbLine
 10
1622.507500075003
 20
6219.578150781507
 30
0.0
 11
1532.507500075003
 21
6219.578150781507
 31
0.0
  0
LINE
  5
262
330
1F
100
AcDbEntity
  8
NoLayerName_001
  6
Continuous
 62
     7
370
    50
100
AcDbLine
 10
1622.507500075003
 20
6215.078150781507
 30
0.0
 11
1532.507500075003
 21
6215.078150781507
 31
0.0
  0
LINE
  5
263
330
1F
100
AcDbEntity
  8
NoLayerName_001
  6
Continuous
 62
     7
370
    50
100
AcDbLine
 10
1622.507500075003
 20
6265.078150781507
 30
0.0
 11
1622.507500075003
 21
6215.078150781507
 31
0.0
  0
LINE
  5
264
330
1F
100
AcDbEntity
  8
NoLayerName_001
  6
Continuous
 62
     7
370
    50
100
AcDbLine
 10
1622.507500075003
 20
6265.078150781507
 30
0.0
 11
1532.507500075003
 21
6265.078150781507
 31
0.0
  0
LINE
  5
265
330
1F
100
AcDbEntity
  8
NoLayerName_001
  6
Continuous
 62
     7
370
    50
100
AcDbLine
 10
1532.507500075003
 20
6225.078150781507
 30
0.0
 11
1217.507500075001
 21
6225.078150781507
 31
0.0
  0
LINE
  5
266
330
1F
100
AcDbEntity
  8
NoLayerName_001
  6
Continuous
 62
     7
370
    50
100
AcDbLine
 10
1622.507500075003
 20
6225.078150781507
 30
0.0
 11
3082.507500075001
 21
6225.078150781507
 31
0.0
  0
LINE
  5
267
330
1F
100
AcDbEntity
  8
NoLayerName_001
  6
Continuous
 62
     7
370
    50
100
AcDbLine
 10
3018.507500075001
 20
3403.500525203381
 30
0.0
 11
3048.507500075001
 21
3423.500525203381
 31
0.0
  0
LINE
  5
268
330
1F
100
AcDbEntity
  8
NoLayerName_001
  6
Continuous
 62
     7
370
    50
100
AcDbLine
 10
3018.507500075001
 20
4523.500525203381
 30
0.0
 11
3048.507500075001
 21
4503.500525203381
 31
0.0
  0
LINE
  5
269
330
1F
100
AcDbEntity
  8
NoLayerName_001
  6
Continuous
 62
     7
370
    50
100
AcDbLine
 10
1281.507500075001
 20
3403.500525203381
 30
0.0
 11
1251.507500075001
 21
3423.500525203381
 31
0.0
  0
LINE
  5
26A
330
1F
100
AcDbEntity
  8
NoLayerName_001
  6
Continuous
 62
     7
370
    50
100
AcDbLine
 10
1281.507500075001
 20
4523.500525203381
 30
0.0
 11
1251.507500075001
 21
4503.500525203381
 31
0.0
  0
LINE
  5
26B
330
1F
100
AcDbEntity
  8
NoLayerName_001
  6
Continuous
 62
     7
370
    25
100
AcDbLine
 10
1537.507500075003
 20
4630.400525203378
 30
0.0
 11
1537.507500075003
 21
4550.400525203378
 31
0.0
  0
LINE
  5
26C
330
1F
100
AcDbEntity
  8
FRAME
  6
Continuous
 62
     3
370
    25
100
AcDbLine
 10
1617.507500075003
 20
4630.400525203378
 30
0.0
 11
1537.507500075003
 21
4630.400525203378
 31
0.0
  0
LINE
  5
26D
330
1F
100
AcDbEntity
  8
FRAME
  6
Continuous
 62
     3
370
    25
100
AcDbLine
 10
1617.507500075003
 20
4550.400525203378
 30
0.0
 11
1537.507500075003
 21
4550.400525203378
 31
0.0
  0
LINE
  5
26E
330
1F
100
AcDbEntity
  8
FRAME
  6
Continuous
 62
     3
370
    50
100
AcDbLine
 10
1622.507500075003
 20
4548.400525203378
 30
0.0
 11
1532.507500075003
 21
4548.400525203378
 31
0.0
  0
LINE
  5
26F
330
1F
100
AcDbEntity
  8
FRAME
  6
Continuous
 62
     3
370
    50
100
AcDbLine
 10
1622.507500075003
 20
4643.400525203378
 30
0.0
 11
1532.507500075003
 21
4643.400525203378
 31
0.0
  0
LINE
  5
270
330
1F
100
AcDbEntity
  8
FRAME
  6
DOTSX
 62
     3
370
    25
100
AcDbLine
 10
1622.507500075003
 20
4638.900525203378
 30
0.0
 11
1532.507500075003
 21
4638.900525203378
 31
0.0
  0
LINE
  5
271
330
1F
100
AcDbEntity
  8
NoLayerName_001
  6
Continuous
 62
     7
370
    50
100
AcDbLine
 10
1532.507500075003
 20
4597.500525203379
 30
0.0
 11
1217.507500075001
 21
4597.500525203379
 31
0.0
  0
LINE
  5
272
330
1F
100
AcDbEntity
  8
NoLayerName_001
  6
Continuous
 62
     7
370
    25
100
AcDbLine
 10
1617.507500075003
 20
4630.400525203378
 30
0.0
 11
1617.507500075003
 21
4550.400525203378
 31
0.0
  0
LINE
  5
273
330
1F
100
AcDbEntity
  8
NoLayerName_001
  6
Continuous
 62
     7
370
    50
100
AcDbLine
 10
1532.507500075003
 20
4619.500525203379
 30
0.0
 11
1217.507500075001
 21
4619.500525203379
 31
0.0
  0
LINE
  5
274
330
1F
100
AcDbEntity
  8
NoLayerName_001
  6
Continuous
 62
     7
370
    50
100
AcDbLine
 10
1622.507500075003
 20
4619.500525203379
 30
0.0
 11
3082.507500075001
 21
4619.500525203379
 31
0.0
  0
LINE
  5
275
330
1F
100
AcDbEntity
  8
NoLayerName_001
  6
Continuous
 62
     7
370
    50
100
AcDbLine
 10
1622.507500075003
 20
4597.500525203379
 30
0.0
 11
3082.507500075001
 21
4597.500525203379
 31
0.0
  0
LINE
  5
276
330
1F
100
AcDbEntity
  8
NoLayerName_001
  6
Continuous
 62
     7
370
    50
100
AcDbLine
 10
5026.060000600004
 20
4523.500525203381
 30
0.0
 11
5071.060000600004
 21
4503.500525203381
 31
0.0
  0
LINE
  5
277
330
1F
100
AcDbEntity
  8
NoLayerName_001
  6
Continuous
 62
     7
370
    50
100
AcDbLine
 10
4374.060000600008
 20
4523.500525203381
 30
0.0
 11
4329.060000600008
 21
4503.500525203381
 31
0.0
  0
LINE
  5
278
330
1F
100
AcDbEntity
  8
NoLayerName_001
  6
Continuous
 62
     7
370
    50
100
AcDbLine
 10
4374.060000600008
 20
3403.500525203381
 30
0.0
 11
4329.060000600008
 21
3423.500525203381
 31
0.0
  0
LINE
  5
279
330
1F
100
AcDbEntity
  8
NoLayerName_001
  6
Continuous
 62
     7
370
    50
100
AcDbLine
 10
5026.060000600004
 20
3403.500525203381
 30
0.0
 11
5071.060000600004
 21
3423.500525203381
 31
0.0
  0
CIRCLE
  5
27A
330
1F
100
AcDbEntity
  8
NoLayerName_001
  6
Continuous
 62
     7
370
    50
100
AcDbCircle
 10
5106.060000600006
 20
4547.500525203379
 30
0.0
 40
15.0
  0
CIRCLE
  5
27B
330
1F
100
AcDbEntity
  8
NoLayerName_001
  6
Continuous
 62
     7
370
    50
100
AcDbCircle
 10
4294.060000600006
 20
4547.500525203379
 30
0.0
 40
15.0
  0
LINE
  5
27C
330
1F
100
AcDbEntity
  8
NoLayerName_001
  6
Continuous
 62
     7
370
    50
100
AcDbLine
 10
5026.060000600004
 20
4523.500525203379
 30
0.0
 11
5071.060000600004
 21
4503.500525203379
 31
0.0
  0
LINE
  5
27D
330
1F
100
AcDbEntity
  8
NoLayerName_001
  6
Continuous
 62
     7
370
    50
100
AcDbLine
 10
4374.060000600008
 20
4523.500525203379
 30
0.0
 11
4329.060000600008
 21
4503.500525203379
 31
0.0
  0
CIRCLE
  5
27E
330
1F
100
AcDbEntity
  8
NoLayerName_001
  6
DOTSX
 62
     7
370
    25
100
AcDbCircle
 10
2947.507499106425
 20
4684.500525203379
 30
0.0
 40
19.0
  0
LINE
  5
27F
330
1F
100
AcDbEntity
  8
NoLayerName_001
  6
Continuous
 62
     7
370
    50
100
AcDbLine
 10
1622.507500075003
 20
4548.400525203378
 30
0.0
 11
1622.507500075003
 21
4643.400525203378
 31
0.0
  0
LINE
  5
280
330
1F
100
AcDbEntity
  8
NoLayerName_001
  6
Continuous
 62
     7
370
    50
100
AcDbLine
 10
1532.507500075003
 20
4548.400525203378
 30
0.0
 11
1532.507500075003
 21
4643.400525203378
 31
0.0
  0
LINE
  5
281
330
1F
100
AcDbEntity
  8
NoLayerName_001
  6
PHANTOM
 62
     7
370
    25
100
AcDbLine
 10
2880.007500075001
 20
7074.278150781506
 30
0.0
 11
1420.007500075001
 21
7074.278150781506
 31
0.0
  0
LINE
  5
282
330
1F
100
AcDbEntity
  8
NoLayerName_001
  6
PHANTOM
 62
     7
370
    25
100
AcDbLine
 10
1420.007500075001
 20
7074.278150781506
 30
0.0
 11
1420.007500075001
 21
7005.078150781505
 31
0.0
  0
LINE
  5
283
330
1F
100
AcDbEntity
  8
NoLayerName_001
  6
PHANTOM
 62
     7
370
    25
100
AcDbLine
 10
2176.307500075
 20
7074.278150781506
 30
0.0
 11
2176.307500075
 21
7005.078150781506
 31
0.0
  0
LINE
  5
284
330
1F
100
AcDbEntity
  8
NoLayerName_001
  6
PHANTOM
 62
     7
370
    25
100
AcDbLine
 10
2123.707500075002
 20
7074.278150781506
 30
0.0
 11
2123.707500075002
 21
7005.078150781506
 31
0.0
  0
LINE
  5
285
330
1F
100
AcDbEntity
  8
NoLayerName_001
  6
CENTER
 62
     7
370
    25
100
AcDbLine
 10
2150.007500075001
 20
7104.278150781506
 30
0.0
 11
2150.007500075001
 21
6905.078372309415
 31
0.0
  0
LINE
  5
286
330
1F
100
AcDbEntity
  8
NoLayerName_001
  6
Continuous
 62
     7
370
    25
100
AcDbLine
 10
2880.007500075001
 20
7074.278150781506
 30
0.0
 11
2880.007500075001
 21
7068.278150781509
 31
0.0
  0
LINE
  5
287
330
1F
100
AcDbEntity
  8
NoLayerName_001
  6
PHANTOM
 62
     7
370
    25
100
AcDbLine
 10
2880.007500075001
 20
7074.278150781506
 30
0.0
 11
2880.007500075001
 21
7005.078150781505
 31
0.0
  0
LINE
  5
288
330
1F
100
AcDbEntity
  8
NoLayerName_001
  6
PHANTOM
 62
     7
370
    25
100
AcDbLine
 10
1420.007500075001
 20
6155.878150781508
 30
0.0
 11
1420.007500075001
 21
6225.078150781509
 31
0.0
  0
LINE
  5
289
330
1F
100
AcDbEntity
  8
NoLayerName_001
  6
Continuous
 62
     7
370
    25
100
AcDbLine
 10
2880.007500075001
 20
6155.878150781508
 30
0.0
 11
2880.007500075001
 21
6163.878150781506
 31
0.0
  0
LINE
  5
28A
330
1F
100
AcDbEntity
  8
NoLayerName_001
  6
PHANTOM
 62
     7
370
    25
100
AcDbLine
 10
2880.007500075001
 20
6155.878150781508
 30
0.0
 11
2880.007500075001
 21
6225.078150781509
 31
0.0
  0
LINE
  5
28B
330
1F
100
AcDbEntity
  8
NoLayerName_001
  6
PHANTOM
 62
     7
370
    25
100
AcDbLine
 10
2176.307500075
 20
6155.878150781508
 30
0.0
 11
2176.307500075
 21
6225.078150781508
 31
0.0
  0
LINE
  5
28C
330
1F
100
AcDbEntity
  8
NoLayerName_001
  6
PHANTOM
 62
     7
370
    25
100
AcDbLine
 10
2123.707500075002
 20
6155.878150781508
 30
0.0
 11
2123.707500075002
 21
6225.078150781508
 31
0.0
  0
LINE
  5
28D
330
1F
100
AcDbEntity
  8
NoLayerName_001
  6
CENTER
 62
     7
370
    25
100
AcDbLine
 10
2150.007500075001
 20
6765.078371415256
 30
0.0
 11
2150.007500075001
 21
6125.878150781508
 31
0.0
  0
LINE
  5
28E
330
1F
100
AcDbEntity
  8
NoLayerName_001
  6
PHANTOM
 62
     7
370
    25
100
AcDbLine
 10
2880.007500075001
 20
6155.878150781508
 30
0.0
 11
1420.007500075001
 21
6155.878150781508
 31
0.0
  0
LINE
  5
28F
330
1F
100
AcDbEntity
  8
NoLayerName_001
  6
Continuous
 62
     7
370
    50
100
AcDbLine
 10
2882.507464349468
 20
4749.500365835469
 30
0.0
 11
2882.507464349468
 21
4619.500525203379
 31
0.0
  0
CIRCLE
  5
290
330
1F
100
AcDbEntity
  8
NoLayerName_001
  6
Continuous
 62
     7
370
    25
100
AcDbCircle
 10
1417.507500075001
 20
6375.078150781507
 30
0.0
 40
42.0
  0
CIRCLE
  5
291
330
1F
100
AcDbEntity
  8
NoLayerName_001
  6
Continuous
 62
     7
370
    25
100
AcDbCircle
 10
1417.507500075001
 20
6375.078150781507
 30
0.0
 40
23.0
  0
CIRCLE
  5
292
330
1F
100
AcDbEntity
  8
NoLayerName_001
  6
Continuous
 62
     7
370
    25
100
AcDbCircle
 10
1417.507500075001
 20
6375.078150781507
 30
0.0
 40
9.0
  0
LINE
  5
293
330
1F
100
AcDbEntity
  8
NoLayerName_001
  6
Continuous
 62
     7
370
    50
100
AcDbLine
 10
1417.507421359623
 20
4749.500365835469
 30
0.0
 11
1417.507421359623
 21
4711.500525203379
 31
0.0
  0
LINE
  5
294
330
1F
100
AcDbEntity
  8
NoLayerName_001
  6
PHANTOM
 62
     7
370
    25
100
AcDbLine
 10
4857.560000600006
 20
4790.000525203379
 30
0.0
 11
4857.560000600006
 21
4685.500525203378
 31
0.0
  0
LINE
  5
295
330
1F
100
AcDbEntity
  8
NoLayerName_001
  6
Continuous
 62
     7
370
    25
100
AcDbLine
 10
4895.060000600008
 20
4625.500525203379
 30
0.0
 11
4895.060000600008
 21
4619.500525203379
 31
0.0
  0
LINE
  5
296
330
1F
100
AcDbEntity
  8
NoLayerName_001
  6
Continuous
 62
     7
370
    25
100
AcDbLine
 10
4795.060000600008
 20
4625.500525203379
 30
0.0
 11
4795.060000600008
 21
4619.500525203379
 31
0.0
  0
LINE
  5
297
330
1F
100
AcDbEntity
  8
NoLayerName_001
  6
Continuous
 62
     7
370
    25
100
AcDbLine
 10
4240.860000600006
 20
4503.500525203381
 30
0.0
 11
4240.860000600006
 21
3423.500525203379
 31
0.0
  0
LINE
  5
298
330
1F
100
AcDbEntity
  8
NoLayerName_001
  6
Continuous
 62
     7
370
    25
100
AcDbLine
 10
5159.260000600006
 20
4503.500525203381
 30
0.0
 11
5159.260000600006
 21
3423.500525203379
 31
0.0
  0
LINE
  5
299
330
1F
100
AcDbEntity
  8
NoLayerName_001
  6
PHANTOM
 62
     7
370
    25
100
AcDbLine
 10
4240.860000600006
 20
4503.500525203379
 30
0.0
 11
5159.260000600006
 21
4503.500525203382
 31
0.0
  0
LINE
  5
29A
330
1F
100
AcDbEntity
  8
NoLayerName_001
  6
PHANTOM
 62
     7
370
    25
100
AcDbLine
 10
4240.860000600006
 20
3423.500525203379
 30
0.0
 11
5159.260000600006
 21
3423.500525203379
 31
0.0
  0
LINE
  5
29B
330
1F
100
AcDbEntity
  8
NoLayerName_001
  6
Continuous
 62
     7
370
    25
100
AcDbLine
 10
2154.507500075003
 20
6209.07815078151
 30
0.0
 11
2154.507500075003
 21
6225.078150781511
 31
0.0
  0
LINE
  5
29C
330
1F
100
AcDbEntity
  8
NoLayerName_001
  6
Continuous
 62
     7
370
    25
100
AcDbLine
 10
2145.507500075003
 20
6225.07815078151
 30
0.0
 11
2145.507500075003
 21
6209.078150781509
 31
0.0
  0
LINE
  5
29D
330
1F
100
AcDbEntity
  8
NoLayerName_001
  6
Continuous
 62
     7
370
    25
100
AcDbLine
 10
2154.507500075003
 20
6209.07815078151
 30
0.0
 11
2145.507500075003
 21
6209.07815078151
 31
0.0
  0
LINE
  5
29E
330
1F
100
AcDbEntity
  8
NoLayerName_001
  6
Continuous
 62
     7
370
    25
100
AcDbLine
 10
2154.507500075002
 20
7021.078150781505
 30
0.0
 11
2154.507500075002
 21
7005.078150781504
 31
0.0
  0
LINE
  5
29F
330
1F
100
AcDbEntity
  8
NoLayerName_001
  6
Continuous
 62
     7
370
    25
100
AcDbLine
 10
2145.507500075001
 20
7005.078150781505
 30
0.0
 11
2145.507500075001
 21
7021.078150781505
 31
0.0
  0
LINE
  5
2A0
330
1F
100
AcDbEntity
  8
NoLayerName_001
  6
Continuous
 62
     7
370
    25
100
AcDbLine
 10
2154.507500075002
 20
7021.078150781505
 30
0.0
 11
2145.507500075002
 21
7021.078150781505
 31
0.0
  0
DIMENSION
  5
2A1
102
{ACAD_XDICTIONARY
360
2A2
102
}
330
1F
100
AcDbEntity
  8
NoLayerName_001
  6
Continuous
 62
     7
370
    25
100
AcDbDimension
  2
*D5
 10
2533.217977183643
 20
4619.500525203379
 30
0.0
 11
2533.217977183643
 21
5000.860058803445
 31
0.0
 70
   160
  1
\T0.7500;<>
 71
     5
 42
135.9999368935842
  3
Standard
100
AcDbAlignedDimension
 13
2375.007500075003
 23
4755.500462096963
 33
0.0
 14
3215.007500075001
 24
4619.500525203379
 34
0.0
 50
-90.0
100
AcDbRotatedDimension
1001
ACAD
1000
DSTYLE
1002
{
1070
   347
1005
16
1070
   372
1070
    25
1070
   346
1005
16
1070
   371
1070
    25
1070
   345
1005
16
1070
   178
1070
     0
1070
   177
1070
     0
1070
   176
1070
     0
1070
    47
1040
0.0
1070
    48
1040
0.0
1070
    78
1070
     8
1070
   271
1070
     1
1070
    41
1040
60.00060000600006
1070
   342
1005
2A3
1070
    76
1070
     1
1070
    42
1040
15.00015000150006
1070
    44
1040
30.00030000300012
1070
   147
1040
37.50037500375004
1070
   140
1040
90.00090026855469
1002
}
1001
ACAD_DSTYLE_DIM_LINETYPE
1070
   380
1005
16
1001
ACAD_DSTYLE_DIM_EXT1_LINETYPE
1070
   381
1005
16
1001
ACAD_DSTYLE_DIM_EXT2_LINETYPE
1070
   382
1005
16
  0
MTEXT
  5
2B7
330
1F
100
AcDbEntity
  8
NoLayerName_001
 62
     3
370
    25
100
AcDbMText
 10
2375.007500075001
 20
6445.362923245028
 30
0.0
 40
60.0
 41
0.0
 71
     8
 72
     5
  1
\A1;\W0.8333;ｏ
 73
     1
 44
1.0
1001
ACAD
1000
ACAD_MTEXT_DEFINED_HEIGHT_BEGIN
1070
    46
1040
60.0
1000
ACAD_MTEXT_DEFINED_HEIGHT_END
  0
MTEXT
  5
2B8
330
1F
100
AcDbEntity
  8
NoLayerName_001
 62
     7
370
    25
100
AcDbMText
 10
1970.007500075001
 20
6835.078371345971
 30
0.0
 40
96.00096130371094
 41
0.0
 71
     5
 72
     5
  1
\A1;\W0.6667;Ｕ
 73
     1
 44
1.0
  0
MTEXT
  5
2B9
330
1F
100
AcDbEntity
  8
NoLayerName_001
 62
     7
370
    25
100
AcDbMText
 10
2150.007500075001
 20
6835.078371345971
 30
0.0
 40
96.00096130371094
 41
0.0
 71
     5
 72
     5
  1
\A1;\W0.6667;Ｖ
 73
     1
 44
1.0
  0
MTEXT
  5
2BA
330
1F
100
AcDbEntity
  8
NoLayerName_001
 62
     7
370
    25
100
AcDbMText
 10
2330.007500075001
 20
6835.078371345971
 30
0.0
 40
96.00096130371094
 41
0.0
 71
     5
 72
     5
  1
\A1;\W0.6667;Ｗ
 73
     1
 44
1.0
  0
DIMENSION
  5
2BB
102
{ACAD_XDICTIONARY
360
2BC
102
}
330
1F
100
AcDbEntity
  8
NoLayerName_001
  6
Continuous
 62
     7
370
    25
100
AcDbDimension
  2
*D6
 10
2225.007500075001
 20
5963.878150781508
 30
0.0
 11
2300.007500075001
 21
5963.878150781508
 31
0.0
 70
   160
  1
\W0.6667;\T0.7500;<>
 71
     5
 42
150.0
  3
Standard
100
AcDbAlignedDimension
 13
2375.007500075001
 23
6425.078150334428
 33
0.0
 14
2225.007500075001
 24
6375.078150781507
 34
0.0
 50
180.0
100
AcDbRotatedDimension
1001
ACAD
1000
DSTYLE
1002
{
1070
   347
1005
16
1070
   372
1070
    25
1070
   346
1005
16
1070
   371
1070
    25
1070
   345
1005
16
1070
   178
1070
     0
1070
   177
1070
     0
1070
   176
1070
     0
1070
    47
1040
0.0
1070
    48
1040
0.0
1070
    78
1070
     8
1070
   271
1070
     1
1070
    41
1040
45.00045000450005
1070
   342
1005
2A3
1070
    42
1040
15.00015000149961
1070
    44
1040
30.00030000300012
1070
   147
1040
37.50037500375004
1070
   140
1040
96.00096130371094
1002
}
1001
ACAD_DSTYLE_DIM_LINETYPE
1070
   380
1005
16
1001
ACAD_DSTYLE_DIM_EXT1_LINETYPE
1070
   381
1005
16
1001
ACAD_DSTYLE_DIM_EXT2_LINETYPE
1070
   382
1005
16
  0
DIMENSION
  5
2CB
102
{ACAD_XDICTIONARY
360
2CC
102
}
330
1F
100
AcDbEntity
  8
NoLayerName_001
  6
Continuous
 62
     7
370
    25
100
AcDbDimension
  2
*D7
 10
2075.007500075001
 20
5963.878150781509
 30
0.0
 11
2150.007500074998
 21
5963.878150781509
 31
0.0
 70
   160
  1
\W0.6667;\T0.7500;<>
 71
     5
 42
150.0
  3
Standard
100
AcDbAlignedDimension
 13
2225.007500075001
 23
6375.078150781507
 33
0.0
 14
2075.007500075001
 24
6375.078150781508
 34
0.0
 50
180.0
100
AcDbRotatedDimension
1001
ACAD
1000
DSTYLE
1002
{
1070
   347
1005
16
1070
   372
1070
    25
1070
   346
1005
16
1070
   371
1070
    25
1070
   345
1005
16
1070
   178
1070
     0
1070
   177
1070
     0
1070
   176
1070
     0
1070
    47
1040
0.0
1070
    48
1040
0.0
1070
    78
1070
     8
1070
   271
1070
     1
1070
    41
1040
45.00045000450005
1070
   342
1005
2A3
1070
    42
1040
15.00015000149961
1070
    44
1040
30.00030000300012
1070
   147
1040
37.50037500375004
1070
   140
1040
96.00096130371094
1002
}
1001
ACAD_DSTYLE_DIM_LINETYPE
1070
   380
1005
16
1001
ACAD_DSTYLE_DIM_EXT1_LINETYPE
1070
   381
1005
16
1001
ACAD_DSTYLE_DIM_EXT2_LINETYPE
1070
   382
1005
16
  0
DIMENSION
  5
2DB
102
{ACAD_XDICTIONARY
360
2DC
102
}
330
1F
100
AcDbEntity
  8
NoLayerName_001
  6
Continuous
 62
     7
370
    25
100
AcDbDimension
  2
*D8
 10
1925.007500075001
 20
5963.878150781508
 30
0.0
 11
2000.007500075001
 21
5963.878150781508
 31
0.0
 70
   160
  1
\W0.6667;\T0.7500;<>
 71
     5
 42
150.0
  3
Standard
100
AcDbAlignedDimension
 13
2075.007500075001
 23
6375.078150781508
 33
0.0
 14
1925.007500075001
 24
6375.078150781508
 34
0.0
 50
180.0
100
AcDbRotatedDimension
1001
ACAD
1000
DSTYLE
1002
{
1070
   347
1005
16
1070
   372
1070
    25
1070
   346
1005
16
1070
   371
1070
    25
1070
   345
1005
16
1070
   178
1070
     0
1070
   177
1070
     0
1070
   176
1070
     0
1070
    47
1040
0.0
1070
    48
1040
0.0
1070
    78
1070
     8
1070
   271
1070
     1
1070
    41
1040
45.00045000450005
1070
   342
1005
2A3
1070
    42
1040
15.00015000149961
1070
    44
1040
30.00030000300012
1070
   147
1040
37.50037500375004
1070
   140
1040
96.00096130371094
1002
}
1001
ACAD_DSTYLE_DIM_LINETYPE
1070
   380
1005
16
1001
ACAD_DSTYLE_DIM_EXT1_LINETYPE
1070
   381
1005
16
1001
ACAD_DSTYLE_DIM_EXT2_LINETYPE
1070
   382
1005
16
  0
DIMENSION
  5
2EB
102
{ACAD_XDICTIONARY
360
2EC
102
}
330
1F
100
AcDbEntity
  8
NoLayerName_001
  6
Continuous
 62
     7
370
    25
100
AcDbDimension
  2
*D9
 10
1217.507500075001
 20
7366.278150781506
 30
0.0
 11
2150.007500075001
 21
7366.278150781506
 31
0.0
 70
   160
  1
\W0.8000;<>
 71
     5
 42
1865.0
  3
Standard
100
AcDbAlignedDimension
 13
3082.507500075001
 23
7005.078150781506
 33
0.0
 14
1217.507500075001
 24
7005.078150781506
 34
0.0
 50
180.0
100
AcDbRotatedDimension
1001
ACAD
1000
DSTYLE
1002
{
1070
   347
1005
16
1070
   372
1070
    25
1070
   346
1005
16
1070
   371
1070
    25
1070
   345
1005
16
1070
   178
1070
     0
1070
   177
1070
     0
1070
   176
1070
     0
1070
    47
1040
0.0
1070
    48
1040
0.0
1070
    78
1070
     8
1070
   271
1070
     1
1070
    41
1040
60.00060000600006
1070
   342
1005
2A3
1070
    42
1040
15.00015000149961
1070
    44
1040
30.00030000300012
1070
   147
1040
37.50037500375004
1070
   140
1040
96.00096130371094
1002
}
1001
ACAD_DSTYLE_DIM_LINETYPE
1070
   380
1005
16
1001
ACAD_DSTYLE_DIM_EXT1_LINETYPE
1070
   381
1005
16
1001
ACAD_DSTYLE_DIM_EXT2_LINETYPE
1070
   382
1005
16
  0
MTEXT
  5
2F9
102
{ACAD_REACTORS
330
2FA
102
}
330
1F
100
AcDbEntity
  8
NoLayerName_001
  6
Continuous
 62
     7
370
    25
100
AcDbMText
 10
5320.727447846689
 20
2994.149326330555
 30
0.0
 40
96.0
 41
0.0
 71
     7
 72
     5
  1
\A1;\W0.6667;\T0.7500;４－φ１９
 73
     1
 44
0.7875
1001
ACAD
1000
ACAD_MTEXT_DEFINED_HEIGHT_BEGIN
1070
    46
1040
96.0
1000
ACAD_MTEXT_DEFINED_HEIGHT_END
  0
LEADER
  5
2FA
330
1F
100
AcDbEntity
  8
NoLayerName_001
  6
Continuous
 62
     7
370
    25
100
AcDbLeader
  3
Standard
 73
     0
 74
     0
 75
     1
 40
96.0
 41
201.1529142857142
 76
     3
 10
5100.060000600004
 20
3227.500525203381
 30
0.0
 10
5275.102447846689
 20
2993.524326330555
 30
0.0
 10
5320.102447846689
 20
2993.524326330555
 30
0.0
340
2F9
1001
ACAD
1000
DSTYLE
1002
{
1070
   140
1040
96.0
1070
    41
1040
45.0
1070
   341
1005
2A3
1002
}
  0
DIMENSION
  5
2FB
102
{ACAD_XDICTIONARY
360
2FC
102
}
330
1F
100
AcDbEntity
  8
NoLayerName_001
  6
Continuous
 62
     7
370
    25
100
AcDbDimension
  2
*D10
 10
2750.007500075001
 20
3017.50052520338
 30
0.0
 11
2150.007500075001
 21
3017.50052520338
 31
0.0
 70
   160
  1
\W0.8000;<>
 71
     5
 42
1200.0
  3
Standard
100
AcDbAlignedDimension
 13
1550.007500075001
 23
3197.500525203381
 33
0.0
 14
2750.007500075001
 24
3197.500525203381
 34
0.0
100
AcDbRotatedDimension
1001
ACAD
1000
DSTYLE
1002
{
1070
   347
1005
16
1070
   372
1070
    25
1070
   346
1005
16
1070
   371
1070
    25
1070
   345
1005
16
1070
   178
1070
     0
1070
   177
1070
     0
1070
   176
1070
     0
1070
    47
1040
0.0
1070
    48
1040
0.0
1070
    78
1070
     8
1070
   271
1070
     1
1070
    41
1040
60.00060000600006
1070
   342
1005
2A3
1070
    42
1040
15.00015000150006
1070
    44
1040
30.00030000300012
1070
   147
1040
37.50037500375004
1070
   140
1040
96.00096130371094
1002
}
1001
ACAD_DSTYLE_DIM_LINETYPE
1070
   380
1005
16
1001
ACAD_DSTYLE_DIM_EXT1_LINETYPE
1070
   381
1005
16
1001
ACAD_DSTYLE_DIM_EXT2_LINETYPE
1070
   382
1005
16
  0
DIMENSION
  5
309
102
{ACAD_XDICTIONARY
360
30A
102
}
330
1F
100
AcDbEntity
  8
NoLayerName_001
  6
Continuous
 62
     7
370
    25
100
AcDbDimension
  2
*D11
 10
2790.007500075002
 20
2867.50052520338
 30
0.0
 11
2150.007500075002
 21
2867.50052520338
 31
0.0
 70
   160
  1
\W0.8000;<>
 71
     5
 42
1280.0
  3
Standard
100
AcDbAlignedDimension
 13
1510.007500075002
 23
3227.500525203381
 33
0.0
 14
2790.007500075002
 24
3227.500525203379
 34
0.0
100
AcDbRotatedDimension
1001
ACAD
1000
DSTYLE
1002
{
1070
   347
1005
16
1070
   372
1070
    25
1070
   346
1005
16
1070
   371
1070
    25
1070
   345
1005
16
1070
   178
1070
     0
1070
   177
1070
     0
1070
   176
1070
     0
1070
    47
1040
0.0
1070
    48
1040
0.0
1070
    78
1070
     8
1070
   271
1070
     1
1070
    41
1040
60.00060000600006
1070
   342
1005
2A3
1070
    42
1040
15.00015000150006
1070
    44
1040
30.00030000300012
1070
   147
1040
37.50037500375004
1070
   140
1040
96.00096130371094
1002
}
1001
ACAD_DSTYLE_DIM_LINETYPE
1070
   380
1005
16
1001
ACAD_DSTYLE_DIM_EXT1_LINETYPE
1070
   381
1005
16
1001
ACAD_DSTYLE_DIM_EXT2_LINETYPE
1070
   382
1005
16
  0
DIMENSION
  5
317
102
{ACAD_XDICTIONARY
360
318
102
}
330
1F
100
AcDbEntity
  8
NoLayerName_001
  6
Continuous
 62
     7
370
    25
100
AcDbDimension
  2
*D12
 10
5150.060000600005
 20
2849.973900135258
 30
0.0
 11
4700.060000600006
 21
2849.973900135258
 31
0.0
 70
   160
  1
\W0.8000;<>
 71
     5
 42
899.9999999999991
  3
Standard
100
AcDbAlignedDimension
 13
4250.060000600006
 23
3227.500525203381
 33
0.0
 14
5150.060000600005
 24
3227.500525203381
 34
0.0
100
AcDbRotatedDimension
1001
ACAD
1000
DSTYLE
1002
{
1070
   347
1005
16
1070
   372
1070
    25
1070
   346
1005
16
1070
   371
1070
    25
1070
   345
1005
16
1070
   178
1070
     0
1070
   177
1070
     0
1070
   176
1070
     0
1070
    47
1040
0.0
1070
    48
1040
0.0
1070
    78
1070
     8
1070
   271
1070
     1
1070
    41
1040
60.00060000600006
1070
   342
1005
2A3
1070
    42
1040
15.00015000150006
1070
    44
1040
30.00030000300012
1070
   147
1040
37.50037500375004
1070
   140
1040
96.00096130371094
1002
}
1001
ACAD_DSTYLE_DIM_LINETYPE
1070
   380
1005
16
1001
ACAD_DSTYLE_DIM_EXT1_LINETYPE
1070
   381
1005
16
1001
ACAD_DSTYLE_DIM_EXT2_LINETYPE
1070
   382
1005
16
  0
DIMENSION
  5
325
102
{ACAD_XDICTIONARY
360
326
102
}
330
1F
100
AcDbEntity
  8
NoLayerName_001
  6
Continuous
 62
     7
370
    25
100
AcDbDimension
  2
*D13
 10
5100.060000600005
 20
2999.973900135258
 30
0.0
 11
4700.060000600006
 21
2999.973900135258
 31
0.0
 70
   160
  1
\W0.8000;<>
 71
     5
 42
799.9999999999991
  3
Standard
100
AcDbAlignedDimension
 13
4300.060000600006
 23
3197.500525203381
 33
0.0
 14
5100.060000600005
 24
3197.500525203381
 34
0.0
100
AcDbRotatedDimension
1001
ACAD
1000
DSTYLE
1002
{
1070
   347
1005
16
1070
   372
1070
    25
1070
   346
1005
16
1070
   371
1070
    25
1070
   345
1005
16
1070
   178
1070
     0
1070
   177
1070
     0
1070
   176
1070
     0
1070
    47
1040
0.0
1070
    48
1040
0.0
1070
    78
1070
     8
1070
   271
1070
     1
1070
    41
1040
60.00060000600006
1070
   342
1005
2A3
1070
    42
1040
15.00015000150006
1070
    44
1040
30.00030000300012
1070
   147
1040
37.50037500375004
1070
   140
1040
96.00096130371094
1002
}
1001
ACAD_DSTYLE_DIM_LINETYPE
1070
   380
1005
16
1001
ACAD_DSTYLE_DIM_EXT1_LINETYPE
1070
   381
1005
16
1001
ACAD_DSTYLE_DIM_EXT2_LINETYPE
1070
   382
1005
16
  0
DIMENSION
  5
333
102
{ACAD_XDICTIONARY
360
334
102
}
330
1F
100
AcDbEntity
  8
NoLayerName_001
  6
Continuous
 62
     7
370
    25
100
AcDbDimension
  2
*D14
 10
4168.860000600006
 20
4619.500525203379
 30
0.0
 11
4168.860000600006
 21
4698.000523105213
 31
0.0
 70
   160
  1
\W0.8000;\T0.7500;<>
 71
     5
 42
157.0000000000018
  3
Standard
100
AcDbAlignedDimension
 13
4555.060000600006
 23
4776.500525203381
 33
0.0
 14
4462.560000600006
 24
4619.500525203379
 34
0.0
 50
-90.0
100
AcDbRotatedDimension
1001
ACAD
1000
DSTYLE
1002
{
1070
   347
1005
16
1070
   372
1070
    25
1070
   346
1005
16
1070
   371
1070
    25
1070
   345
1005
16
1070
   178
1070
     0
1070
   177
1070
     0
1070
   176
1070
     0
1070
    47
1040
0.0
1070
    48
1040
0.0
1070
    78
1070
     8
1070
   271
1070
     1
1070
    41
1040
60.00060000600006
1070
   342
1005
2A3
1070
    42
1040
15.00015000149961
1070
    44
1040
30.00030000300012
1070
   147
1040
37.50037500375004
1070
   140
1040
96.00096130371094
1002
}
1001
ACAD_DSTYLE_DIM_LINETYPE
1070
   380
1005
16
1001
ACAD_DSTYLE_DIM_EXT1_LINETYPE
1070
   381
1005
16
1001
ACAD_DSTYLE_DIM_EXT2_LINETYPE
1070
   382
1005
16
  0
DIMENSION
  5
343
102
{ACAD_XDICTIONARY
360
344
102
}
330
1F
100
AcDbEntity
  8
NoLayerName_001
  6
Continuous
 62
     7
370
    25
100
AcDbDimension
  2
*D15
 10
5291.260000600006
 20
4619.500525203379
 30
0.0
 11
5291.260000600006
 21
4749.500523105211
 31
0.0
 70
   160
  1
\W0.8000;\T0.7500;<>
 71
     5
 42
260.0
  3
Standard
100
AcDbAlignedDimension
 13
4945.060000600006
 23
4879.500525203379
 33
0.0
 14
5087.560000600006
 24
4619.500525203379
 34
0.0
 50
-90.0
100
AcDbRotatedDimension
1001
ACAD
1000
DSTYLE
1002
{
1070
   347
1005
16
1070
   372
1070
    25
1070
   346
1005
16
1070
   371
1070
    25
1070
   345
1005
16
1070
   178
1070
     0
1070
   177
1070
     0
1070
   176
1070
     0
1070
    47
1040
0.0
1070
    48
1040
0.0
1070
    78
1070
     8
1070
   271
1070
     1
1070
    41
1040
60.00060000600006
1070
   342
1005
2A3
1070
    42
1040
15.00015000149961
1070
    44
1040
30.00030000300012
1070
   147
1040
37.50037500375004
1070
   140
1040
96.00096130371094
1002
}
1001
ACAD_DSTYLE_DIM_LINETYPE
1070
   380
1005
16
1001
ACAD_DSTYLE_DIM_EXT1_LINETYPE
1070
   381
1005
16
1001
ACAD_DSTYLE_DIM_EXT2_LINETYPE
1070
   382
1005
16
  0
DIMENSION
  5
351
102
{ACAD_XDICTIONARY
360
352
102
}
330
1F
100
AcDbEntity
  8
NoLayerName_001
  6
Continuous
 62
     7
370
    25
100
AcDbDimension
  2
*D16
 10
5471.260000600006
 20
4879.500525203379
 30
0.0
 11
5471.260000600006
 21
4053.500523105212
 31
0.0
 70
   160
  1
\W0.8000;<>
 71
     5
 42
1651.999999999998
  3
Standard
100
AcDbAlignedDimension
 13
5150.060000600005
 23
3227.500525203381
 33
0.0
 14
4920.060000600006
 24
4879.500525203379
 34
0.0
 50
90.0
100
AcDbRotatedDimension
1001
ACAD
1000
DSTYLE
1002
{
1070
   347
1005
16
1070
   372
1070
    25
1070
   346
1005
16
1070
   371
1070
    25
1070
   345
1005
16
1070
   178
1070
     0
1070
   177
1070
     0
1070
   176
1070
     0
1070
    47
1040
0.0
1070
    48
1040
0.0
1070
    78
1070
     8
1070
   271
1070
     1
1070
    41
1040
60.00060000600006
1070
   342
1005
2A3
1070
    42
1040
15.00015000149961
1070
    44
1040
30.00030000300012
1070
   147
1040
37.50037500375004
1070
   140
1040
96.00096130371094
1002
}
1001
ACAD_DSTYLE_DIM_LINETYPE
1070
   380
1005
16
1001
ACAD_DSTYLE_DIM_EXT1_LINETYPE
1070
   381
1005
16
1001
ACAD_DSTYLE_DIM_EXT2_LINETYPE
1070
   382
1005
16
  0
DIMENSION
  5
35F
102
{ACAD_XDICTIONARY
360
360
102
}
330
1F
100
AcDbEntity
  8
NoLayerName_001
  6
Continuous
 62
     7
370
    25
100
AcDbDimension
  2
*D17
 10
4700.060000600006
 20
4965.586757939624
 30
0.0
 11
4810.060000600006
 21
4965.586757939624
 31
0.0
 70
   160
  1
\W0.8000;\T0.7500;<>
 71
     5
 42
220.0
  3
Standard
100
AcDbAlignedDimension
 13
4920.060000600006
 23
4909.500525203379
 33
0.0
 14
4700.060000600006
 24
4909.500525203379
 34
0.0
 50
180.0
100
AcDbRotatedDimension
1001
ACAD
1000
DSTYLE
1002
{
1070
   347
1005
16
1070
   372
1070
    25
1070
   346
1005
16
1070
   371
1070
    25
1070
   345
1005
16
1070
   178
1070
     0
1070
   177
1070
     0
1070
   176
1070
     0
1070
    47
1040
0.0
1070
    48
1040
0.0
1070
    78
1070
     8
1070
   271
1070
     1
1070
    41
1040
60.00060000600006
1070
   342
1005
2A3
1070
    42
1040
15.00015000150051
1070
    44
1040
30.00030000300012
1070
   147
1040
37.50037500375004
1070
   140
1040
96.00096130371094
1002
}
1001
ACAD_DSTYLE_DIM_LINETYPE
1070
   380
1005
16
1001
ACAD_DSTYLE_DIM_EXT1_LINETYPE
1070
   381
1005
16
1001
ACAD_DSTYLE_DIM_EXT2_LINETYPE
1070
   382
1005
16
  0
DIMENSION
  5
36D
102
{ACAD_XDICTIONARY
360
36E
102
}
330
1F
100
AcDbEntity
  8
NoLayerName_001
  6
Continuous
 62
     7
370
    25
100
AcDbDimension
  2
*D18
 10
4700.060000600006
 20
4965.586757939624
 30
0.0
 11
4335.078485656909
 21
4965.586757939624
 31
0.0
 70
   160
  1
\W0.6667;\T0.7500;<>
 71
     5
 42
145.0
  3
Standard
100
AcDbAlignedDimension
 13
4555.060000600006
 23
4912.500525203379
 33
0.0
 14
4700.060000600006
 24
4909.500525203379
 34
0.0
100
AcDbRotatedDimension
1001
ACAD
1000
DSTYLE
1002
{
1070
   347
1005
16
1070
   372
1070
    25
1070
   346
1005
16
1070
   371
1070
    25
1070
   345
1005
16
1070
   178
1070
     0
1070
   177
1070
     0
1070
   176
1070
     0
1070
    47
1040
0.0
1070
    48
1040
0.0
1070
    78
1070
     8
1070
   271
1070
     1
1070
    41
1040
60.00060000600006
1070
   342
1005
2A3
1070
    42
1040
15.00015000150051
1070
    44
1040
30.00030000300012
1070
   147
1040
37.50037500375004
1070
   140
1040
96.00096130371094
1002
}
1001
ACAD_DSTYLE_DIM_LINETYPE
1070
   380
1005
16
1001
ACAD_DSTYLE_DIM_EXT1_LINETYPE
1070
   381
1005
16
1001
ACAD_DSTYLE_DIM_EXT2_LINETYPE
1070
   382
1005
16
  0
DIMENSION
  5
37E
102
{ACAD_XDICTIONARY
360
37F
102
}
330
1F
100
AcDbEntity
  8
NoLayerName_001
  6
Continuous
 62
     7
370
    25
100
AcDbDimension
  2
*D19
 10
1970.007500075001
 20
7186.278150781506
 30
0.0
 11
2060.007500075001
 21
7186.278150781506
 31
0.0
 70
   160
  1
\W0.8000;\T0.7500;<>
 71
     5
 42
180.0
  3
Standard
100
AcDbAlignedDimension
 13
2150.007500075001
 23
7104.278150781506
 33
0.0
 14
1970.007500075001
 24
6920.078372309415
 34
0.0
 50
180.0
100
AcDbRotatedDimension
1001
ACAD
1000
DSTYLE
1002
{
1070
   347
1005
16
1070
   372
1070
    25
1070
   346
1005
16
1070
   371
1070
    25
1070
   345
1005
16
1070
   178
1070
     0
1070
   177
1070
     0
1070
   176
1070
     0
1070
    47
1040
0.0
1070
    48
1040
0.0
1070
    78
1070
     8
1070
   271
1070
     1
1070
    41
1040
45.00045000450005
1070
   342
1005
2A3
1070
    42
1040
15.00015000149961
1070
    44
1040
30.00030000300012
1070
   147
1040
37.50037500375004
1070
   140
1040
96.00096130371094
1002
}
1001
ACAD_DSTYLE_DIM_LINETYPE
1070
   380
1005
16
1001
ACAD_DSTYLE_DIM_EXT1_LINETYPE
1070
   381
1005
16
1001
ACAD_DSTYLE_DIM_EXT2_LINETYPE
1070
   382
1005
16
  0
DIMENSION
  5
38C
102
{ACAD_XDICTIONARY
360
38D
102
}
330
1F
100
AcDbEntity
  8
NoLayerName_001
  6
Continuous
 62
     7
370
    25
100
AcDbDimension
  2
*D20
 10
2150.007500075001
 20
7186.278150781506
 30
0.0
 11
2240.007500075001
 21
7186.278150781506
 31
0.0
 70
   160
  1
\W0.8000;\T0.7500;<>
 71
     5
 42
180.0
  3
Standard
100
AcDbAlignedDimension
 13
2330.007500075001
 23
6920.078372309415
 33
0.0
 14
2150.007500075001
 24
7104.278150781506
 34
0.0
 50
180.0
100
AcDbRotatedDimension
1001
ACAD
1000
DSTYLE
1002
{
1070
   347
1005
16
1070
   372
1070
    25
1070
   346
1005
16
1070
   371
1070
    25
1070
   345
1005
16
1070
   178
1070
     0
1070
   177
1070
     0
1070
   176
1070
     0
1070
    47
1040
0.0
1070
    48
1040
0.0
1070
    78
1070
     8
1070
   271
1070
     1
1070
    41
1040
45.00045000450005
1070
   342
1005
2A3
1070
    42
1040
15.00015000149961
1070
    44
1040
30.00030000300012
1070
   147
1040
37.50037500375004
1070
   140
1040
96.00096130371094
1002
}
1001
ACAD_DSTYLE_DIM_LINETYPE
1070
   380
1005
16
1001
ACAD_DSTYLE_DIM_EXT1_LINETYPE
1070
   381
1005
16
1001
ACAD_DSTYLE_DIM_EXT2_LINETYPE
1070
   382
1005
16
  0
DIMENSION
  5
39A
102
{ACAD_XDICTIONARY
360
39B
102
}
330
1F
100
AcDbEntity
  8
NoLayerName_001
  6
Continuous
 62
     7
370
    25
100
AcDbDimension
  2
*D21
 10
1117.507500075001
 20
6130.363146058835
 30
0.0
 11
1117.507500075001
 21
6372.720646322003
 31
0.0
 70
   160
  1
\W0.8000;４８５
 71
     5
 42
484.7150047226723
  3
Standard
100
AcDbAlignedDimension
 13
1187.507500075001
 23
6615.078150781507
 33
0.0
 14
1294.745850018063
 24
6130.363146058835
 34
0.0
 50
-90.0
100
AcDbRotatedDimension
1001
ACAD
1000
DSTYLE
1002
{
1070
   347
1005
16
1070
   372
1070
    25
1070
   346
1005
16
1070
   371
1070
    25
1070
   345
1005
16
1070
   178
1070
     0
1070
   177
1070
     0
1070
   176
1070
     0
1070
    47
1040
0.0
1070
    48
1040
0.0
1070
    78
1070
     8
1070
   271
1070
     1
1070
    41
1040
60.00060000600006
1070
   342
1005
2A3
1070
    42
1040
15.00015000150006
1070
    44
1040
30.00030000300012
1070
   147
1040
37.50037500375004
1070
   140
1040
96.00096130371094
1002
}
1001
ACAD_DSTYLE_DIM_LINETYPE
1070
   380
1005
16
1001
ACAD_DSTYLE_DIM_EXT1_LINETYPE
1070
   381
1005
16
1001
ACAD_DSTYLE_DIM_EXT2_LINETYPE
1070
   382
1005
16
  0
DIMENSION
  5
3A8
102
{ACAD_XDICTIONARY
360
3A9
102
}
330
1F
100
AcDbEntity
  8
NoLayerName_001
  6
Continuous
 62
     7
370
    25
100
AcDbDimension
  2
*D22
 10
957.0139946796504
 20
7074.278150781506
 30
0.0
 11
957.0139946796503
 21
6602.320646322003
 31
0.0
 70
   160
  1
\W0.8000;９５０
 71
     5
 42
943.9150047226713
  3
Standard
100
AcDbAlignedDimension
 13
1117.507500075001
 23
6130.363146058835
 33
0.0
 14
1420.007500075001
 24
7074.278150781506
 34
0.0
 50
90.0
100
AcDbRotatedDimension
1001
ACAD
1000
DSTYLE
1002
{
1070
   347
1005
16
1070
   372
1070
    25
1070
   346
1005
16
1070
   371
1070
    25
1070
   345
1005
16
1070
   178
1070
     0
1070
   177
1070
     0
1070
   176
1070
     0
1070
    47
1040
0.0
1070
    48
1040
0.0
1070
    78
1070
     8
1070
   271
1070
     1
1070
    41
1040
45.00045000450005
1070
   342
1005
2A3
1070
    42
1040
15.00015000150006
1070
    44
1040
30.00030000300001
1070
   147
1040
37.50037500375004
1070
   140
1040
96.00096130371094
1002
}
1001
ACAD_DSTYLE_DIM_LINETYPE
1070
   380
1005
16
1001
ACAD_DSTYLE_DIM_EXT1_LINETYPE
1070
   381
1005
16
1001
ACAD_DSTYLE_DIM_EXT2_LINETYPE
1070
   382
1005
16
  0
INSERT
  5
3B6
330
1F
100
AcDbEntity
  8
NoLayerName_001
100
AcDbBlockReference
  2
JZB_0001
 10
2700.007568359375
 20
4625.50048828125
 30
0.0
  0
INSERT
  5
3B7
330
1F
100
AcDbEntity
  8
NoLayerName_001
100
AcDbBlockReference
  2
JZB_0002
 10
1375.507446289062
 20
4619.50048828125
 30
0.0
  0
INSERT
  5
3B8
330
1F
100
AcDbEntity
  8
NoLayerName_001
100
AcDbBlockReference
  2
JZB_0003
 10
4795.06005859375
 20
4625.50048828125
 30
0.0
  0
POINT
  5
3B9
330
1F
100
AcDbEntity
  8
NoLayerName_001
  6
Continuous
 62
     7
 60
     1
370
    50
100
AcDbPoint
 10
0.0
 20
0.0
 30
0.0
  0
ENDSEC
  0
SECTION
  2
OBJECTS
  0
DICTIONARY
  5
C
330
0
100
AcDbDictionary
281
     1
  3
ACAD_GROUP
350
D
  3
ACAD_LAYOUT
350
1A
  3
ACAD_MATERIAL
350
43
  3
ACAD_MLEADERSTYLE
350
3BC
  3
ACAD_MLINESTYLE
350
17
  3
ACAD_PLOTSETTINGS
350
19
  3
ACAD_PLOTSTYLENAME
350
E
  3
ACAD_SCALELIST
350
47
  3
ACAD_VISUALSTYLE
350
2A
  3
AcDbVariableDictionary
350
3BA
  3
DWGPROPS
350
3C3
  0
DICTIONARY
  5
2A2
330
2A1
100
AcDbDictionary
280
     1
281
     1
  0
DICTIONARY
  5
2BC
330
2BB
100
AcDbDictionary
280
     1
281
     1
  0
DICTIONARY
  5
2CC
330
2CB
100
AcDbDictionary
280
     1
281
     1
  0
DICTIONARY
  5
2DC
330
2DB
100
AcDbDictionary
280
     1
281
     1
  0
DICTIONARY
  5
2EC
330
2EB
100
AcDbDictionary
280
     1
281
     1
  0
DICTIONARY
  5
2FC
330
2FB
100
AcDbDictionary
280
     1
281
     1
  0
DICTIONARY
  5
30A
330
309
100
AcDbDictionary
280
     1
281
     1
  0
DICTIONARY
  5
318
330
317
100
AcDbDictionary
280
     1
281
     1
  0
DICTIONARY
  5
326
330
325
100
AcDbDictionary
280
     1
281
     1
  0
DICTIONARY
  5
334
330
333
100
AcDbDictionary
280
     1
281
     1
  0
DICTIONARY
  5
344
330
343
100
AcDbDictionary
280
     1
281
     1
  0
DICTIONARY
  5
352
330
351
100
AcDbDictionary
280
     1
281
     1
  0
DICTIONARY
  5
360
330
35F
100
AcDbDictionary
280
     1
281
     1
  0
DICTIONARY
  5
36E
330
36D
100
AcDbDictionary
280
     1
281
     1
  0
DICTIONARY
  5
37F
330
37E
100
AcDbDictionary
280
     1
281
     1
  0
DICTIONARY
  5
38D
330
38C
100
AcDbDictionary
280
     1
281
     1
  0
DICTIONARY
  5
39B
330
39A
100
AcDbDictionary
280
     1
281
     1
  0
DICTIONARY
  5
3A9
330
3A8
100
AcDbDictionary
280
     1
281
     1
  0
DICTIONARY
  5
D
102
{ACAD_REACTORS
330
C
102
}
330
C
100
AcDbDictionary
281
     1
  0
DICTIONARY
  5
1A
102
{ACAD_REACTORS
330
C
102
}
330
C
100
AcDbDictionary
281
     1
  3
Layout1
350
1E
  3
Model
350
22
  0
DICTIONARY
  5
43
102
{ACAD_REACTORS
330
C
102
}
330
C
100
AcDbDictionary
281
     1
  3
ByBlock
350
45
  3
ByLayer
350
44
  3
Global
350
46
  0
DICTIONARY
  5
3BC
102
{ACAD_REACTORS
330
C
102
}
330
C
100
AcDbDictionary
281
     1
  0
DICTIONARY
  5
17
102
{ACAD_REACTORS
330
C
102
}
330
C
100
AcDbDictionary
281
     1
  3
Standard
350
18
  0
DICTIONARY
  5
19
102
{ACAD_REACTORS
330
C
102
}
330
C
100
AcDbDictionary
281
     1
  0
ACDBDICTIONARYWDFLT
  5
E
102
{ACAD_REACTORS
330
C
102
}
330
C
100
AcDbDictionary
281
     1
  3
Normal
350
F
100
AcDbDictionaryWithDefault
340
F
  0
DICTIONARY
  5
47
102
{ACAD_REACTORS
330
C
102
}
330
C
100
AcDbDictionary
281
     1
  3
A0
350
48
  3
A1
350
49
  3
A2
350
4A
  3
A3
350
4B
  3
A4
350
4C
  3
A5
350
4D
  3
A6
350
4E
  3
A7
350
4F
  3
A8
350
50
  3
A9
350
51
  3
B0
350
52
  3
B1
350
53
  3
B2
350
54
  3
B3
350
55
  3
B4
350
56
  3
B5
350
57
  3
B6
350
58
  3
B7
350
59
  3
B8
350
5A
  3
B9
350
5B
  3
C0
350
5C
  3
C1
350
5D
  3
C2
350
5E
  3
C3
350
5F
  3
C4
350
60
  3
C5
350
61
  3
C6
350
62
  3
C7
350
63
  3
C8
350
64
  3
C9
350
65
  3
D0
350
66
  3
D1
350
67
  3
D2
350
68
  0
DICTIONARY
  5
2A
102
{ACAD_REACTORS
330
C
102
}
330
C
100
AcDbDictionary
281
     1
  3
2dWireframe
350
2F
  3
Basic
350
32
  3
Brighten
350
36
  3
ColorChange
350
3A
  3
Conceptual
350
34
  3
Dim
350
35
  3
EdgeColorOff
350
3D
  3
Facepattern
350
39
  3
Flat
350
2B
  3
FlatWithEdges
350
2C
  3
Gouraud
350
2D
  3
GouraudWithEdges
350
2E
  3
Hidden
350
31
  3
JitterOff
350
3B
  3
Linepattern
350
38
  3
OverhangOff
350
3C
  3
Realistic
350
33
  3
Shaded
350
42
  3
Shaded with edges
350
41
  3
Shades of Gray
350
3E
  3
Sketchy
350
3F
  3
Thicken
350
37
  3
Wireframe
350
30
  3
X-Ray
350
40
  0
DICTIONARY
  5
3BA
102
{ACAD_REACTORS
330
C
102
}
330
C
100
AcDbDictionary
281
     1
  3
CANNOSCALE
350
3C7
  3
DIMASSOC
350
3C1
  3
HIDETEXT
350
3C2
  3
MSLTSCALE
350
3C8
  3
PSOLHEIGHT
350
3BE
  3
PSOLWIDTH
350
3BD
  0
XRECORD
  5
3C3
102
{ACAD_REACTORS
330
C
102
}
330
C
100
AcDbXrecord
280
     1
  1
DWGPROPS COOKIE
  2

  3

  4

  6
File was created by TR2_DExp
  7

  8

  9

300
=
301
=
302
=
303
=
304
=
305
=
306
=
307
=
308
=
309
=
 40
0.0
 41
2455188.375
 42
2455188.375
  1

 90
        0
  0
LAYOUT
  5
1E
102
{ACAD_REACTORS
330
1A
102
}
330
1A
100
AcDbPlotSettings
  1

  2
none_device
  4

  6

 40
0.0
 41
0.0
 42
0.0
 43
0.0
 44
0.0
 45
0.0
 46
0.0
 47
0.0
 48
0.0
 49
0.0
140
0.0
141
0.0
142
1.0
143
1.0
 70
   688
 72
     1
 73
     0
 74
     5
  7

 75
    16
147
1.0
148
0.0
149
0.0
100
AcDbLayout
  1
Layout1
 70
     0
 71
     1
 10
0.0
 20
0.0
 11
420.0
 21
297.0
 12
0.0
 22
0.0
 32
0.0
 14
1.000000000000000E+20
 24
1.000000000000000E+20
 34
1.000000000000000E+20
 15
-1.000000000000000E+20
 25
-1.000000000000000E+20
 35
-1.000000000000000E+20
146
0.0
 13
0.0
 23
0.0
 33
0.0
 16
1.0
 26
0.0
 36
0.0
 17
0.0
 27
1.0
 37
0.0
 76
     0
330
1B
  0
LAYOUT
  5
22
102
{ACAD_REACTORS
330
1A
102
}
330
1A
100
AcDbPlotSettings
  1

  2
none_device
  4
Letter_(8.50_x_11.00_Inches)
  6

 40
6.35
 41
6.35
 42
6.35000508
 43
6.35000508
 44
215.9
 45
279.4
 46
0.0
 47
0.0
 48
0.0
 49
0.0
140
0.0
141
0.0
142
1.0
143
1.0
 70
  1712
 72
     1
 73
     0
 74
     0
  7

 75
     0
147
1.0
148
0.0
149
0.0
100
AcDbLayout
  1
Model
 70
     1
 71
     0
 10
823.5126583721894
 20
2819.973600132258
 11
5501.260300603006
 21
7499.779487088967
 12
0.0
 22
0.0
 32
0.0
 14
823.5126583721894
 24
2819.973600132258
 34
0.0
 15
5501.260300603006
 25
7499.779487088967
 35
0.0
146
0.0
 13
0.0
 23
0.0
 33
0.0
 16
1.0
 26
0.0
 36
0.0
 17
0.0
 27
1.0
 37
0.0
 76
     0
330
1F
331
29
  0
MATERIAL
  5
45
102
{ACAD_REACTORS
330
43
102
}
102
{ACAD_XDICTIONARY
360
3FB
102
}
330
43
100
AcDbMaterial
  1
ByBlock
  0
MATERIAL
  5
44
102
{ACAD_REACTORS
330
43
102
}
102
{ACAD_XDICTIONARY
360
3F9
102
}
330
43
100
AcDbMaterial
  1
ByLayer
  0
MATERIAL
  5
46
102
{ACAD_REACTORS
330
43
102
}
102
{ACAD_XDICTIONARY
360
3FD
102
}
330
43
100
AcDbMaterial
  1
Global
  0
MLINESTYLE
  5
18
102
{ACAD_REACTORS
330
17
102
}
330
17
100
AcDbMlineStyle
  2
Standard
 70
     0
  3

 62
   256
 51
90.0
 52
90.0
 71
     2
 49
0.5
 62
   256
  6
BYLAYER
 49
-0.5
 62
   256
  6
BYLAYER
  0
ACDBPLACEHOLDER
  5
F
102
{ACAD_REACTORS
330
E
102
}
330
E
  0
SCALE
  5
48
102
{ACAD_REACTORS
330
47
102
}
330
47
100
AcDbScale
 70
     0
300
1:1
140
1.0
141
1.0
290
     1
  0
SCALE
  5
49
102
{ACAD_REACTORS
330
47
102
}
330
47
100
AcDbScale
 70
     0
300
1:2
140
1.0
141
2.0
290
     0
  0
SCALE
  5
4A
102
{ACAD_REACTORS
330
47
102
}
330
47
100
AcDbScale
 70
     0
300
1:4
140
1.0
141
4.0
290
     0
  0
SCALE
  5
4B
102
{ACAD_REACTORS
330
47
102
}
330
47
100
AcDbScale
 70
     0
300
1:5
140
1.0
141
5.0
290
     0
  0
SCALE
  5
4C
102
{ACAD_REACTORS
330
47
102
}
330
47
100
AcDbScale
 70
     0
300
1:8
140
1.0
141
8.0
290
     0
  0
SCALE
  5
4D
102
{ACAD_REACTORS
330
47
102
}
330
47
100
AcDbScale
 70
     0
300
1:10
140
1.0
141
10.0
290
     0
  0
SCALE
  5
4E
102
{ACAD_REACTORS
330
47
102
}
330
47
100
AcDbScale
 70
     0
300
1:16
140
1.0
141
16.0
290
     0
  0
SCALE
  5
4F
102
{ACAD_REACTORS
330
47
102
}
330
47
100
AcDbScale
 70
     0
300
1:20
140
1.0
141
20.0
290
     0
  0
SCALE
  5
50
102
{ACAD_REACTORS
330
47
102
}
330
47
100
AcDbScale
 70
     0
300
1:30
140
1.0
141
30.0
290
     0
  0
SCALE
  5
51
102
{ACAD_REACTORS
330
47
102
}
330
47
100
AcDbScale
 70
     0
300
1:40
140
1.0
141
40.0
290
     0
  0
SCALE
  5
52
102
{ACAD_REACTORS
330
47
102
}
330
47
100
AcDbScale
 70
     0
300
1:50
140
1.0
141
50.0
290
     0
  0
SCALE
  5
53
102
{ACAD_REACTORS
330
47
102
}
330
47
100
AcDbScale
 70
     0
300
1:100
140
1.0
141
100.0
290
     0
  0
SCALE
  5
54
102
{ACAD_REACTORS
330
47
102
}
330
47
100
AcDbScale
 70
     0
300
2:1
140
2.0
141
1.0
290
     0
  0
SCALE
  5
55
102
{ACAD_REACTORS
330
47
102
}
330
47
100
AcDbScale
 70
     0
300
4:1
140
4.0
141
1.0
290
     0
  0
SCALE
  5
56
102
{ACAD_REACTORS
330
47
102
}
330
47
100
AcDbScale
 70
     0
300
8:1
140
8.0
141
1.0
290
     0
  0
SCALE
  5
57
102
{ACAD_REACTORS
330
47
102
}
330
47
100
AcDbScale
 70
     0
300
10:1
140
10.0
141
1.0
290
     0
  0
SCALE
  5
58
102
{ACAD_REACTORS
330
47
102
}
330
47
100
AcDbScale
 70
     0
300
100:1
140
100.0
141
1.0
290
     0
  0
SCALE
  5
59
102
{ACAD_REACTORS
330
47
102
}
330
47
100
AcDbScale
 70
     0
300
1/128" = 1'-0"
140
0.0078125
141
12.0
290
     0
  0
SCALE
  5
5A
102
{ACAD_REACTORS
330
47
102
}
330
47
100
AcDbScale
 70
     0
300
1/64" = 1'-0"
140
0.015625
141
12.0
290
     0
  0
SCALE
  5
5B
102
{ACAD_REACTORS
330
47
102
}
330
47
100
AcDbScale
 70
     0
300
1/32" = 1'-0"
140
0.03125
141
12.0
290
     0
  0
SCALE
  5
5C
102
{ACAD_REACTORS
330
47
102
}
330
47
100
AcDbScale
 70
     0
300
1/16" = 1'-0"
140
0.0625
141
12.0
290
     0
  0
SCALE
  5
5D
102
{ACAD_REACTORS
330
47
102
}
330
47
100
AcDbScale
 70
     0
300
3/32" = 1'-0"
140
0.09375
141
12.0
290
     0
  0
SCALE
  5
5E
102
{ACAD_REACTORS
330
47
102
}
330
47
100
AcDbScale
 70
     0
300
1/8" = 1'-0"
140
0.125
141
12.0
290
     0
  0
SCALE
  5
5F
102
{ACAD_REACTORS
330
47
102
}
330
47
100
AcDbScale
 70
     0
300
3/16" = 1'-0"
140
0.1875
141
12.0
290
     0
  0
SCALE
  5
60
102
{ACAD_REACTORS
330
47
102
}
330
47
100
AcDbScale
 70
     0
300
1/4" = 1'-0"
140
0.25
141
12.0
290
     0
  0
SCALE
  5
61
102
{ACAD_REACTORS
330
47
102
}
330
47
100
AcDbScale
 70
     0
300
3/8" = 1'-0"
140
0.375
141
12.0
290
     0
  0
SCALE
  5
62
102
{ACAD_REACTORS
330
47
102
}
330
47
100
AcDbScale
 70
     0
300
1/2" = 1'-0"
140
0.5
141
12.0
290
     0
  0
SCALE
  5
63
102
{ACAD_REACTORS
330
47
102
}
330
47
100
AcDbScale
 70
     0
300
3/4" = 1'-0"
140
0.75
141
12.0
290
     0
  0
SCALE
  5
64
102
{ACAD_REACTORS
330
47
102
}
330
47
100
AcDbScale
 70
     0
300
1" = 1'-0"
140
1.0
141
12.0
290
     0
  0
SCALE
  5
65
102
{ACAD_REACTORS
330
47
102
}
330
47
100
AcDbScale
 70
     0
300
1-1/2" = 1'-0"
140
1.5
141
12.0
290
     0
  0
SCALE
  5
66
102
{ACAD_REACTORS
330
47
102
}
330
47
100
AcDbScale
 70
     0
300
3" = 1'-0"
140
3.0
141
12.0
290
     0
  0
SCALE
  5
67
102
{ACAD_REACTORS
330
47
102
}
330
47
100
AcDbScale
 70
     0
300
6" = 1'-0"
140
6.0
141
12.0
290
     0
  0
SCALE
  5
68
102
{ACAD_REACTORS
330
47
102
}
330
47
100
AcDbScale
 70
     0
300
1'-0" = 1'-0"
140
12.0
141
12.0
290
     0
  0
VISUALSTYLE
  5
2F
102
{ACAD_REACTORS
330
2A
102
}
102
{ACAD_XDICTIONARY
360
3D1
102
}
330
2A
100
AcDbVisualStyle
  2
2dWireframe
 70
     4
 71
     0
 72
     2
 73
     0
 90
        0
 40
0.6
 41
30.0
 62
     5
 63
     7
 74
     1
 91
        4
 64
     7
 65
   257
 75
     1
175
     1
 42
1.0
 92
        0
 66
   257
 43
1.0
 76
     1
 77
     6
 78
     2
 67
     7
 79
     5
170
     0
171
     0
290
     0
174
     0
 93
        1
 44
0.0
173
     0
291
     0
 45
0.0
1001
ACAD
1000
AcDbSavedByObjectVersion
1070
     0
  0
VISUALSTYLE
  5
32
102
{ACAD_REACTORS
330
2A
102
}
102
{ACAD_XDICTIONARY
360
3D7
102
}
330
2A
100
AcDbVisualStyle
  2
Basic
 70
     7
 71
     1
 72
     0
 73
     1
 90
        0
 40
0.6
 41
30.0
 62
     5
 63
     7
 74
     0
 91
        4
 64
     7
 65
   257
 75
     1
175
     1
 42
1.0
 92
        8
 66
     7
 43
1.0
 76
     1
 77
     6
 78
     2
 67
     7
 79
     5
170
     0
171
     0
290
     0
174
     0
 93
        1
 44
0.0
173
     0
291
     1
 45
0.0
1001
ACAD
1000
AcDbSavedByObjectVersion
1070
     0
  0
VISUALSTYLE
  5
36
102
{ACAD_REACTORS
330
2A
102
}
102
{ACAD_XDICTIONARY
360
3DF
102
}
330
2A
100
AcDbVisualStyle
  2
Brighten
 70
    12
 71
     2
 72
     2
 73
     0
 90
        0
 40
0.6
 41
30.0
 62
     5
 63
     7
 74
     1
 91
        4
 64
     7
 65
   257
 75
     1
175
     1
 42
1.0
 92
        8
 66
     7
 43
1.0
 76
     1
 77
     6
 78
     2
 67
     7
 79
     5
170
     0
171
     0
290
     0
174
     0
 93
        1
 44
50.0
173
     0
291
     1
 45
0.0
1001
ACAD
1000
AcDbSavedByObjectVersion
1070
     0
  0
VISUALSTYLE
  5
3A
102
{ACAD_REACTORS
330
2A
102
}
102
{ACAD_XDICTIONARY
360
3E7
102
}
330
2A
100
AcDbVisualStyle
  2
ColorChange
 70
    16
 71
     2
 72
     2
 73
     3
 90
        0
 40
0.6
 41
30.0
 62
     5
 63
     8
 74
     1
 91
        4
 64
     7
 65
   257
 75
     1
175
     1
 42
1.0
 92
        8
 66
     8
 43
1.0
 76
     1
 77
     6
 78
     2
 67
     7
 79
     5
170
     0
171
     0
290
     0
174
     0
 93
        1
 44
0.0
173
     0
291
     1
 45
0.0
1001
ACAD
1000
AcDbSavedByObjectVersion
1070
     0
  0
VISUALSTYLE
  5
34
102
{ACAD_REACTORS
330
2A
102
}
102
{ACAD_XDICTIONARY
360
3DB
102
}
330
2A
100
AcDbVisualStyle
  2
Conceptual
 70
     9
 71
     3
 72
     2
 73
     0
 90
        0
 40
0.6
 41
30.0
 62
     5
 63
     7
 74
     2
 91
        2
 64
     7
 65
   257
 75
     1
175
     1
 42
179.0
 92
        8
 66
     7
 43
1.0
 76
     1
 77
     6
 78
     2
 67
     7
 79
     3
170
     0
171
     0
290
     0
174
     0
 93
        1
 44
0.0
173
     0
291
     0
 45
0.0
1001
ACAD
1000
AcDbSavedByObjectVersion
1070
     0
  0
VISUALSTYLE
  5
35
102
{ACAD_REACTORS
330
2A
102
}
102
{ACAD_XDICTIONARY
360
3DD
102
}
330
2A
100
AcDbVisualStyle
  2
Dim
 70
    11
 71
     2
 72
     2
 73
     0
 90
        0
 40
0.6
 41
30.0
 62
     5
 63
     7
 74
     1
 91
        4
 64
     7
 65
   257
 75
     1
175
     1
 42
1.0
 92
        8
 66
     7
 43
1.0
 76
     1
 77
     6
 78
     2
 67
     7
 79
     5
170
     0
171
     0
290
     0
174
     0
 93
        1
 44
-50.0
173
     0
291
     1
 45
0.0
1001
ACAD
1000
AcDbSavedByObjectVersion
1070
     0
  0
VISUALSTYLE
  5
3D
102
{ACAD_REACTORS
330
2A
102
}
102
{ACAD_XDICTIONARY
360
3ED
102
}
330
2A
100
AcDbVisualStyle
  2
EdgeColorOff
 70
    22
 71
     2
 72
     2
 73
     0
 90
        0
 40
0.6
 41
30.0
 62
     5
 63
     7
 74
     1
 91
        4
 64
     7
 65
   257
 75
     1
175
     1
 42
1.0
 92
        8
 66
     7
 43
1.0
 76
     1
 77
     6
 78
     2
 67
     7
 79
     5
170
     0
171
     0
290
     0
174
     0
 93
        1
 44
0.0
173
     0
291
     1
 45
0.0
1001
ACAD
1000
AcDbSavedByObjectVersion
1070
     0
  0
VISUALSTYLE
  5
39
102
{ACAD_REACTORS
330
2A
102
}
102
{ACAD_XDICTIONARY
360
3E5
102
}
330
2A
100
AcDbVisualStyle
  2
Facepattern
 70
    15
 71
     2
 72
     2
 73
     0
 90
        0
 40
0.6
 41
30.0
 62
     5
 63
     7
 74
     1
 91
        4
 64
     7
 65
   257
 75
     1
175
     1
 42
1.0
 92
        8
 66
     7
 43
1.0
 76
     1
 77
     6
 78
     2
 67
     7
 79
     5
170
     0
171
     0
290
     0
174
     0
 93
        1
 44
0.0
173
     0
291
     1
 45
0.0
1001
ACAD
1000
AcDbSavedByObjectVersion
1070
     0
  0
VISUALSTYLE
  5
2B
102
{ACAD_REACTORS
330
2A
102
}
102
{ACAD_XDICTIONARY
360
3C9
102
}
330
2A
100
AcDbVisualStyle
  2
Flat
 70
     0
 71
     2
 72
     1
 73
     1
 90
        2
 40
0.6
 41
30.0
 62
     5
 63
     7
 74
     0
 91
        0
 64
     7
 65
   257
 75
     1
175
     1
 42
1.0
 92
        8
 66
     7
 43
1.0
 76
     1
 77
     6
 78
     2
 67
     7
 79
     5
170
     0
171
     0
290
     0
174
     0
 93
       13
 44
0.0
173
     0
291
     1
 45
0.0
1001
ACAD
1000
AcDbSavedByObjectVersion
1070
     0
  0
VISUALSTYLE
  5
2C
102
{ACAD_REACTORS
330
2A
102
}
102
{ACAD_XDICTIONARY
360
3CB
102
}
330
2A
100
AcDbVisualStyle
  2
FlatWithEdges
 70
     1
 71
     2
 72
     1
 73
     1
 90
        2
 40
0.6
 41
30.0
 62
     5
 63
     7
 74
     1
 91
        0
 64
     7
 65
   257
 75
     1
175
     1
 42
1.0
 92
        0
 66
   257
 43
1.0
 76
     1
 77
     6
 78
     2
 67
     7
 79
     5
170
     0
171
     0
290
     0
174
     0
 93
       13
 44
0.0
173
     0
291
     1
 45
0.0
1001
ACAD
1000
AcDbSavedByObjectVersion
1070
     0
  0
VISUALSTYLE
  5
2D
102
{ACAD_REACTORS
330
2A
102
}
102
{ACAD_XDICTIONARY
360
3CD
102
}
330
2A
100
AcDbVisualStyle
  2
Gouraud
 70
     2
 71
     2
 72
     2
 73
     1
 90
        2
 40
0.6
 41
30.0
 62
     5
 63
     7
 74
     0
 91
        0
 64
     7
 65
   257
 75
     1
175
     1
 42
1.0
 92
        0
 66
     7
 43
1.0
 76
     1
 77
     6
 78
     2
 67
     7
 79
     5
170
     0
171
     0
290
     0
174
     0
 93
       13
 44
0.0
173
     0
291
     1
 45
0.0
1001
ACAD
1000
AcDbSavedByObjectVersion
1070
     0
  0
VISUALSTYLE
  5
2E
102
{ACAD_REACTORS
330
2A
102
}
102
{ACAD_XDICTIONARY
360
3CF
102
}
330
2A
100
AcDbVisualStyle
  2
GouraudWithEdges
 70
     3
 71
     2
 72
     2
 73
     1
 90
        2
 40
0.6
 41
30.0
 62
     5
 63
     7
 74
     1
 91
        0
 64
     7
 65
   257
 75
     1
175
     1
 42
1.0
 92
        0
 66
   257
 43
1.0
 76
     1
 77
     6
 78
     2
 67
     7
 79
     5
170
     0
171
     0
290
     0
174
     0
 93
       13
 44
0.0
173
     0
291
     1
 45
0.0
1001
ACAD
1000
AcDbSavedByObjectVersion
1070
     0
  0
VISUALSTYLE
  5
31
102
{ACAD_REACTORS
330
2A
102
}
102
{ACAD_XDICTIONARY
360
3D5
102
}
330
2A
100
AcDbVisualStyle
  2
Hidden
 70
     6
 71
     1
 72
     2
 73
     2
 90
        0
 40
0.6
 41
30.0
 62
     5
 63
     7
 74
     2
 91
        2
 64
     7
 65
   257
 75
     2
175
     1
 42
40.0
 92
        0
 66
   257
 43
1.0
 76
     1
 77
     6
 78
     2
 67
     7
 79
     3
170
     0
171
     0
290
     0
174
     0
 93
        1
 44
0.0
173
     0
291
     0
 45
0.0
1001
ACAD
1000
AcDbSavedByObjectVersion
1070
     0
  0
VISUALSTYLE
  5
3B
102
{ACAD_REACTORS
330
2A
102
}
102
{ACAD_XDICTIONARY
360
3E9
102
}
330
2A
100
AcDbVisualStyle
  2
JitterOff
 70
    20
 71
     2
 72
     2
 73
     0
 90
        0
 40
0.6
 41
30.0
 62
     5
 63
     7
 74
     1
 91
        4
 64
     7
 65
   257
 75
     1
175
     1
 42
1.0
 92
       10
 66
     7
 43
1.0
 76
     1
 77
     6
 78
     2
 67
     7
 79
     5
170
     0
171
     0
290
     0
174
     0
 93
        1
 44
0.0
173
     0
291
     1
 45
0.0
1001
ACAD
1000
AcDbSavedByObjectVersion
1070
     0
  0
VISUALSTYLE
  5
38
102
{ACAD_REACTORS
330
2A
102
}
102
{ACAD_XDICTIONARY
360
3E3
102
}
330
2A
100
AcDbVisualStyle
  2
Linepattern
 70
    14
 71
     2
 72
     2
 73
     0
 90
        0
 40
0.6
 41
30.0
 62
     5
 63
     7
 74
     1
 91
        4
 64
     7
 65
   257
 75
     7
175
     7
 42
1.0
 92
        8
 66
     7
 43
1.0
 76
     1
 77
     6
 78
     2
 67
     7
 79
     5
170
     0
171
     0
290
     0
174
     0
 93
        1
 44
0.0
173
     0
291
     1
 45
0.0
1001
ACAD
1000
AcDbSavedByObjectVersion
1070
     0
  0
VISUALSTYLE
  5
3C
102
{ACAD_REACTORS
330
2A
102
}
102
{ACAD_XDICTIONARY
360
3EB
102
}
330
2A
100
AcDbVisualStyle
  2
OverhangOff
 70
    21
 71
     2
 72
     2
 73
     0
 90
        0
 40
0.6
 41
30.0
 62
     5
 63
     7
 74
     1
 91
        4
 64
     7
 65
   257
 75
     1
175
     1
 42
1.0
 92
        9
 66
     7
 43
1.0
 76
     1
 77
     6
 78
     2
 67
     7
 79
     5
170
     0
171
     0
290
     0
174
     0
 93
        1
 44
0.0
173
     0
291
     1
 45
0.0
1001
ACAD
1000
AcDbSavedByObjectVersion
1070
     0
  0
VISUALSTYLE
  5
33
102
{ACAD_REACTORS
330
2A
102
}
102
{ACAD_XDICTIONARY
360
3D9
102
}
330
2A
100
AcDbVisualStyle
  2
Realistic
 70
     8
 71
     2
 72
     3
 73
     0
 90
        2
 40
0.6
 41
30.0
 62
     5
 63
     7
 74
     0
 91
        0
 64
     7
 65
   257
 75
     1
175
     1
 42
1.0
 92
        8
 66
   257
 43
1.0
 76
     1
 77
     6
 78
     2
 67
     7
 79
     3
170
     0
171
     0
290
     0
174
     0
 93
       13
 44
0.0
173
     0
291
     0
 45
0.0
1001
ACAD
1000
AcDbSavedByObjectVersion
1070
     0
  0
VISUALSTYLE
  5
42
102
{ACAD_REACTORS
330
2A
102
}
102
{ACAD_XDICTIONARY
360
3F7
102
}
330
2A
100
AcDbVisualStyle
  2
Shaded
 70
    27
 71
     2
 72
     2
 73
     1
 90
        2
 40
0.6
 41
30.0
 62
     5
 63
     7
 74
     0
 91
        4
 64
     7
 65
   257
 75
     1
175
     1
 42
1.0
 92
        8
 66
   257
 43
1.0
 76
     1
 77
     6
 78
     2
 67
     8
 79
     3
170
     0
171
     0
290
     0
174
     0
 93
        5
 44
0.0
173
     0
291
     0
 45
0.0
1001
ACAD
1000
AcDbSavedByObjectVersion
1070
     0
  0
VISUALSTYLE
  5
41
102
{ACAD_REACTORS
330
2A
102
}
102
{ACAD_XDICTIONARY
360
3F5
102
}
330
2A
100
AcDbVisualStyle
  2
Shaded with edges
 70
    26
 71
     2
 72
     2
 73
     1
 90
        2
 40
0.6
 41
30.0
 62
     5
 63
     7
 74
     1
 91
       10
 64
     7
 65
   257
 75
     2
175
     1
 42
1.0
 92
        8
 66
   257
 43
1.0
 76
     1
 77
     6
 78
     2
 67
     7
 79
     3
170
     0
171
     0
290
     0
174
     0
 93
        5
 44
0.0
173
     0
291
     0
 45
0.0
1001
ACAD
1000
AcDbSavedByObjectVersion
1070
     0
  0
VISUALSTYLE
  5
3E
102
{ACAD_REACTORS
330
2A
102
}
102
{ACAD_XDICTIONARY
360
3EF
102
}
330
2A
100
AcDbVisualStyle
  2
Shades of Gray
 70
    23
 71
     2
 72
     2
 73
     3
 90
        0
 40
0.6
 41
30.0
 62
     5
 63
     7
 74
     2
 91
        2
 64
     7
 65
     7
 75
     1
175
     1
 42
40.0
 92
        8
 66
     7
 43
1.0
 76
     1
 77
     6
 78
     2
 67
     7
 79
     3
170
     0
171
     0
290
     0
174
     0
 93
        1
 44
0.0
173
     0
291
     0
 45
0.0
1001
ACAD
1000
AcDbSavedByObjectVersion
1070
     0
  0
VISUALSTYLE
  5
3F
102
{ACAD_REACTORS
330
2A
102
}
102
{ACAD_XDICTIONARY
360
3F1
102
}
330
2A
100
AcDbVisualStyle
  2
Sketchy
 70
    24
 71
     1
 72
     2
 73
     2
 90
        0
 40
0.6
 41
30.0
 62
     5
 63
     7
 74
     2
 91
        2
 64
     7
 65
     7
 75
     1
175
     1
 42
40.0
 92
       11
 66
     7
 43
1.0
 76
     1
 77
     6
 78
     2
 67
     7
 79
     6
170
     0
171
     0
290
     0
174
     0
 93
        1
 44
0.0
173
     0
291
     0
 45
0.0
1001
ACAD
1000
AcDbSavedByObjectVersion
1070
     0
  0
VISUALSTYLE
  5
37
102
{ACAD_REACTORS
330
2A
102
}
102
{ACAD_XDICTIONARY
360
3E1
102
}
330
2A
100
AcDbVisualStyle
  2
Thicken
 70
    13
 71
     2
 72
     2
 73
     0
 90
        0
 40
0.6
 41
30.0
 62
     5
 63
     7
 74
     1
 91
        4
 64
     7
 65
   257
 75
     1
175
     1
 42
1.0
 92
       12
 66
     7
 43
1.0
 76
     1
 77
     6
 78
     2
 67
     7
 79
     5
170
     0
171
     0
290
     0
174
     0
 93
        1
 44
0.0
173
     0
291
     1
 45
0.0
1001
ACAD
1000
AcDbSavedByObjectVersion
1070
     0
  0
VISUALSTYLE
  5
30
102
{ACAD_REACTORS
330
2A
102
}
102
{ACAD_XDICTIONARY
360
3D3
102
}
330
2A
100
AcDbVisualStyle
  2
Wireframe
 70
     5
 71
     0
 72
     2
 73
     0
 90
        0
 40
0.6
 41
30.0
 62
     5
 63
     7
 74
     1
 91
        4
 64
     7
 65
   257
 75
     1
175
     1
 42
1.0
 92
        0
 66
   257
 43
1.0
 76
     1
 77
     6
 78
     2
 67
     7
 79
     3
170
     0
171
     0
290
     0
174
     0
 93
        1
 44
0.0
173
     0
291
     0
 45
0.0
1001
ACAD
1000
AcDbSavedByObjectVersion
1070
     0
  0
VISUALSTYLE
  5
40
102
{ACAD_REACTORS
330
2A
102
}
102
{ACAD_XDICTIONARY
360
3F3
102
}
330
2A
100
AcDbVisualStyle
  2
X-Ray
 70
    25
 71
     2
 72
     2
 73
     1
 90
        1
 40
0.5
 41
30.0
 62
     5
 63
     7
 74
     1
 91
        0
 64
     7
 65
   257
 75
     1
175
     1
 42
1.0
 92
        8
 66
     7
 43
1.0
 76
     1
 77
     6
 78
     2
 67
     7
 79
     3
170
     0
171
     0
290
     0
174
     0
 93
       13
 44
0.0
173
     0
291
     0
 45
0.0
1001
ACAD
1000
AcDbSavedByObjectVersion
1070
     0
  0
DICTIONARYVAR
  5
3C7
102
{ACAD_REACTORS
330
3BA
102
}
330
3BA
100
DictionaryVariables
280
     0
  1
1:1
  0
DICTIONARYVAR
  5
3C1
102
{ACAD_REACTORS
330
3BA
102
}
330
3BA
100
DictionaryVariables
280
     0
  1
2
  0
DICTIONARYVAR
  5
3C2
102
{ACAD_REACTORS
330
3BA
102
}
330
3BA
100
DictionaryVariables
280
     0
  1
1
  0
DICTIONARYVAR
  5
3C8
102
{ACAD_REACTORS
330
3BA
102
}
330
3BA
100
DictionaryVariables
280
     0
  1
1
  0
DICTIONARYVAR
  5
3BE
102
{ACAD_REACTORS
330
3BA
102
}
330
3BA
100
DictionaryVariables
280
     0
  1
80.000000
  0
DICTIONARYVAR
  5
3BD
102
{ACAD_REACTORS
330
3BA
102
}
330
3BA
100
DictionaryVariables
280
     0
  1
5.000000
  0
DICTIONARY
  5
3FB
330
45
100
AcDbDictionary
280
     1
281
     1
  3
ACAD_XREC_ROUNDTRIP
360
3FC
  0
DICTIONARY
  5
3F9
330
44
100
AcDbDictionary
280
     1
281
     1
  3
ACAD_XREC_ROUNDTRIP
360
3FA
  0
DICTIONARY
  5
3FD
330
46
100
AcDbDictionary
280
     1
281
     1
  3
ACAD_XREC_ROUNDTRIP
360
3FE
  0
DICTIONARY
  5
3D1
330
2F
100
AcDbDictionary
280
     1
281
     1
  3
ACAD_XREC_ROUNDTRIP
360
3D2
  0
DICTIONARY
  5
3D7
330
32
100
AcDbDictionary
280
     1
281
     1
  3
ACAD_XREC_ROUNDTRIP
360
3D8
  0
DICTIONARY
  5
3DF
330
36
100
AcDbDictionary
280
     1
281
     1
  3
ACAD_XREC_ROUNDTRIP
360
3E0
  0
DICTIONARY
  5
3E7
330
3A
100
AcDbDictionary
280
     1
281
     1
  3
ACAD_XREC_ROUNDTRIP
360
3E8
  0
DICTIONARY
  5
3DB
330
34
100
AcDbDictionary
280
     1
281
     1
  3
ACAD_XREC_ROUNDTRIP
360
3DC
  0
DICTIONARY
  5
3DD
330
35
100
AcDbDictionary
280
     1
281
     1
  3
ACAD_XREC_ROUNDTRIP
360
3DE
  0
DICTIONARY
  5
3ED
330
3D
100
AcDbDictionary
280
     1
281
     1
  3
ACAD_XREC_ROUNDTRIP
360
3EE
  0
DICTIONARY
  5
3E5
330
39
100
AcDbDictionary
280
     1
281
     1
  3
ACAD_XREC_ROUNDTRIP
360
3E6
  0
DICTIONARY
  5
3C9
330
2B
100
AcDbDictionary
280
     1
281
     1
  3
ACAD_XREC_ROUNDTRIP
360
3CA
  0
DICTIONARY
  5
3CB
330
2C
100
AcDbDictionary
280
     1
281
     1
  3
ACAD_XREC_ROUNDTRIP
360
3CC
  0
DICTIONARY
  5
3CD
330
2D
100
AcDbDictionary
280
     1
281
     1
  3
ACAD_XREC_ROUNDTRIP
360
3CE
  0
DICTIONARY
  5
3CF
330
2E
100
AcDbDictionary
280
     1
281
     1
  3
ACAD_XREC_ROUNDTRIP
360
3D0
  0
DICTIONARY
  5
3D5
330
31
100
AcDbDictionary
280
     1
281
     1
  3
ACAD_XREC_ROUNDTRIP
360
3D6
  0
DICTIONARY
  5
3E9
330
3B
100
AcDbDictionary
280
     1
281
     1
  3
ACAD_XREC_ROUNDTRIP
360
3EA
  0
DICTIONARY
  5
3E3
330
38
100
AcDbDictionary
280
     1
281
     1
  3
ACAD_XREC_ROUNDTRIP
360
3E4
  0
DICTIONARY
  5
3EB
330
3C
100
AcDbDictionary
280
     1
281
     1
  3
ACAD_XREC_ROUNDTRIP
360
3EC
  0
DICTIONARY
  5
3D9
330
33
100
AcDbDictionary
280
     1
281
     1
  3
ACAD_XREC_ROUNDTRIP
360
3DA
  0
DICTIONARY
  5
3F7
330
42
100
AcDbDictionary
280
     1
281
     1
  3
ACAD_XREC_ROUNDTRIP
360
3F8
  0
DICTIONARY
  5
3F5
330
41
100
AcDbDictionary
280
     1
281
     1
  3
ACAD_XREC_ROUNDTRIP
360
3F6
  0
DICTIONARY
  5
3EF
330
3E
100
AcDbDictionary
280
     1
281
     1
  3
ACAD_XREC_ROUNDTRIP
360
3F0
  0
DICTIONARY
  5
3F1
330
3F
100
AcDbDictionary
280
     1
281
     1
  3
ACAD_XREC_ROUNDTRIP
360
3F2
  0
DICTIONARY
  5
3E1
330
37
100
AcDbDictionary
280
     1
281
     1
  3
ACAD_XREC_ROUNDTRIP
360
3E2
  0
DICTIONARY
  5
3D3
330
30
100
AcDbDictionary
280
     1
281
     1
  3
ACAD_XREC_ROUNDTRIP
360
3D4
  0
DICTIONARY
  5
3F3
330
40
100
AcDbDictionary
280
     1
281
     1
  3
ACAD_XREC_ROUNDTRIP
360
3F4
  0
XRECORD
  5
3FC
102
{ACAD_REACTORS
330
3FB
102
}
330
3FB
100
AcDbXrecord
280
     1
102
MATERIAL
148
0.0
149
0.0
149
0.0
 93
        0
 94
      127
282
     0
 72
     1
 77
     1
171
     1
175
     1
179
     1
273
     0
  0
XRECORD
  5
3FA
102
{ACAD_REACTORS
330
3F9
102
}
330
3F9
100
AcDbXrecord
280
     1
102
MATERIAL
148
0.0
149
0.0
149
0.0
 93
        0
 94
      127
282
     0
 72
     1
 77
     1
171
     1
175
     1
179
     1
273
     0
  0
XRECORD
  5
3FE
102
{ACAD_REACTORS
330
3FD
102
}
330
3FD
100
AcDbXrecord
280
     1
102
MATERIAL
148
0.0
149
0.0
149
0.0
 93
        0
 94
      127
282
     0
 72
     1
 77
     1
171
     1
175
     1
179
     1
273
     0
  0
XRECORD
  5
3D2
102
{ACAD_REACTORS
330
3D1
102
}
330
3D1
100
AcDbXrecord
280
     1
102
RTVSPropertyOp0
 70
     1
102
RTVSPropertyOp1
 70
     1
102
RTVSPropertyOp2
 70
     1
102
RTVSPropertyOp3
 70
     1
102
RTVSPropertyOp4
 70
     1
102
RTVSPropertyOp5
 70
     1
102
RTVSPropertyOp6
 70
     1
102
RTVSPropertyOp7
 70
     1
102
RTVSPropertyOp8
 70
     1
102
RTVSPropertyOp9
 70
     1
102
RTVSPropertyOp10
 70
     1
102
RTVSPropertyOp11
 70
     1
102
RTVSPropertyOp12
 70
     1
102
RTVSPropertyOp13
 70
     1
102
RTVSPropertyOp14
 70
     1
102
RTVSPropertyOp15
 70
     1
102
RTVSPropertyOp16
 70
     1
102
RTVSPropertyOp17
 70
     1
102
RTVSPropertyOp18
 70
     1
102
RTVSPropertyOp19
 70
     1
102
RTVSPropertyOp20
 70
     1
102
RTVSPropertyOp21
 70
     1
102
RTVSPropertyOp22
 70
     1
102
RTVSPropertyOp23
 70
     1
102
RTVSPropertyOp24
 70
     1
102
RTVSPropertyOp25
 70
     1
102
RTVSPropertyOp26
 70
     1
102
RTVSPropertyOp27
 70
     1
102
RTVSPropertyOp28
 70
     1
102
RTVSPropertyOp29
 70
     1
102
RTVSPropertyOp30
 70
     1
102
RTVSPropertyOp31
 70
     1
102
RTVSPropertyOp32
 70
     1
102
RTVSPropertyOp33
 70
     1
102
RTVSPropertyOp34
 70
     1
102
RTVSPropertyOp35
 70
     1
102
RTVSPropertyOp36
 70
     1
102
RTVSPropertyOp37
 70
     1
102
RTVSPropertyOp38
 70
     1
102
RTVSPropertyOp39
 70
     1
102
RTVSPropertyOp40
 70
     1
102
RTVSPropertyOp41
 70
     1
102
RTVSPropertyOp42
 70
     1
102
RTVSPropertyOp43
 70
     1
102
RTVSPropertyOp44
 70
     1
102
RTVSPropertyOp45
 70
     1
102
RTVSPropertyOp46
 70
     1
102
RTVSPropertyOp47
 70
     1
102
RTVSPropertyOp48
 70
     1
102
RTVSPropertyOp49
 70
     1
102
RTVSPropertyOp50
 70
     1
102
RTVSPropertyOp51
 70
     0
102
RTVSPropertyOp52
 70
     0
102
RTVSPropertyOp53
 70
     1
102
RTVSPropertyOp54
 70
     1
102
RTVSPropertyOp55
 70
     1
102
RTVSPropertyOp56
 70
     1
102
RTVSPropertyOp57
 70
     1
102
RTVSPost2010Prop28
280
     1
102
RTVSPost2010PropOp28
 70
     1
102
RTVSPost2010Prop29
280
     1
102
RTVSPost2010PropOp29
 70
     1
102
RTVSPost2010Prop30
280
     0
102
RTVSPost2010PropOp30
 70
     1
102
RTVSPost2010Prop31
280
     0
102
RTVSPost2010PropOp31
 70
     1
102
RTVSPost2010Prop32
280
     0
102
RTVSPost2010PropOp32
 70
     1
102
RTVSPost2010Prop33
280
     0
102
RTVSPost2010PropOp33
 70
     1
102
RTVSPost2010Prop34
280
     0
102
RTVSPost2010PropOp34
 70
     1
102
RTVSPost2010Prop35
280
     0
102
RTVSPost2010PropOp35
 70
     1
102
RTVSPost2010Prop36
280
     0
102
RTVSPost2010PropOp36
 70
     1
102
RTVSPost2010Prop37
 90
       50
102
RTVSPost2010PropOp37
 70
     1
102
RTVSPost2010Prop38
140
0.0
102
RTVSPost2010PropOp38
 70
     1
102
RTVSPost2010Prop39
140
1.0
102
RTVSPost2010PropOp39
 70
     1
102
RTVSPost2010Prop40
 90
        0
102
RTVSPost2010PropOp40
 70
     1
102
RTVSPost2010Prop41ColorIndex
 90
       18
102
RTVSPost2010Prop41ColorRGB
 90
        0
102
RTVSPost2010PropOp41
 70
     1
102
RTVSPost2010Prop42
 90
       50
102
RTVSPost2010PropOp42
 70
     1
102
RTVSPost2010Prop43
 90
        3
102
RTVSPost2010PropOp43
 70
     1
102
RTVSPost2010Prop44ColorIndex
 90
        5
102
RTVSPost2010Prop44ColorRGB
 90
      255
102
RTVSPost2010PropOp44
 70
     1
102
RTVSPost2010Prop45
280
     0
102
RTVSPost2010PropOp45
 70
     1
102
RTVSPost2010Prop46
 90
       50
102
RTVSPost2010PropOp46
 70
     1
102
RTVSPost2010Prop47
 90
       50
102
RTVSPost2010PropOp47
 70
     1
102
RTVSPost2010Prop48
 90
       50
102
RTVSPost2010PropOp48
 70
     1
102
RTVSPost2010Prop49
280
     0
102
RTVSPost2010PropOp49
 70
     1
102
RTVSPost2010Prop50
 90
       50
102
RTVSPost2010PropOp50
 70
     1
102
RTVSPost2010Prop51ColorIndex
 90
      256
102
RTVSPost2010Prop51ColorRGB
 90
-16777216
102
RTVSPost2010PropOp51
 70
     0
102
RTVSPost2010Prop52
140
1.0
102
RTVSPost2010PropOp52
 70
     0
102
RTVSPost2010Prop53
 90
        2
102
RTVSPost2010PropOp53
 70
     1
102
RTVSPost2010Prop54
  1
strokes_ogs.tif
102
RTVSPost2010PropOp54
 70
     1
102
RTVSPost2010Prop55
280
     0
102
RTVSPost2010PropOp55
 70
     1
102
RTVSPost2010Prop56
140
1.0
102
RTVSPost2010PropOp56
 70
     1
102
RTVSPost2010Prop57
140
1.0
102
RTVSPost2010PropOp57
 70
     1
  0
XRECORD
  5
3D8
102
{ACAD_REACTORS
330
3D7
102
}
330
3D7
100
AcDbXrecord
280
     1
102
RTVSPropertyOp0
 70
     1
102
RTVSPropertyOp1
 70
     1
102
RTVSPropertyOp2
 70
     1
102
RTVSPropertyOp3
 70
     1
102
RTVSPropertyOp4
 70
     1
102
RTVSPropertyOp5
 70
     1
102
RTVSPropertyOp6
 70
     1
102
RTVSPropertyOp7
 70
     1
102
RTVSPropertyOp8
 70
     1
102
RTVSPropertyOp9
 70
     1
102
RTVSPropertyOp10
 70
     1
102
RTVSPropertyOp11
 70
     1
102
RTVSPropertyOp12
 70
     1
102
RTVSPropertyOp13
 70
     1
102
RTVSPropertyOp14
 70
     1
102
RTVSPropertyOp15
 70
     1
102
RTVSPropertyOp16
 70
     1
102
RTVSPropertyOp17
 70
     1
102
RTVSPropertyOp18
 70
     1
102
RTVSPropertyOp19
 70
     1
102
RTVSPropertyOp20
 70
     1
102
RTVSPropertyOp21
 70
     1
102
RTVSPropertyOp22
 70
     1
102
RTVSPropertyOp23
 70
     1
102
RTVSPropertyOp24
 70
     1
102
RTVSPropertyOp25
 70
     1
102
RTVSPropertyOp26
 70
     1
102
RTVSPropertyOp27
 70
     1
102
RTVSPropertyOp28
 70
     1
102
RTVSPropertyOp29
 70
     1
102
RTVSPropertyOp30
 70
     1
102
RTVSPropertyOp31
 70
     1
102
RTVSPropertyOp32
 70
     1
102
RTVSPropertyOp33
 70
     1
102
RTVSPropertyOp34
 70
     1
102
RTVSPropertyOp35
 70
     1
102
RTVSPropertyOp36
 70
     1
102
RTVSPropertyOp37
 70
     1
102
RTVSPropertyOp38
 70
     1
102
RTVSPropertyOp39
 70
     1
102
RTVSPropertyOp40
 70
     1
102
RTVSPropertyOp41
 70
     1
102
RTVSPropertyOp42
 70
     1
102
RTVSPropertyOp43
 70
     1
102
RTVSPropertyOp44
 70
     1
102
RTVSPropertyOp45
 70
     1
102
RTVSPropertyOp46
 70
     1
102
RTVSPropertyOp47
 70
     1
102
RTVSPropertyOp48
 70
     1
102
RTVSPropertyOp49
 70
     1
102
RTVSPropertyOp50
 70
     1
102
RTVSPropertyOp51
 70
     0
102
RTVSPropertyOp52
 70
     0
102
RTVSPropertyOp53
 70
     1
102
RTVSPropertyOp54
 70
     1
102
RTVSPropertyOp55
 70
     1
102
RTVSPropertyOp56
 70
     1
102
RTVSPropertyOp57
 70
     1
102
RTVSPost2010Prop28
280
     0
102
RTVSPost2010PropOp28
 70
     1
102
RTVSPost2010Prop29
280
     1
102
RTVSPost2010PropOp29
 70
     1
102
RTVSPost2010Prop30
280
     1
102
RTVSPost2010PropOp30
 70
     1
102
RTVSPost2010Prop31
280
     0
102
RTVSPost2010PropOp31
 70
     1
102
RTVSPost2010Prop32
280
     0
102
RTVSPost2010PropOp32
 70
     1
102
RTVSPost2010Prop33
280
     0
102
RTVSPost2010PropOp33
 70
     1
102
RTVSPost2010Prop34
280
     0
102
RTVSPost2010PropOp34
 70
     1
102
RTVSPost2010Prop35
280
     0
102
RTVSPost2010PropOp35
 70
     1
102
RTVSPost2010Prop36
280
     0
102
RTVSPost2010PropOp36
 70
     1
102
RTVSPost2010Prop37
 90
       50
102
RTVSPost2010PropOp37
 70
     1
102
RTVSPost2010Prop38
140
0.0
102
RTVSPost2010PropOp38
 70
     1
102
RTVSPost2010Prop39
140
1.0
102
RTVSPost2010PropOp39
 70
     1
102
RTVSPost2010Prop40
 90
        0
102
RTVSPost2010PropOp40
 70
     1
102
RTVSPost2010Prop41ColorIndex
 90
       18
102
RTVSPost2010Prop41ColorRGB
 90
        0
102
RTVSPost2010PropOp41
 70
     1
102
RTVSPost2010Prop42
 90
       50
102
RTVSPost2010PropOp42
 70
     1
102
RTVSPost2010Prop43
 90
        3
102
RTVSPost2010PropOp43
 70
     1
102
RTVSPost2010Prop44ColorIndex
 90
        5
102
RTVSPost2010Prop44ColorRGB
 90
      255
102
RTVSPost2010PropOp44
 70
     1
102
RTVSPost2010Prop45
280
     0
102
RTVSPost2010PropOp45
 70
     1
102
RTVSPost2010Prop46
 90
       50
102
RTVSPost2010PropOp46
 70
     1
102
RTVSPost2010Prop47
 90
       50
102
RTVSPost2010PropOp47
 70
     1
102
RTVSPost2010Prop48
 90
       50
102
RTVSPost2010PropOp48
 70
     1
102
RTVSPost2010Prop49
280
     0
102
RTVSPost2010PropOp49
 70
     1
102
RTVSPost2010Prop50
 90
       50
102
RTVSPost2010PropOp50
 70
     1
102
RTVSPost2010Prop51ColorIndex
 90
      256
102
RTVSPost2010Prop51ColorRGB
 90
-16777216
102
RTVSPost2010PropOp51
 70
     0
102
RTVSPost2010Prop52
140
1.0
102
RTVSPost2010PropOp52
 70
     0
102
RTVSPost2010Prop53
 90
        2
102
RTVSPost2010PropOp53
 70
     1
102
RTVSPost2010Prop54
  1
strokes_ogs.tif
102
RTVSPost2010PropOp54
 70
     1
102
RTVSPost2010Prop55
280
     0
102
RTVSPost2010PropOp55
 70
     1
102
RTVSPost2010Prop56
140
1.0
102
RTVSPost2010PropOp56
 70
     1
102
RTVSPost2010Prop57
140
1.0
102
RTVSPost2010PropOp57
 70
     1
  0
XRECORD
  5
3E0
102
{ACAD_REACTORS
330
3DF
102
}
330
3DF
100
AcDbXrecord
280
     1
102
RTVSPropertyOp0
 70
     1
102
RTVSPropertyOp1
 70
     1
102
RTVSPropertyOp2
 70
     1
102
RTVSPropertyOp3
 70
     1
102
RTVSPropertyOp4
 70
     1
102
RTVSPropertyOp5
 70
     1
102
RTVSPropertyOp6
 70
     1
102
RTVSPropertyOp7
 70
     1
102
RTVSPropertyOp8
 70
     1
102
RTVSPropertyOp9
 70
     1
102
RTVSPropertyOp10
 70
     1
102
RTVSPropertyOp11
 70
     1
102
RTVSPropertyOp12
 70
     1
102
RTVSPropertyOp13
 70
     1
102
RTVSPropertyOp14
 70
     1
102
RTVSPropertyOp15
 70
     1
102
RTVSPropertyOp16
 70
     1
102
RTVSPropertyOp17
 70
     1
102
RTVSPropertyOp18
 70
     1
102
RTVSPropertyOp19
 70
     1
102
RTVSPropertyOp20
 70
     1
102
RTVSPropertyOp21
 70
     1
102
RTVSPropertyOp22
 70
     1
102
RTVSPropertyOp23
 70
     1
102
RTVSPropertyOp24
 70
     1
102
RTVSPropertyOp25
 70
     1
102
RTVSPropertyOp26
 70
     1
102
RTVSPropertyOp27
 70
     1
102
RTVSPropertyOp28
 70
     1
102
RTVSPropertyOp29
 70
     1
102
RTVSPropertyOp30
 70
     1
102
RTVSPropertyOp31
 70
     1
102
RTVSPropertyOp32
 70
     1
102
RTVSPropertyOp33
 70
     1
102
RTVSPropertyOp34
 70
     1
102
RTVSPropertyOp35
 70
     1
102
RTVSPropertyOp36
 70
     1
102
RTVSPropertyOp37
 70
     1
102
RTVSPropertyOp38
 70
     1
102
RTVSPropertyOp39
 70
     1
102
RTVSPropertyOp40
 70
     1
102
RTVSPropertyOp41
 70
     1
102
RTVSPropertyOp42
 70
     1
102
RTVSPropertyOp43
 70
     1
102
RTVSPropertyOp44
 70
     1
102
RTVSPropertyOp45
 70
     1
102
RTVSPropertyOp46
 70
     1
102
RTVSPropertyOp47
 70
     1
102
RTVSPropertyOp48
 70
     1
102
RTVSPropertyOp49
 70
     1
102
RTVSPropertyOp50
 70
     1
102
RTVSPropertyOp51
 70
     0
102
RTVSPropertyOp52
 70
     0
102
RTVSPropertyOp53
 70
     1
102
RTVSPropertyOp54
 70
     1
102
RTVSPropertyOp55
 70
     1
102
RTVSPropertyOp56
 70
     1
102
RTVSPropertyOp57
 70
     1
102
RTVSPost2010Prop28
280
     0
102
RTVSPost2010PropOp28
 70
     1
102
RTVSPost2010Prop29
280
     1
102
RTVSPost2010PropOp29
 70
     1
102
RTVSPost2010Prop30
280
     1
102
RTVSPost2010PropOp30
 70
     1
102
RTVSPost2010Prop31
280
     0
102
RTVSPost2010PropOp31
 70
     1
102
RTVSPost2010Prop32
280
     0
102
RTVSPost2010PropOp32
 70
     1
102
RTVSPost2010Prop33
280
     0
102
RTVSPost2010PropOp33
 70
     1
102
RTVSPost2010Prop34
280
     0
102
RTVSPost2010PropOp34
 70
     1
102
RTVSPost2010Prop35
280
     0
102
RTVSPost2010PropOp35
 70
     1
102
RTVSPost2010Prop36
280
     0
102
RTVSPost2010PropOp36
 70
     1
102
RTVSPost2010Prop37
 90
       50
102
RTVSPost2010PropOp37
 70
     1
102
RTVSPost2010Prop38
140
0.0
102
RTVSPost2010PropOp38
 70
     1
102
RTVSPost2010Prop39
140
1.0
102
RTVSPost2010PropOp39
 70
     1
102
RTVSPost2010Prop40
 90
        0
102
RTVSPost2010PropOp40
 70
     1
102
RTVSPost2010Prop41ColorIndex
 90
       18
102
RTVSPost2010Prop41ColorRGB
 90
        0
102
RTVSPost2010PropOp41
 70
     1
102
RTVSPost2010Prop42
 90
       50
102
RTVSPost2010PropOp42
 70
     1
102
RTVSPost2010Prop43
 90
        3
102
RTVSPost2010PropOp43
 70
     1
102
RTVSPost2010Prop44ColorIndex
 90
        5
102
RTVSPost2010Prop44ColorRGB
 90
      255
102
RTVSPost2010PropOp44
 70
     1
102
RTVSPost2010Prop45
280
     0
102
RTVSPost2010PropOp45
 70
     1
102
RTVSPost2010Prop46
 90
       50
102
RTVSPost2010PropOp46
 70
     1
102
RTVSPost2010Prop47
 90
       50
102
RTVSPost2010PropOp47
 70
     1
102
RTVSPost2010Prop48
 90
       50
102
RTVSPost2010PropOp48
 70
     1
102
RTVSPost2010Prop49
280
     0
102
RTVSPost2010PropOp49
 70
     1
102
RTVSPost2010Prop50
 90
       50
102
RTVSPost2010PropOp50
 70
     1
102
RTVSPost2010Prop51ColorIndex
 90
      256
102
RTVSPost2010Prop51ColorRGB
 90
-16777216
102
RTVSPost2010PropOp51
 70
     0
102
RTVSPost2010Prop52
140
1.0
102
RTVSPost2010PropOp52
 70
     0
102
RTVSPost2010Prop53
 90
        2
102
RTVSPost2010PropOp53
 70
     1
102
RTVSPost2010Prop54
  1
strokes_ogs.tif
102
RTVSPost2010PropOp54
 70
     1
102
RTVSPost2010Prop55
280
     0
102
RTVSPost2010PropOp55
 70
     1
102
RTVSPost2010Prop56
140
1.0
102
RTVSPost2010PropOp56
 70
     1
102
RTVSPost2010Prop57
140
1.0
102
RTVSPost2010PropOp57
 70
     1
  0
XRECORD
  5
3E8
102
{ACAD_REACTORS
330
3E7
102
}
330
3E7
100
AcDbXrecord
280
     1
102
RTVSPropertyOp0
 70
     1
102
RTVSPropertyOp1
 70
     1
102
RTVSPropertyOp2
 70
     1
102
RTVSPropertyOp3
 70
     1
102
RTVSPropertyOp4
 70
     1
102
RTVSPropertyOp5
 70
     1
102
RTVSPropertyOp6
 70
     1
102
RTVSPropertyOp7
 70
     1
102
RTVSPropertyOp8
 70
     1
102
RTVSPropertyOp9
 70
     1
102
RTVSPropertyOp10
 70
     1
102
RTVSPropertyOp11
 70
     1
102
RTVSPropertyOp12
 70
     1
102
RTVSPropertyOp13
 70
     1
102
RTVSPropertyOp14
 70
     1
102
RTVSPropertyOp15
 70
     1
102
RTVSPropertyOp16
 70
     1
102
RTVSPropertyOp17
 70
     1
102
RTVSPropertyOp18
 70
     1
102
RTVSPropertyOp19
 70
     1
102
RTVSPropertyOp20
 70
     1
102
RTVSPropertyOp21
 70
     1
102
RTVSPropertyOp22
 70
     1
102
RTVSPropertyOp23
 70
     1
102
RTVSPropertyOp24
 70
     1
102
RTVSPropertyOp25
 70
     1
102
RTVSPropertyOp26
 70
     1
102
RTVSPropertyOp27
 70
     1
102
RTVSPropertyOp28
 70
     1
102
RTVSPropertyOp29
 70
     1
102
RTVSPropertyOp30
 70
     1
102
RTVSPropertyOp31
 70
     1
102
RTVSPropertyOp32
 70
     1
102
RTVSPropertyOp33
 70
     1
102
RTVSPropertyOp34
 70
     1
102
RTVSPropertyOp35
 70
     1
102
RTVSPropertyOp36
 70
     1
102
RTVSPropertyOp37
 70
     1
102
RTVSPropertyOp38
 70
     1
102
RTVSPropertyOp39
 70
     1
102
RTVSPropertyOp40
 70
     1
102
RTVSPropertyOp41
 70
     1
102
RTVSPropertyOp42
 70
     1
102
RTVSPropertyOp43
 70
     1
102
RTVSPropertyOp44
 70
     1
102
RTVSPropertyOp45
 70
     1
102
RTVSPropertyOp46
 70
     1
102
RTVSPropertyOp47
 70
     1
102
RTVSPropertyOp48
 70
     1
102
RTVSPropertyOp49
 70
     1
102
RTVSPropertyOp50
 70
     1
102
RTVSPropertyOp51
 70
     0
102
RTVSPropertyOp52
 70
     0
102
RTVSPropertyOp53
 70
     1
102
RTVSPropertyOp54
 70
     1
102
RTVSPropertyOp55
 70
     1
102
RTVSPropertyOp56
 70
     1
102
RTVSPropertyOp57
 70
     1
102
RTVSPost2010Prop28
280
     0
102
RTVSPost2010PropOp28
 70
     1
102
RTVSPost2010Prop29
280
     1
102
RTVSPost2010PropOp29
 70
     1
102
RTVSPost2010Prop30
280
     1
102
RTVSPost2010PropOp30
 70
     1
102
RTVSPost2010Prop31
280
     0
102
RTVSPost2010PropOp31
 70
     1
102
RTVSPost2010Prop32
280
     0
102
RTVSPost2010PropOp32
 70
     1
102
RTVSPost2010Prop33
280
     0
102
RTVSPost2010PropOp33
 70
     1
102
RTVSPost2010Prop34
280
     0
102
RTVSPost2010PropOp34
 70
     1
102
RTVSPost2010Prop35
280
     0
102
RTVSPost2010PropOp35
 70
     1
102
RTVSPost2010Prop36
280
     0
102
RTVSPost2010PropOp36
 70
     1
102
RTVSPost2010Prop37
 90
       50
102
RTVSPost2010PropOp37
 70
     1
102
RTVSPost2010Prop38
140
0.0
102
RTVSPost2010PropOp38
 70
     1
102
RTVSPost2010Prop39
140
1.0
102
RTVSPost2010PropOp39
 70
     1
102
RTVSPost2010Prop40
 90
        0
102
RTVSPost2010PropOp40
 70
     1
102
RTVSPost2010Prop41ColorIndex
 90
       18
102
RTVSPost2010Prop41ColorRGB
 90
        0
102
RTVSPost2010PropOp41
 70
     1
102
RTVSPost2010Prop42
 90
       50
102
RTVSPost2010PropOp42
 70
     1
102
RTVSPost2010Prop43
 90
        3
102
RTVSPost2010PropOp43
 70
     1
102
RTVSPost2010Prop44ColorIndex
 90
        5
102
RTVSPost2010Prop44ColorRGB
 90
      255
102
RTVSPost2010PropOp44
 70
     1
102
RTVSPost2010Prop45
280
     0
102
RTVSPost2010PropOp45
 70
     1
102
RTVSPost2010Prop46
 90
       50
102
RTVSPost2010PropOp46
 70
     1
102
RTVSPost2010Prop47
 90
       50
102
RTVSPost2010PropOp47
 70
     1
102
RTVSPost2010Prop48
 90
       50
102
RTVSPost2010PropOp48
 70
     1
102
RTVSPost2010Prop49
280
     0
102
RTVSPost2010PropOp49
 70
     1
102
RTVSPost2010Prop50
 90
       50
102
RTVSPost2010PropOp50
 70
     1
102
RTVSPost2010Prop51ColorIndex
 90
      256
102
RTVSPost2010Prop51ColorRGB
 90
-16777216
102
RTVSPost2010PropOp51
 70
     0
102
RTVSPost2010Prop52
140
1.0
102
RTVSPost2010PropOp52
 70
     0
102
RTVSPost2010Prop53
 90
        2
102
RTVSPost2010PropOp53
 70
     1
102
RTVSPost2010Prop54
  1
strokes_ogs.tif
102
RTVSPost2010PropOp54
 70
     1
102
RTVSPost2010Prop55
280
     0
102
RTVSPost2010PropOp55
 70
     1
102
RTVSPost2010Prop56
140
1.0
102
RTVSPost2010PropOp56
 70
     1
102
RTVSPost2010Prop57
140
1.0
102
RTVSPost2010PropOp57
 70
     1
  0
XRECORD
  5
3DC
102
{ACAD_REACTORS
330
3DB
102
}
330
3DB
100
AcDbXrecord
280
     1
102
RTVSPropertyOp0
 70
     1
102
RTVSPropertyOp1
 70
     1
102
RTVSPropertyOp2
 70
     1
102
RTVSPropertyOp3
 70
     1
102
RTVSPropertyOp4
 70
     1
102
RTVSPropertyOp5
 70
     1
102
RTVSPropertyOp6
 70
     1
102
RTVSPropertyOp7
 70
     1
102
RTVSPropertyOp8
 70
     1
102
RTVSPropertyOp9
 70
     1
102
RTVSPropertyOp10
 70
     1
102
RTVSPropertyOp11
 70
     1
102
RTVSPropertyOp12
 70
     1
102
RTVSPropertyOp13
 70
     1
102
RTVSPropertyOp14
 70
     1
102
RTVSPropertyOp15
 70
     1
102
RTVSPropertyOp16
 70
     1
102
RTVSPropertyOp17
 70
     1
102
RTVSPropertyOp18
 70
     1
102
RTVSPropertyOp19
 70
     1
102
RTVSPropertyOp20
 70
     1
102
RTVSPropertyOp21
 70
     1
102
RTVSPropertyOp22
 70
     1
102
RTVSPropertyOp23
 70
     1
102
RTVSPropertyOp24
 70
     1
102
RTVSPropertyOp25
 70
     1
102
RTVSPropertyOp26
 70
     1
102
RTVSPropertyOp27
 70
     1
102
RTVSPropertyOp28
 70
     1
102
RTVSPropertyOp29
 70
     1
102
RTVSPropertyOp30
 70
     1
102
RTVSPropertyOp31
 70
     1
102
RTVSPropertyOp32
 70
     1
102
RTVSPropertyOp33
 70
     1
102
RTVSPropertyOp34
 70
     1
102
RTVSPropertyOp35
 70
     1
102
RTVSPropertyOp36
 70
     1
102
RTVSPropertyOp37
 70
     1
102
RTVSPropertyOp38
 70
     1
102
RTVSPropertyOp39
 70
     1
102
RTVSPropertyOp40
 70
     1
102
RTVSPropertyOp41
 70
     1
102
RTVSPropertyOp42
 70
     1
102
RTVSPropertyOp43
 70
     1
102
RTVSPropertyOp44
 70
     1
102
RTVSPropertyOp45
 70
     1
102
RTVSPropertyOp46
 70
     1
102
RTVSPropertyOp47
 70
     1
102
RTVSPropertyOp48
 70
     1
102
RTVSPropertyOp49
 70
     1
102
RTVSPropertyOp50
 70
     1
102
RTVSPropertyOp51
 70
     0
102
RTVSPropertyOp52
 70
     0
102
RTVSPropertyOp53
 70
     1
102
RTVSPropertyOp54
 70
     1
102
RTVSPropertyOp55
 70
     1
102
RTVSPropertyOp56
 70
     1
102
RTVSPropertyOp57
 70
     1
102
RTVSPost2010Prop28
280
     0
102
RTVSPost2010PropOp28
 70
     1
102
RTVSPost2010Prop29
280
     1
102
RTVSPost2010PropOp29
 70
     1
102
RTVSPost2010Prop30
280
     1
102
RTVSPost2010PropOp30
 70
     1
102
RTVSPost2010Prop31
280
     0
102
RTVSPost2010PropOp31
 70
     1
102
RTVSPost2010Prop32
280
     0
102
RTVSPost2010PropOp32
 70
     1
102
RTVSPost2010Prop33
280
     0
102
RTVSPost2010PropOp33
 70
     1
102
RTVSPost2010Prop34
280
     0
102
RTVSPost2010PropOp34
 70
     1
102
RTVSPost2010Prop35
280
     0
102
RTVSPost2010PropOp35
 70
     1
102
RTVSPost2010Prop36
280
     0
102
RTVSPost2010PropOp36
 70
     1
102
RTVSPost2010Prop37
 90
       50
102
RTVSPost2010PropOp37
 70
     1
102
RTVSPost2010Prop38
140
0.0
102
RTVSPost2010PropOp38
 70
     1
102
RTVSPost2010Prop39
140
1.0
102
RTVSPost2010PropOp39
 70
     1
102
RTVSPost2010Prop40
 90
        0
102
RTVSPost2010PropOp40
 70
     1
102
RTVSPost2010Prop41ColorIndex
 90
       18
102
RTVSPost2010Prop41ColorRGB
 90
        0
102
RTVSPost2010PropOp41
 70
     1
102
RTVSPost2010Prop42
 90
       50
102
RTVSPost2010PropOp42
 70
     1
102
RTVSPost2010Prop43
 90
        3
102
RTVSPost2010PropOp43
 70
     1
102
RTVSPost2010Prop44ColorIndex
 90
        5
102
RTVSPost2010Prop44ColorRGB
 90
      255
102
RTVSPost2010PropOp44
 70
     1
102
RTVSPost2010Prop45
280
     0
102
RTVSPost2010PropOp45
 70
     1
102
RTVSPost2010Prop46
 90
       50
102
RTVSPost2010PropOp46
 70
     1
102
RTVSPost2010Prop47
 90
       50
102
RTVSPost2010PropOp47
 70
     1
102
RTVSPost2010Prop48
 90
       50
102
RTVSPost2010PropOp48
 70
     1
102
RTVSPost2010Prop49
280
     0
102
RTVSPost2010PropOp49
 70
     1
102
RTVSPost2010Prop50
 90
       50
102
RTVSPost2010PropOp50
 70
     1
102
RTVSPost2010Prop51ColorIndex
 90
      256
102
RTVSPost2010Prop51ColorRGB
 90
-16777216
102
RTVSPost2010PropOp51
 70
     0
102
RTVSPost2010Prop52
140
1.0
102
RTVSPost2010PropOp52
 70
     0
102
RTVSPost2010Prop53
 90
        2
102
RTVSPost2010PropOp53
 70
     1
102
RTVSPost2010Prop54
  1
strokes_ogs.tif
102
RTVSPost2010PropOp54
 70
     1
102
RTVSPost2010Prop55
280
     0
102
RTVSPost2010PropOp55
 70
     1
102
RTVSPost2010Prop56
140
1.0
102
RTVSPost2010PropOp56
 70
     1
102
RTVSPost2010Prop57
140
1.0
102
RTVSPost2010PropOp57
 70
     1
  0
XRECORD
  5
3DE
102
{ACAD_REACTORS
330
3DD
102
}
330
3DD
100
AcDbXrecord
280
     1
102
RTVSPropertyOp0
 70
     1
102
RTVSPropertyOp1
 70
     1
102
RTVSPropertyOp2
 70
     1
102
RTVSPropertyOp3
 70
     1
102
RTVSPropertyOp4
 70
     1
102
RTVSPropertyOp5
 70
     1
102
RTVSPropertyOp6
 70
     1
102
RTVSPropertyOp7
 70
     1
102
RTVSPropertyOp8
 70
     1
102
RTVSPropertyOp9
 70
     1
102
RTVSPropertyOp10
 70
     1
102
RTVSPropertyOp11
 70
     1
102
RTVSPropertyOp12
 70
     1
102
RTVSPropertyOp13
 70
     1
102
RTVSPropertyOp14
 70
     1
102
RTVSPropertyOp15
 70
     1
102
RTVSPropertyOp16
 70
     1
102
RTVSPropertyOp17
 70
     1
102
RTVSPropertyOp18
 70
     1
102
RTVSPropertyOp19
 70
     1
102
RTVSPropertyOp20
 70
     1
102
RTVSPropertyOp21
 70
     1
102
RTVSPropertyOp22
 70
     1
102
RTVSPropertyOp23
 70
     1
102
RTVSPropertyOp24
 70
     1
102
RTVSPropertyOp25
 70
     1
102
RTVSPropertyOp26
 70
     1
102
RTVSPropertyOp27
 70
     1
102
RTVSPropertyOp28
 70
     1
102
RTVSPropertyOp29
 70
     1
102
RTVSPropertyOp30
 70
     1
102
RTVSPropertyOp31
 70
     1
102
RTVSPropertyOp32
 70
     1
102
RTVSPropertyOp33
 70
     1
102
RTVSPropertyOp34
 70
     1
102
RTVSPropertyOp35
 70
     1
102
RTVSPropertyOp36
 70
     1
102
RTVSPropertyOp37
 70
     1
102
RTVSPropertyOp38
 70
     1
102
RTVSPropertyOp39
 70
     1
102
RTVSPropertyOp40
 70
     1
102
RTVSPropertyOp41
 70
     1
102
RTVSPropertyOp42
 70
     1
102
RTVSPropertyOp43
 70
     1
102
RTVSPropertyOp44
 70
     1
102
RTVSPropertyOp45
 70
     1
102
RTVSPropertyOp46
 70
     1
102
RTVSPropertyOp47
 70
     1
102
RTVSPropertyOp48
 70
     1
102
RTVSPropertyOp49
 70
     1
102
RTVSPropertyOp50
 70
     1
102
RTVSPropertyOp51
 70
     0
102
RTVSPropertyOp52
 70
     0
102
RTVSPropertyOp53
 70
     1
102
RTVSPropertyOp54
 70
     1
102
RTVSPropertyOp55
 70
     1
102
RTVSPropertyOp56
 70
     1
102
RTVSPropertyOp57
 70
     1
102
RTVSPost2010Prop28
280
     0
102
RTVSPost2010PropOp28
 70
     1
102
RTVSPost2010Prop29
280
     1
102
RTVSPost2010PropOp29
 70
     1
102
RTVSPost2010Prop30
280
     1
102
RTVSPost2010PropOp30
 70
     1
102
RTVSPost2010Prop31
280
     0
102
RTVSPost2010PropOp31
 70
     1
102
RTVSPost2010Prop32
280
     0
102
RTVSPost2010PropOp32
 70
     1
102
RTVSPost2010Prop33
280
     0
102
RTVSPost2010PropOp33
 70
     1
102
RTVSPost2010Prop34
280
     0
102
RTVSPost2010PropOp34
 70
     1
102
RTVSPost2010Prop35
280
     0
102
RTVSPost2010PropOp35
 70
     1
102
RTVSPost2010Prop36
280
     0
102
RTVSPost2010PropOp36
 70
     1
102
RTVSPost2010Prop37
 90
       50
102
RTVSPost2010PropOp37
 70
     1
102
RTVSPost2010Prop38
140
0.0
102
RTVSPost2010PropOp38
 70
     1
102
RTVSPost2010Prop39
140
1.0
102
RTVSPost2010PropOp39
 70
     1
102
RTVSPost2010Prop40
 90
        0
102
RTVSPost2010PropOp40
 70
     1
102
RTVSPost2010Prop41ColorIndex
 90
       18
102
RTVSPost2010Prop41ColorRGB
 90
        0
102
RTVSPost2010PropOp41
 70
     1
102
RTVSPost2010Prop42
 90
       50
102
RTVSPost2010PropOp42
 70
     1
102
RTVSPost2010Prop43
 90
        3
102
RTVSPost2010PropOp43
 70
     1
102
RTVSPost2010Prop44ColorIndex
 90
        5
102
RTVSPost2010Prop44ColorRGB
 90
      255
102
RTVSPost2010PropOp44
 70
     1
102
RTVSPost2010Prop45
280
     0
102
RTVSPost2010PropOp45
 70
     1
102
RTVSPost2010Prop46
 90
       50
102
RTVSPost2010PropOp46
 70
     1
102
RTVSPost2010Prop47
 90
       50
102
RTVSPost2010PropOp47
 70
     1
102
RTVSPost2010Prop48
 90
       50
102
RTVSPost2010PropOp48
 70
     1
102
RTVSPost2010Prop49
280
     0
102
RTVSPost2010PropOp49
 70
     1
102
RTVSPost2010Prop50
 90
       50
102
RTVSPost2010PropOp50
 70
     1
102
RTVSPost2010Prop51ColorIndex
 90
      256
102
RTVSPost2010Prop51ColorRGB
 90
-16777216
102
RTVSPost2010PropOp51
 70
     0
102
RTVSPost2010Prop52
140
1.0
102
RTVSPost2010PropOp52
 70
     0
102
RTVSPost2010Prop53
 90
        2
102
RTVSPost2010PropOp53
 70
     1
102
RTVSPost2010Prop54
  1
strokes_ogs.tif
102
RTVSPost2010PropOp54
 70
     1
102
RTVSPost2010Prop55
280
     0
102
RTVSPost2010PropOp55
 70
     1
102
RTVSPost2010Prop56
140
1.0
102
RTVSPost2010PropOp56
 70
     1
102
RTVSPost2010Prop57
140
1.0
102
RTVSPost2010PropOp57
 70
     1
  0
XRECORD
  5
3EE
102
{ACAD_REACTORS
330
3ED
102
}
330
3ED
100
AcDbXrecord
280
     1
102
RTVSPropertyOp0
 70
     0
102
RTVSPropertyOp1
 70
     0
102
RTVSPropertyOp2
 70
     0
102
RTVSPropertyOp3
 70
     0
102
RTVSPropertyOp4
 70
     0
102
RTVSPropertyOp5
 70
     0
102
RTVSPropertyOp6
 70
     0
102
RTVSPropertyOp7
 70
     0
102
RTVSPropertyOp8
 70
     0
102
RTVSPropertyOp9
 70
     0
102
RTVSPropertyOp10
 70
     0
102
RTVSPropertyOp11
 70
     0
102
RTVSPropertyOp12
 70
     0
102
RTVSPropertyOp13
 70
     0
102
RTVSPropertyOp14
 70
     2
102
RTVSPropertyOp15
 70
     0
102
RTVSPropertyOp16
 70
     0
102
RTVSPropertyOp17
 70
     0
102
RTVSPropertyOp18
 70
     0
102
RTVSPropertyOp19
 70
     0
102
RTVSPropertyOp20
 70
     0
102
RTVSPropertyOp21
 70
     0
102
RTVSPropertyOp22
 70
     0
102
RTVSPropertyOp23
 70
     0
102
RTVSPropertyOp24
 70
     0
102
RTVSPropertyOp25
 70
     0
102
RTVSPropertyOp26
 70
     0
102
RTVSPropertyOp27
 70
     0
102
RTVSPropertyOp28
 70
     0
102
RTVSPropertyOp29
 70
     0
102
RTVSPropertyOp30
 70
     0
102
RTVSPropertyOp31
 70
     0
102
RTVSPropertyOp32
 70
     0
102
RTVSPropertyOp33
 70
     0
102
RTVSPropertyOp34
 70
     0
102
RTVSPropertyOp35
 70
     0
102
RTVSPropertyOp36
 70
     0
102
RTVSPropertyOp37
 70
     0
102
RTVSPropertyOp38
 70
     0
102
RTVSPropertyOp39
 70
     0
102
RTVSPropertyOp40
 70
     0
102
RTVSPropertyOp41
 70
     0
102
RTVSPropertyOp42
 70
     0
102
RTVSPropertyOp43
 70
     0
102
RTVSPropertyOp44
 70
     0
102
RTVSPropertyOp45
 70
     0
102
RTVSPropertyOp46
 70
     0
102
RTVSPropertyOp47
 70
     0
102
RTVSPropertyOp48
 70
     0
102
RTVSPropertyOp49
 70
     0
102
RTVSPropertyOp50
 70
     0
102
RTVSPropertyOp51
 70
     0
102
RTVSPropertyOp52
 70
     0
102
RTVSPropertyOp53
 70
     0
102
RTVSPropertyOp54
 70
     0
102
RTVSPropertyOp55
 70
     0
102
RTVSPropertyOp56
 70
     0
102
RTVSPropertyOp57
 70
     0
102
RTVSPost2010Prop28
280
     0
102
RTVSPost2010PropOp28
 70
     0
102
RTVSPost2010Prop29
280
     1
102
RTVSPost2010PropOp29
 70
     0
102
RTVSPost2010Prop30
280
     1
102
RTVSPost2010PropOp30
 70
     0
102
RTVSPost2010Prop31
280
     0
102
RTVSPost2010PropOp31
 70
     0
102
RTVSPost2010Prop32
280
     0
102
RTVSPost2010PropOp32
 70
     0
102
RTVSPost2010Prop33
280
     0
102
RTVSPost2010PropOp33
 70
     0
102
RTVSPost2010Prop34
280
     0
102
RTVSPost2010PropOp34
 70
     0
102
RTVSPost2010Prop35
280
     0
102
RTVSPost2010PropOp35
 70
     0
102
RTVSPost2010Prop36
280
     0
102
RTVSPost2010PropOp36
 70
     0
102
RTVSPost2010Prop37
 90
       50
102
RTVSPost2010PropOp37
 70
     0
102
RTVSPost2010Prop38
140
0.0
102
RTVSPost2010PropOp38
 70
     0
102
RTVSPost2010Prop39
140
1.0
102
RTVSPost2010PropOp39
 70
     0
102
RTVSPost2010Prop40
 90
        0
102
RTVSPost2010PropOp40
 70
     0
102
RTVSPost2010Prop41ColorIndex
 90
       18
102
RTVSPost2010Prop41ColorRGB
 90
        0
102
RTVSPost2010PropOp41
 70
     0
102
RTVSPost2010Prop42
 90
       50
102
RTVSPost2010PropOp42
 70
     0
102
RTVSPost2010Prop43
 90
        3
102
RTVSPost2010PropOp43
 70
     0
102
RTVSPost2010Prop44ColorIndex
 90
        5
102
RTVSPost2010Prop44ColorRGB
 90
      255
102
RTVSPost2010PropOp44
 70
     0
102
RTVSPost2010Prop45
280
     0
102
RTVSPost2010PropOp45
 70
     0
102
RTVSPost2010Prop46
 90
       50
102
RTVSPost2010PropOp46
 70
     0
102
RTVSPost2010Prop47
 90
       50
102
RTVSPost2010PropOp47
 70
     0
102
RTVSPost2010Prop48
 90
       50
102
RTVSPost2010PropOp48
 70
     0
102
RTVSPost2010Prop49
280
     0
102
RTVSPost2010PropOp49
 70
     0
102
RTVSPost2010Prop50
 90
       50
102
RTVSPost2010PropOp50
 70
     0
102
RTVSPost2010Prop51ColorIndex
 90
      256
102
RTVSPost2010Prop51ColorRGB
 90
-16777216
102
RTVSPost2010PropOp51
 70
     0
102
RTVSPost2010Prop52
140
1.0
102
RTVSPost2010PropOp52
 70
     0
102
RTVSPost2010Prop53
 90
        2
102
RTVSPost2010PropOp53
 70
     0
102
RTVSPost2010Prop54
  1
strokes_ogs.tif
102
RTVSPost2010PropOp54
 70
     0
102
RTVSPost2010Prop55
280
     0
102
RTVSPost2010PropOp55
 70
     0
102
RTVSPost2010Prop56
140
1.0
102
RTVSPost2010PropOp56
 70
     0
102
RTVSPost2010Prop57
140
1.0
102
RTVSPost2010PropOp57
 70
     0
  0
XRECORD
  5
3E6
102
{ACAD_REACTORS
330
3E5
102
}
330
3E5
100
AcDbXrecord
280
     1
102
RTVSPropertyOp0
 70
     1
102
RTVSPropertyOp1
 70
     1
102
RTVSPropertyOp2
 70
     1
102
RTVSPropertyOp3
 70
     1
102
RTVSPropertyOp4
 70
     1
102
RTVSPropertyOp5
 70
     1
102
RTVSPropertyOp6
 70
     1
102
RTVSPropertyOp7
 70
     1
102
RTVSPropertyOp8
 70
     1
102
RTVSPropertyOp9
 70
     1
102
RTVSPropertyOp10
 70
     1
102
RTVSPropertyOp11
 70
     1
102
RTVSPropertyOp12
 70
     1
102
RTVSPropertyOp13
 70
     1
102
RTVSPropertyOp14
 70
     1
102
RTVSPropertyOp15
 70
     1
102
RTVSPropertyOp16
 70
     1
102
RTVSPropertyOp17
 70
     1
102
RTVSPropertyOp18
 70
     1
102
RTVSPropertyOp19
 70
     1
102
RTVSPropertyOp20
 70
     1
102
RTVSPropertyOp21
 70
     1
102
RTVSPropertyOp22
 70
     1
102
RTVSPropertyOp23
 70
     1
102
RTVSPropertyOp24
 70
     1
102
RTVSPropertyOp25
 70
     1
102
RTVSPropertyOp26
 70
     1
102
RTVSPropertyOp27
 70
     1
102
RTVSPropertyOp28
 70
     1
102
RTVSPropertyOp29
 70
     1
102
RTVSPropertyOp30
 70
     1
102
RTVSPropertyOp31
 70
     1
102
RTVSPropertyOp32
 70
     1
102
RTVSPropertyOp33
 70
     1
102
RTVSPropertyOp34
 70
     1
102
RTVSPropertyOp35
 70
     1
102
RTVSPropertyOp36
 70
     1
102
RTVSPropertyOp37
 70
     1
102
RTVSPropertyOp38
 70
     1
102
RTVSPropertyOp39
 70
     1
102
RTVSPropertyOp40
 70
     1
102
RTVSPropertyOp41
 70
     1
102
RTVSPropertyOp42
 70
     1
102
RTVSPropertyOp43
 70
     1
102
RTVSPropertyOp44
 70
     1
102
RTVSPropertyOp45
 70
     1
102
RTVSPropertyOp46
 70
     1
102
RTVSPropertyOp47
 70
     1
102
RTVSPropertyOp48
 70
     1
102
RTVSPropertyOp49
 70
     1
102
RTVSPropertyOp50
 70
     1
102
RTVSPropertyOp51
 70
     0
102
RTVSPropertyOp52
 70
     0
102
RTVSPropertyOp53
 70
     1
102
RTVSPropertyOp54
 70
     1
102
RTVSPropertyOp55
 70
     1
102
RTVSPropertyOp56
 70
     1
102
RTVSPropertyOp57
 70
     1
102
RTVSPost2010Prop28
280
     0
102
RTVSPost2010PropOp28
 70
     1
102
RTVSPost2010Prop29
280
     1
102
RTVSPost2010PropOp29
 70
     1
102
RTVSPost2010Prop30
280
     1
102
RTVSPost2010PropOp30
 70
     1
102
RTVSPost2010Prop31
280
     0
102
RTVSPost2010PropOp31
 70
     1
102
RTVSPost2010Prop32
280
     0
102
RTVSPost2010PropOp32
 70
     1
102
RTVSPost2010Prop33
280
     0
102
RTVSPost2010PropOp33
 70
     1
102
RTVSPost2010Prop34
280
     0
102
RTVSPost2010PropOp34
 70
     1
102
RTVSPost2010Prop35
280
     0
102
RTVSPost2010PropOp35
 70
     1
102
RTVSPost2010Prop36
280
     0
102
RTVSPost2010PropOp36
 70
     1
102
RTVSPost2010Prop37
 90
       50
102
RTVSPost2010PropOp37
 70
     1
102
RTVSPost2010Prop38
140
0.0
102
RTVSPost2010PropOp38
 70
     1
102
RTVSPost2010Prop39
140
1.0
102
RTVSPost2010PropOp39
 70
     1
102
RTVSPost2010Prop40
 90
        0
102
RTVSPost2010PropOp40
 70
     1
102
RTVSPost2010Prop41ColorIndex
 90
       18
102
RTVSPost2010Prop41ColorRGB
 90
        0
102
RTVSPost2010PropOp41
 70
     1
102
RTVSPost2010Prop42
 90
       50
102
RTVSPost2010PropOp42
 70
     1
102
RTVSPost2010Prop43
 90
        3
102
RTVSPost2010PropOp43
 70
     1
102
RTVSPost2010Prop44ColorIndex
 90
        5
102
RTVSPost2010Prop44ColorRGB
 90
      255
102
RTVSPost2010PropOp44
 70
     1
102
RTVSPost2010Prop45
280
     0
102
RTVSPost2010PropOp45
 70
     1
102
RTVSPost2010Prop46
 90
       50
102
RTVSPost2010PropOp46
 70
     1
102
RTVSPost2010Prop47
 90
       50
102
RTVSPost2010PropOp47
 70
     1
102
RTVSPost2010Prop48
 90
       50
102
RTVSPost2010PropOp48
 70
     1
102
RTVSPost2010Prop49
280
     0
102
RTVSPost2010PropOp49
 70
     1
102
RTVSPost2010Prop50
 90
       50
102
RTVSPost2010PropOp50
 70
     1
102
RTVSPost2010Prop51ColorIndex
 90
      256
102
RTVSPost2010Prop51ColorRGB
 90
-16777216
102
RTVSPost2010PropOp51
 70
     0
102
RTVSPost2010Prop52
140
1.0
102
RTVSPost2010PropOp52
 70
     0
102
RTVSPost2010Prop53
 90
        2
102
RTVSPost2010PropOp53
 70
     1
102
RTVSPost2010Prop54
  1
strokes_ogs.tif
102
RTVSPost2010PropOp54
 70
     1
102
RTVSPost2010Prop55
280
     0
102
RTVSPost2010PropOp55
 70
     1
102
RTVSPost2010Prop56
140
1.0
102
RTVSPost2010PropOp56
 70
     1
102
RTVSPost2010Prop57
140
1.0
102
RTVSPost2010PropOp57
 70
     1
  0
XRECORD
  5
3CA
102
{ACAD_REACTORS
330
3C9
102
}
330
3C9
100
AcDbXrecord
280
     1
102
RTVSPropertyOp0
 70
     1
102
RTVSPropertyOp1
 70
     1
102
RTVSPropertyOp2
 70
     1
102
RTVSPropertyOp3
 70
     1
102
RTVSPropertyOp4
 70
     1
102
RTVSPropertyOp5
 70
     1
102
RTVSPropertyOp6
 70
     1
102
RTVSPropertyOp7
 70
     1
102
RTVSPropertyOp8
 70
     1
102
RTVSPropertyOp9
 70
     1
102
RTVSPropertyOp10
 70
     1
102
RTVSPropertyOp11
 70
     1
102
RTVSPropertyOp12
 70
     1
102
RTVSPropertyOp13
 70
     1
102
RTVSPropertyOp14
 70
     1
102
RTVSPropertyOp15
 70
     1
102
RTVSPropertyOp16
 70
     1
102
RTVSPropertyOp17
 70
     1
102
RTVSPropertyOp18
 70
     1
102
RTVSPropertyOp19
 70
     1
102
RTVSPropertyOp20
 70
     1
102
RTVSPropertyOp21
 70
     1
102
RTVSPropertyOp22
 70
     1
102
RTVSPropertyOp23
 70
     1
102
RTVSPropertyOp24
 70
     1
102
RTVSPropertyOp25
 70
     1
102
RTVSPropertyOp26
 70
     1
102
RTVSPropertyOp27
 70
     1
102
RTVSPropertyOp28
 70
     1
102
RTVSPropertyOp29
 70
     1
102
RTVSPropertyOp30
 70
     1
102
RTVSPropertyOp31
 70
     1
102
RTVSPropertyOp32
 70
     1
102
RTVSPropertyOp33
 70
     1
102
RTVSPropertyOp34
 70
     1
102
RTVSPropertyOp35
 70
     1
102
RTVSPropertyOp36
 70
     1
102
RTVSPropertyOp37
 70
     1
102
RTVSPropertyOp38
 70
     1
102
RTVSPropertyOp39
 70
     1
102
RTVSPropertyOp40
 70
     1
102
RTVSPropertyOp41
 70
     1
102
RTVSPropertyOp42
 70
     1
102
RTVSPropertyOp43
 70
     1
102
RTVSPropertyOp44
 70
     1
102
RTVSPropertyOp45
 70
     1
102
RTVSPropertyOp46
 70
     1
102
RTVSPropertyOp47
 70
     1
102
RTVSPropertyOp48
 70
     1
102
RTVSPropertyOp49
 70
     1
102
RTVSPropertyOp50
 70
     1
102
RTVSPropertyOp51
 70
     0
102
RTVSPropertyOp52
 70
     0
102
RTVSPropertyOp53
 70
     1
102
RTVSPropertyOp54
 70
     1
102
RTVSPropertyOp55
 70
     1
102
RTVSPropertyOp56
 70
     1
102
RTVSPropertyOp57
 70
     1
102
RTVSPost2010Prop28
280
     0
102
RTVSPost2010PropOp28
 70
     1
102
RTVSPost2010Prop29
280
     1
102
RTVSPost2010PropOp29
 70
     1
102
RTVSPost2010Prop30
280
     1
102
RTVSPost2010PropOp30
 70
     1
102
RTVSPost2010Prop31
280
     0
102
RTVSPost2010PropOp31
 70
     1
102
RTVSPost2010Prop32
280
     0
102
RTVSPost2010PropOp32
 70
     1
102
RTVSPost2010Prop33
280
     0
102
RTVSPost2010PropOp33
 70
     1
102
RTVSPost2010Prop34
280
     0
102
RTVSPost2010PropOp34
 70
     1
102
RTVSPost2010Prop35
280
     0
102
RTVSPost2010PropOp35
 70
     1
102
RTVSPost2010Prop36
280
     0
102
RTVSPost2010PropOp36
 70
     1
102
RTVSPost2010Prop37
 90
       50
102
RTVSPost2010PropOp37
 70
     1
102
RTVSPost2010Prop38
140
0.0
102
RTVSPost2010PropOp38
 70
     1
102
RTVSPost2010Prop39
140
1.0
102
RTVSPost2010PropOp39
 70
     1
102
RTVSPost2010Prop40
 90
        0
102
RTVSPost2010PropOp40
 70
     1
102
RTVSPost2010Prop41ColorIndex
 90
       18
102
RTVSPost2010Prop41ColorRGB
 90
        0
102
RTVSPost2010PropOp41
 70
     1
102
RTVSPost2010Prop42
 90
       50
102
RTVSPost2010PropOp42
 70
     1
102
RTVSPost2010Prop43
 90
        3
102
RTVSPost2010PropOp43
 70
     1
102
RTVSPost2010Prop44ColorIndex
 90
        5
102
RTVSPost2010Prop44ColorRGB
 90
      255
102
RTVSPost2010PropOp44
 70
     1
102
RTVSPost2010Prop45
280
     0
102
RTVSPost2010PropOp45
 70
     1
102
RTVSPost2010Prop46
 90
       50
102
RTVSPost2010PropOp46
 70
     1
102
RTVSPost2010Prop47
 90
       50
102
RTVSPost2010PropOp47
 70
     1
102
RTVSPost2010Prop48
 90
       50
102
RTVSPost2010PropOp48
 70
     1
102
RTVSPost2010Prop49
280
     0
102
RTVSPost2010PropOp49
 70
     1
102
RTVSPost2010Prop50
 90
       50
102
RTVSPost2010PropOp50
 70
     1
102
RTVSPost2010Prop51ColorIndex
 90
      256
102
RTVSPost2010Prop51ColorRGB
 90
-16777216
102
RTVSPost2010PropOp51
 70
     0
102
RTVSPost2010Prop52
140
1.0
102
RTVSPost2010PropOp52
 70
     0
102
RTVSPost2010Prop53
 90
        2
102
RTVSPost2010PropOp53
 70
     1
102
RTVSPost2010Prop54
  1
strokes_ogs.tif
102
RTVSPost2010PropOp54
 70
     1
102
RTVSPost2010Prop55
280
     0
102
RTVSPost2010PropOp55
 70
     1
102
RTVSPost2010Prop56
140
1.0
102
RTVSPost2010PropOp56
 70
     1
102
RTVSPost2010Prop57
140
1.0
102
RTVSPost2010PropOp57
 70
     1
  0
XRECORD
  5
3CC
102
{ACAD_REACTORS
330
3CB
102
}
330
3CB
100
AcDbXrecord
280
     1
102
RTVSPropertyOp0
 70
     1
102
RTVSPropertyOp1
 70
     1
102
RTVSPropertyOp2
 70
     1
102
RTVSPropertyOp3
 70
     1
102
RTVSPropertyOp4
 70
     1
102
RTVSPropertyOp5
 70
     1
102
RTVSPropertyOp6
 70
     1
102
RTVSPropertyOp7
 70
     1
102
RTVSPropertyOp8
 70
     1
102
RTVSPropertyOp9
 70
     1
102
RTVSPropertyOp10
 70
     1
102
RTVSPropertyOp11
 70
     1
102
RTVSPropertyOp12
 70
     1
102
RTVSPropertyOp13
 70
     1
102
RTVSPropertyOp14
 70
     1
102
RTVSPropertyOp15
 70
     1
102
RTVSPropertyOp16
 70
     1
102
RTVSPropertyOp17
 70
     1
102
RTVSPropertyOp18
 70
     1
102
RTVSPropertyOp19
 70
     1
102
RTVSPropertyOp20
 70
     1
102
RTVSPropertyOp21
 70
     1
102
RTVSPropertyOp22
 70
     1
102
RTVSPropertyOp23
 70
     1
102
RTVSPropertyOp24
 70
     1
102
RTVSPropertyOp25
 70
     1
102
RTVSPropertyOp26
 70
     1
102
RTVSPropertyOp27
 70
     1
102
RTVSPropertyOp28
 70
     1
102
RTVSPropertyOp29
 70
     1
102
RTVSPropertyOp30
 70
     1
102
RTVSPropertyOp31
 70
     1
102
RTVSPropertyOp32
 70
     1
102
RTVSPropertyOp33
 70
     1
102
RTVSPropertyOp34
 70
     1
102
RTVSPropertyOp35
 70
     1
102
RTVSPropertyOp36
 70
     1
102
RTVSPropertyOp37
 70
     1
102
RTVSPropertyOp38
 70
     1
102
RTVSPropertyOp39
 70
     1
102
RTVSPropertyOp40
 70
     1
102
RTVSPropertyOp41
 70
     1
102
RTVSPropertyOp42
 70
     1
102
RTVSPropertyOp43
 70
     1
102
RTVSPropertyOp44
 70
     1
102
RTVSPropertyOp45
 70
     1
102
RTVSPropertyOp46
 70
     1
102
RTVSPropertyOp47
 70
     1
102
RTVSPropertyOp48
 70
     1
102
RTVSPropertyOp49
 70
     1
102
RTVSPropertyOp50
 70
     1
102
RTVSPropertyOp51
 70
     0
102
RTVSPropertyOp52
 70
     0
102
RTVSPropertyOp53
 70
     1
102
RTVSPropertyOp54
 70
     1
102
RTVSPropertyOp55
 70
     1
102
RTVSPropertyOp56
 70
     1
102
RTVSPropertyOp57
 70
     1
102
RTVSPost2010Prop28
280
     0
102
RTVSPost2010PropOp28
 70
     1
102
RTVSPost2010Prop29
280
     1
102
RTVSPost2010PropOp29
 70
     1
102
RTVSPost2010Prop30
280
     1
102
RTVSPost2010PropOp30
 70
     1
102
RTVSPost2010Prop31
280
     0
102
RTVSPost2010PropOp31
 70
     1
102
RTVSPost2010Prop32
280
     0
102
RTVSPost2010PropOp32
 70
     1
102
RTVSPost2010Prop33
280
     0
102
RTVSPost2010PropOp33
 70
     1
102
RTVSPost2010Prop34
280
     0
102
RTVSPost2010PropOp34
 70
     1
102
RTVSPost2010Prop35
280
     0
102
RTVSPost2010PropOp35
 70
     1
102
RTVSPost2010Prop36
280
     0
102
RTVSPost2010PropOp36
 70
     1
102
RTVSPost2010Prop37
 90
       50
102
RTVSPost2010PropOp37
 70
     1
102
RTVSPost2010Prop38
140
0.0
102
RTVSPost2010PropOp38
 70
     1
102
RTVSPost2010Prop39
140
1.0
102
RTVSPost2010PropOp39
 70
     1
102
RTVSPost2010Prop40
 90
        0
102
RTVSPost2010PropOp40
 70
     1
102
RTVSPost2010Prop41ColorIndex
 90
       18
102
RTVSPost2010Prop41ColorRGB
 90
        0
102
RTVSPost2010PropOp41
 70
     1
102
RTVSPost2010Prop42
 90
       50
102
RTVSPost2010PropOp42
 70
     1
102
RTVSPost2010Prop43
 90
        3
102
RTVSPost2010PropOp43
 70
     1
102
RTVSPost2010Prop44ColorIndex
 90
        5
102
RTVSPost2010Prop44ColorRGB
 90
      255
102
RTVSPost2010PropOp44
 70
     1
102
RTVSPost2010Prop45
280
     0
102
RTVSPost2010PropOp45
 70
     1
102
RTVSPost2010Prop46
 90
       50
102
RTVSPost2010PropOp46
 70
     1
102
RTVSPost2010Prop47
 90
       50
102
RTVSPost2010PropOp47
 70
     1
102
RTVSPost2010Prop48
 90
       50
102
RTVSPost2010PropOp48
 70
     1
102
RTVSPost2010Prop49
280
     0
102
RTVSPost2010PropOp49
 70
     1
102
RTVSPost2010Prop50
 90
       50
102
RTVSPost2010PropOp50
 70
     1
102
RTVSPost2010Prop51ColorIndex
 90
      256
102
RTVSPost2010Prop51ColorRGB
 90
-16777216
102
RTVSPost2010PropOp51
 70
     0
102
RTVSPost2010Prop52
140
1.0
102
RTVSPost2010PropOp52
 70
     0
102
RTVSPost2010Prop53
 90
        2
102
RTVSPost2010PropOp53
 70
     1
102
RTVSPost2010Prop54
  1
strokes_ogs.tif
102
RTVSPost2010PropOp54
 70
     1
102
RTVSPost2010Prop55
280
     0
102
RTVSPost2010PropOp55
 70
     1
102
RTVSPost2010Prop56
140
1.0
102
RTVSPost2010PropOp56
 70
     1
102
RTVSPost2010Prop57
140
1.0
102
RTVSPost2010PropOp57
 70
     1
  0
XRECORD
  5
3CE
102
{ACAD_REACTORS
330
3CD
102
}
330
3CD
100
AcDbXrecord
280
     1
102
RTVSPropertyOp0
 70
     1
102
RTVSPropertyOp1
 70
     1
102
RTVSPropertyOp2
 70
     1
102
RTVSPropertyOp3
 70
     1
102
RTVSPropertyOp4
 70
     1
102
RTVSPropertyOp5
 70
     1
102
RTVSPropertyOp6
 70
     1
102
RTVSPropertyOp7
 70
     1
102
RTVSPropertyOp8
 70
     1
102
RTVSPropertyOp9
 70
     1
102
RTVSPropertyOp10
 70
     1
102
RTVSPropertyOp11
 70
     1
102
RTVSPropertyOp12
 70
     1
102
RTVSPropertyOp13
 70
     1
102
RTVSPropertyOp14
 70
     1
102
RTVSPropertyOp15
 70
     1
102
RTVSPropertyOp16
 70
     1
102
RTVSPropertyOp17
 70
     1
102
RTVSPropertyOp18
 70
     1
102
RTVSPropertyOp19
 70
     1
102
RTVSPropertyOp20
 70
     1
102
RTVSPropertyOp21
 70
     1
102
RTVSPropertyOp22
 70
     1
102
RTVSPropertyOp23
 70
     1
102
RTVSPropertyOp24
 70
     1
102
RTVSPropertyOp25
 70
     1
102
RTVSPropertyOp26
 70
     1
102
RTVSPropertyOp27
 70
     1
102
RTVSPropertyOp28
 70
     1
102
RTVSPropertyOp29
 70
     1
102
RTVSPropertyOp30
 70
     1
102
RTVSPropertyOp31
 70
     1
102
RTVSPropertyOp32
 70
     1
102
RTVSPropertyOp33
 70
     1
102
RTVSPropertyOp34
 70
     1
102
RTVSPropertyOp35
 70
     1
102
RTVSPropertyOp36
 70
     1
102
RTVSPropertyOp37
 70
     1
102
RTVSPropertyOp38
 70
     1
102
RTVSPropertyOp39
 70
     1
102
RTVSPropertyOp40
 70
     1
102
RTVSPropertyOp41
 70
     1
102
RTVSPropertyOp42
 70
     1
102
RTVSPropertyOp43
 70
     1
102
RTVSPropertyOp44
 70
     1
102
RTVSPropertyOp45
 70
     1
102
RTVSPropertyOp46
 70
     1
102
RTVSPropertyOp47
 70
     1
102
RTVSPropertyOp48
 70
     1
102
RTVSPropertyOp49
 70
     1
102
RTVSPropertyOp50
 70
     1
102
RTVSPropertyOp51
 70
     0
102
RTVSPropertyOp52
 70
     0
102
RTVSPropertyOp53
 70
     1
102
RTVSPropertyOp54
 70
     1
102
RTVSPropertyOp55
 70
     1
102
RTVSPropertyOp56
 70
     1
102
RTVSPropertyOp57
 70
     1
102
RTVSPost2010Prop28
280
     0
102
RTVSPost2010PropOp28
 70
     1
102
RTVSPost2010Prop29
280
     1
102
RTVSPost2010PropOp29
 70
     1
102
RTVSPost2010Prop30
280
     1
102
RTVSPost2010PropOp30
 70
     1
102
RTVSPost2010Prop31
280
     0
102
RTVSPost2010PropOp31
 70
     1
102
RTVSPost2010Prop32
280
     0
102
RTVSPost2010PropOp32
 70
     1
102
RTVSPost2010Prop33
280
     0
102
RTVSPost2010PropOp33
 70
     1
102
RTVSPost2010Prop34
280
     0
102
RTVSPost2010PropOp34
 70
     1
102
RTVSPost2010Prop35
280
     0
102
RTVSPost2010PropOp35
 70
     1
102
RTVSPost2010Prop36
280
     0
102
RTVSPost2010PropOp36
 70
     1
102
RTVSPost2010Prop37
 90
       50
102
RTVSPost2010PropOp37
 70
     1
102
RTVSPost2010Prop38
140
0.0
102
RTVSPost2010PropOp38
 70
     1
102
RTVSPost2010Prop39
140
1.0
102
RTVSPost2010PropOp39
 70
     1
102
RTVSPost2010Prop40
 90
        0
102
RTVSPost2010PropOp40
 70
     1
102
RTVSPost2010Prop41ColorIndex
 90
       18
102
RTVSPost2010Prop41ColorRGB
 90
        0
102
RTVSPost2010PropOp41
 70
     1
102
RTVSPost2010Prop42
 90
       50
102
RTVSPost2010PropOp42
 70
     1
102
RTVSPost2010Prop43
 90
        3
102
RTVSPost2010PropOp43
 70
     1
102
RTVSPost2010Prop44ColorIndex
 90
        5
102
RTVSPost2010Prop44ColorRGB
 90
      255
102
RTVSPost2010PropOp44
 70
     1
102
RTVSPost2010Prop45
280
     0
102
RTVSPost2010PropOp45
 70
     1
102
RTVSPost2010Prop46
 90
       50
102
RTVSPost2010PropOp46
 70
     1
102
RTVSPost2010Prop47
 90
       50
102
RTVSPost2010PropOp47
 70
     1
102
RTVSPost2010Prop48
 90
       50
102
RTVSPost2010PropOp48
 70
     1
102
RTVSPost2010Prop49
280
     0
102
RTVSPost2010PropOp49
 70
     1
102
RTVSPost2010Prop50
 90
       50
102
RTVSPost2010PropOp50
 70
     1
102
RTVSPost2010Prop51ColorIndex
 90
      256
102
RTVSPost2010Prop51ColorRGB
 90
-16777216
102
RTVSPost2010PropOp51
 70
     0
102
RTVSPost2010Prop52
140
1.0
102
RTVSPost2010PropOp52
 70
     0
102
RTVSPost2010Prop53
 90
        2
102
RTVSPost2010PropOp53
 70
     1
102
RTVSPost2010Prop54
  1
strokes_ogs.tif
102
RTVSPost2010PropOp54
 70
     1
102
RTVSPost2010Prop55
280
     0
102
RTVSPost2010PropOp55
 70
     1
102
RTVSPost2010Prop56
140
1.0
102
RTVSPost2010PropOp56
 70
     1
102
RTVSPost2010Prop57
140
1.0
102
RTVSPost2010PropOp57
 70
     1
  0
XRECORD
  5
3D0
102
{ACAD_REACTORS
330
3CF
102
}
330
3CF
100
AcDbXrecord
280
     1
102
RTVSPropertyOp0
 70
     1
102
RTVSPropertyOp1
 70
     1
102
RTVSPropertyOp2
 70
     1
102
RTVSPropertyOp3
 70
     1
102
RTVSPropertyOp4
 70
     1
102
RTVSPropertyOp5
 70
     1
102
RTVSPropertyOp6
 70
     1
102
RTVSPropertyOp7
 70
     1
102
RTVSPropertyOp8
 70
     1
102
RTVSPropertyOp9
 70
     1
102
RTVSPropertyOp10
 70
     1
102
RTVSPropertyOp11
 70
     1
102
RTVSPropertyOp12
 70
     1
102
RTVSPropertyOp13
 70
     1
102
RTVSPropertyOp14
 70
     1
102
RTVSPropertyOp15
 70
     1
102
RTVSPropertyOp16
 70
     1
102
RTVSPropertyOp17
 70
     1
102
RTVSPropertyOp18
 70
     1
102
RTVSPropertyOp19
 70
     1
102
RTVSPropertyOp20
 70
     1
102
RTVSPropertyOp21
 70
     1
102
RTVSPropertyOp22
 70
     1
102
RTVSPropertyOp23
 70
     1
102
RTVSPropertyOp24
 70
     1
102
RTVSPropertyOp25
 70
     1
102
RTVSPropertyOp26
 70
     1
102
RTVSPropertyOp27
 70
     1
102
RTVSPropertyOp28
 70
     1
102
RTVSPropertyOp29
 70
     1
102
RTVSPropertyOp30
 70
     1
102
RTVSPropertyOp31
 70
     1
102
RTVSPropertyOp32
 70
     1
102
RTVSPropertyOp33
 70
     1
102
RTVSPropertyOp34
 70
     1
102
RTVSPropertyOp35
 70
     1
102
RTVSPropertyOp36
 70
     1
102
RTVSPropertyOp37
 70
     1
102
RTVSPropertyOp38
 70
     1
102
RTVSPropertyOp39
 70
     1
102
RTVSPropertyOp40
 70
     1
102
RTVSPropertyOp41
 70
     1
102
RTVSPropertyOp42
 70
     1
102
RTVSPropertyOp43
 70
     1
102
RTVSPropertyOp44
 70
     1
102
RTVSPropertyOp45
 70
     1
102
RTVSPropertyOp46
 70
     1
102
RTVSPropertyOp47
 70
     1
102
RTVSPropertyOp48
 70
     1
102
RTVSPropertyOp49
 70
     1
102
RTVSPropertyOp50
 70
     1
102
RTVSPropertyOp51
 70
     0
102
RTVSPropertyOp52
 70
     0
102
RTVSPropertyOp53
 70
     1
102
RTVSPropertyOp54
 70
     1
102
RTVSPropertyOp55
 70
     1
102
RTVSPropertyOp56
 70
     1
102
RTVSPropertyOp57
 70
     1
102
RTVSPost2010Prop28
280
     0
102
RTVSPost2010PropOp28
 70
     1
102
RTVSPost2010Prop29
280
     1
102
RTVSPost2010PropOp29
 70
     1
102
RTVSPost2010Prop30
280
     1
102
RTVSPost2010PropOp30
 70
     1
102
RTVSPost2010Prop31
280
     0
102
RTVSPost2010PropOp31
 70
     1
102
RTVSPost2010Prop32
280
     0
102
RTVSPost2010PropOp32
 70
     1
102
RTVSPost2010Prop33
280
     0
102
RTVSPost2010PropOp33
 70
     1
102
RTVSPost2010Prop34
280
     0
102
RTVSPost2010PropOp34
 70
     1
102
RTVSPost2010Prop35
280
     0
102
RTVSPost2010PropOp35
 70
     1
102
RTVSPost2010Prop36
280
     0
102
RTVSPost2010PropOp36
 70
     1
102
RTVSPost2010Prop37
 90
       50
102
RTVSPost2010PropOp37
 70
     1
102
RTVSPost2010Prop38
140
0.0
102
RTVSPost2010PropOp38
 70
     1
102
RTVSPost2010Prop39
140
1.0
102
RTVSPost2010PropOp39
 70
     1
102
RTVSPost2010Prop40
 90
        0
102
RTVSPost2010PropOp40
 70
     1
102
RTVSPost2010Prop41ColorIndex
 90
       18
102
RTVSPost2010Prop41ColorRGB
 90
        0
102
RTVSPost2010PropOp41
 70
     1
102
RTVSPost2010Prop42
 90
       50
102
RTVSPost2010PropOp42
 70
     1
102
RTVSPost2010Prop43
 90
        3
102
RTVSPost2010PropOp43
 70
     1
102
RTVSPost2010Prop44ColorIndex
 90
        5
102
RTVSPost2010Prop44ColorRGB
 90
      255
102
RTVSPost2010PropOp44
 70
     1
102
RTVSPost2010Prop45
280
     0
102
RTVSPost2010PropOp45
 70
     1
102
RTVSPost2010Prop46
 90
       50
102
RTVSPost2010PropOp46
 70
     1
102
RTVSPost2010Prop47
 90
       50
102
RTVSPost2010PropOp47
 70
     1
102
RTVSPost2010Prop48
 90
       50
102
RTVSPost2010PropOp48
 70
     1
102
RTVSPost2010Prop49
280
     0
102
RTVSPost2010PropOp49
 70
     1
102
RTVSPost2010Prop50
 90
       50
102
RTVSPost2010PropOp50
 70
     1
102
RTVSPost2010Prop51ColorIndex
 90
      256
102
RTVSPost2010Prop51ColorRGB
 90
-16777216
102
RTVSPost2010PropOp51
 70
     0
102
RTVSPost2010Prop52
140
1.0
102
RTVSPost2010PropOp52
 70
     0
102
RTVSPost2010Prop53
 90
        2
102
RTVSPost2010PropOp53
 70
     1
102
RTVSPost2010Prop54
  1
strokes_ogs.tif
102
RTVSPost2010PropOp54
 70
     1
102
RTVSPost2010Prop55
280
     0
102
RTVSPost2010PropOp55
 70
     1
102
RTVSPost2010Prop56
140
1.0
102
RTVSPost2010PropOp56
 70
     1
102
RTVSPost2010Prop57
140
1.0
102
RTVSPost2010PropOp57
 70
     1
  0
XRECORD
  5
3D6
102
{ACAD_REACTORS
330
3D5
102
}
330
3D5
100
AcDbXrecord
280
     1
102
RTVSPropertyOp0
 70
     1
102
RTVSPropertyOp1
 70
     1
102
RTVSPropertyOp2
 70
     1
102
RTVSPropertyOp3
 70
     1
102
RTVSPropertyOp4
 70
     1
102
RTVSPropertyOp5
 70
     1
102
RTVSPropertyOp6
 70
     1
102
RTVSPropertyOp7
 70
     1
102
RTVSPropertyOp8
 70
     1
102
RTVSPropertyOp9
 70
     1
102
RTVSPropertyOp10
 70
     1
102
RTVSPropertyOp11
 70
     1
102
RTVSPropertyOp12
 70
     1
102
RTVSPropertyOp13
 70
     1
102
RTVSPropertyOp14
 70
     1
102
RTVSPropertyOp15
 70
     1
102
RTVSPropertyOp16
 70
     1
102
RTVSPropertyOp17
 70
     1
102
RTVSPropertyOp18
 70
     1
102
RTVSPropertyOp19
 70
     1
102
RTVSPropertyOp20
 70
     1
102
RTVSPropertyOp21
 70
     1
102
RTVSPropertyOp22
 70
     1
102
RTVSPropertyOp23
 70
     1
102
RTVSPropertyOp24
 70
     1
102
RTVSPropertyOp25
 70
     1
102
RTVSPropertyOp26
 70
     1
102
RTVSPropertyOp27
 70
     1
102
RTVSPropertyOp28
 70
     1
102
RTVSPropertyOp29
 70
     1
102
RTVSPropertyOp30
 70
     1
102
RTVSPropertyOp31
 70
     1
102
RTVSPropertyOp32
 70
     1
102
RTVSPropertyOp33
 70
     1
102
RTVSPropertyOp34
 70
     1
102
RTVSPropertyOp35
 70
     1
102
RTVSPropertyOp36
 70
     1
102
RTVSPropertyOp37
 70
     1
102
RTVSPropertyOp38
 70
     1
102
RTVSPropertyOp39
 70
     1
102
RTVSPropertyOp40
 70
     1
102
RTVSPropertyOp41
 70
     1
102
RTVSPropertyOp42
 70
     1
102
RTVSPropertyOp43
 70
     1
102
RTVSPropertyOp44
 70
     1
102
RTVSPropertyOp45
 70
     1
102
RTVSPropertyOp46
 70
     1
102
RTVSPropertyOp47
 70
     1
102
RTVSPropertyOp48
 70
     1
102
RTVSPropertyOp49
 70
     1
102
RTVSPropertyOp50
 70
     1
102
RTVSPropertyOp51
 70
     0
102
RTVSPropertyOp52
 70
     0
102
RTVSPropertyOp53
 70
     1
102
RTVSPropertyOp54
 70
     1
102
RTVSPropertyOp55
 70
     1
102
RTVSPropertyOp56
 70
     1
102
RTVSPropertyOp57
 70
     1
102
RTVSPost2010Prop28
280
     0
102
RTVSPost2010PropOp28
 70
     1
102
RTVSPost2010Prop29
280
     1
102
RTVSPost2010PropOp29
 70
     1
102
RTVSPost2010Prop30
280
     1
102
RTVSPost2010PropOp30
 70
     1
102
RTVSPost2010Prop31
280
     0
102
RTVSPost2010PropOp31
 70
     1
102
RTVSPost2010Prop32
280
     0
102
RTVSPost2010PropOp32
 70
     1
102
RTVSPost2010Prop33
280
     0
102
RTVSPost2010PropOp33
 70
     1
102
RTVSPost2010Prop34
280
     0
102
RTVSPost2010PropOp34
 70
     1
102
RTVSPost2010Prop35
280
     0
102
RTVSPost2010PropOp35
 70
     1
102
RTVSPost2010Prop36
280
     0
102
RTVSPost2010PropOp36
 70
     1
102
RTVSPost2010Prop37
 90
       50
102
RTVSPost2010PropOp37
 70
     1
102
RTVSPost2010Prop38
140
0.0
102
RTVSPost2010PropOp38
 70
     1
102
RTVSPost2010Prop39
140
1.0
102
RTVSPost2010PropOp39
 70
     1
102
RTVSPost2010Prop40
 90
        0
102
RTVSPost2010PropOp40
 70
     1
102
RTVSPost2010Prop41ColorIndex
 90
       18
102
RTVSPost2010Prop41ColorRGB
 90
        0
102
RTVSPost2010PropOp41
 70
     1
102
RTVSPost2010Prop42
 90
       50
102
RTVSPost2010PropOp42
 70
     1
102
RTVSPost2010Prop43
 90
        3
102
RTVSPost2010PropOp43
 70
     1
102
RTVSPost2010Prop44ColorIndex
 90
        5
102
RTVSPost2010Prop44ColorRGB
 90
      255
102
RTVSPost2010PropOp44
 70
     1
102
RTVSPost2010Prop45
280
     0
102
RTVSPost2010PropOp45
 70
     1
102
RTVSPost2010Prop46
 90
       50
102
RTVSPost2010PropOp46
 70
     1
102
RTVSPost2010Prop47
 90
       50
102
RTVSPost2010PropOp47
 70
     1
102
RTVSPost2010Prop48
 90
       50
102
RTVSPost2010PropOp48
 70
     1
102
RTVSPost2010Prop49
280
     0
102
RTVSPost2010PropOp49
 70
     1
102
RTVSPost2010Prop50
 90
       50
102
RTVSPost2010PropOp50
 70
     1
102
RTVSPost2010Prop51ColorIndex
 90
      256
102
RTVSPost2010Prop51ColorRGB
 90
-16777216
102
RTVSPost2010PropOp51
 70
     0
102
RTVSPost2010Prop52
140
1.0
102
RTVSPost2010PropOp52
 70
     0
102
RTVSPost2010Prop53
 90
        2
102
RTVSPost2010PropOp53
 70
     1
102
RTVSPost2010Prop54
  1
strokes_ogs.tif
102
RTVSPost2010PropOp54
 70
     1
102
RTVSPost2010Prop55
280
     0
102
RTVSPost2010PropOp55
 70
     1
102
RTVSPost2010Prop56
140
1.0
102
RTVSPost2010PropOp56
 70
     1
102
RTVSPost2010Prop57
140
1.0
102
RTVSPost2010PropOp57
 70
     1
  0
XRECORD
  5
3EA
102
{ACAD_REACTORS
330
3E9
102
}
330
3E9
100
AcDbXrecord
280
     1
102
RTVSPropertyOp0
 70
     0
102
RTVSPropertyOp1
 70
     0
102
RTVSPropertyOp2
 70
     0
102
RTVSPropertyOp3
 70
     0
102
RTVSPropertyOp4
 70
     0
102
RTVSPropertyOp5
 70
     0
102
RTVSPropertyOp6
 70
     0
102
RTVSPropertyOp7
 70
     0
102
RTVSPropertyOp8
 70
     0
102
RTVSPropertyOp9
 70
     0
102
RTVSPropertyOp10
 70
     0
102
RTVSPropertyOp11
 70
     0
102
RTVSPropertyOp12
 70
     0
102
RTVSPropertyOp13
 70
     0
102
RTVSPropertyOp14
 70
     2
102
RTVSPropertyOp15
 70
     0
102
RTVSPropertyOp16
 70
     0
102
RTVSPropertyOp17
 70
     0
102
RTVSPropertyOp18
 70
     0
102
RTVSPropertyOp19
 70
     0
102
RTVSPropertyOp20
 70
     0
102
RTVSPropertyOp21
 70
     0
102
RTVSPropertyOp22
 70
     0
102
RTVSPropertyOp23
 70
     0
102
RTVSPropertyOp24
 70
     0
102
RTVSPropertyOp25
 70
     0
102
RTVSPropertyOp26
 70
     0
102
RTVSPropertyOp27
 70
     0
102
RTVSPropertyOp28
 70
     0
102
RTVSPropertyOp29
 70
     0
102
RTVSPropertyOp30
 70
     0
102
RTVSPropertyOp31
 70
     0
102
RTVSPropertyOp32
 70
     0
102
RTVSPropertyOp33
 70
     0
102
RTVSPropertyOp34
 70
     0
102
RTVSPropertyOp35
 70
     0
102
RTVSPropertyOp36
 70
     0
102
RTVSPropertyOp37
 70
     0
102
RTVSPropertyOp38
 70
     0
102
RTVSPropertyOp39
 70
     0
102
RTVSPropertyOp40
 70
     0
102
RTVSPropertyOp41
 70
     0
102
RTVSPropertyOp42
 70
     0
102
RTVSPropertyOp43
 70
     0
102
RTVSPropertyOp44
 70
     0
102
RTVSPropertyOp45
 70
     0
102
RTVSPropertyOp46
 70
     0
102
RTVSPropertyOp47
 70
     0
102
RTVSPropertyOp48
 70
     0
102
RTVSPropertyOp49
 70
     0
102
RTVSPropertyOp50
 70
     0
102
RTVSPropertyOp51
 70
     0
102
RTVSPropertyOp52
 70
     0
102
RTVSPropertyOp53
 70
     0
102
RTVSPropertyOp54
 70
     0
102
RTVSPropertyOp55
 70
     0
102
RTVSPropertyOp56
 70
     0
102
RTVSPropertyOp57
 70
     0
102
RTVSPost2010Prop28
280
     0
102
RTVSPost2010PropOp28
 70
     0
102
RTVSPost2010Prop29
280
     1
102
RTVSPost2010PropOp29
 70
     0
102
RTVSPost2010Prop30
280
     1
102
RTVSPost2010PropOp30
 70
     0
102
RTVSPost2010Prop31
280
     0
102
RTVSPost2010PropOp31
 70
     0
102
RTVSPost2010Prop32
280
     0
102
RTVSPost2010PropOp32
 70
     0
102
RTVSPost2010Prop33
280
     0
102
RTVSPost2010PropOp33
 70
     0
102
RTVSPost2010Prop34
280
     0
102
RTVSPost2010PropOp34
 70
     0
102
RTVSPost2010Prop35
280
     0
102
RTVSPost2010PropOp35
 70
     0
102
RTVSPost2010Prop36
280
     0
102
RTVSPost2010PropOp36
 70
     0
102
RTVSPost2010Prop37
 90
       50
102
RTVSPost2010PropOp37
 70
     0
102
RTVSPost2010Prop38
140
0.0
102
RTVSPost2010PropOp38
 70
     0
102
RTVSPost2010Prop39
140
1.0
102
RTVSPost2010PropOp39
 70
     0
102
RTVSPost2010Prop40
 90
        0
102
RTVSPost2010PropOp40
 70
     0
102
RTVSPost2010Prop41ColorIndex
 90
       18
102
RTVSPost2010Prop41ColorRGB
 90
        0
102
RTVSPost2010PropOp41
 70
     0
102
RTVSPost2010Prop42
 90
       50
102
RTVSPost2010PropOp42
 70
     0
102
RTVSPost2010Prop43
 90
        3
102
RTVSPost2010PropOp43
 70
     0
102
RTVSPost2010Prop44ColorIndex
 90
        5
102
RTVSPost2010Prop44ColorRGB
 90
      255
102
RTVSPost2010PropOp44
 70
     0
102
RTVSPost2010Prop45
280
     0
102
RTVSPost2010PropOp45
 70
     0
102
RTVSPost2010Prop46
 90
       50
102
RTVSPost2010PropOp46
 70
     0
102
RTVSPost2010Prop47
 90
       50
102
RTVSPost2010PropOp47
 70
     0
102
RTVSPost2010Prop48
 90
       50
102
RTVSPost2010PropOp48
 70
     0
102
RTVSPost2010Prop49
280
     0
102
RTVSPost2010PropOp49
 70
     0
102
RTVSPost2010Prop50
 90
       50
102
RTVSPost2010PropOp50
 70
     0
102
RTVSPost2010Prop51ColorIndex
 90
      256
102
RTVSPost2010Prop51ColorRGB
 90
-16777216
102
RTVSPost2010PropOp51
 70
     0
102
RTVSPost2010Prop52
140
1.0
102
RTVSPost2010PropOp52
 70
     0
102
RTVSPost2010Prop53
 90
        2
102
RTVSPost2010PropOp53
 70
     0
102
RTVSPost2010Prop54
  1
strokes_ogs.tif
102
RTVSPost2010PropOp54
 70
     0
102
RTVSPost2010Prop55
280
     0
102
RTVSPost2010PropOp55
 70
     0
102
RTVSPost2010Prop56
140
1.0
102
RTVSPost2010PropOp56
 70
     0
102
RTVSPost2010Prop57
140
1.0
102
RTVSPost2010PropOp57
 70
     0
  0
XRECORD
  5
3E4
102
{ACAD_REACTORS
330
3E3
102
}
330
3E3
100
AcDbXrecord
280
     1
102
RTVSPropertyOp0
 70
     1
102
RTVSPropertyOp1
 70
     1
102
RTVSPropertyOp2
 70
     1
102
RTVSPropertyOp3
 70
     1
102
RTVSPropertyOp4
 70
     1
102
RTVSPropertyOp5
 70
     1
102
RTVSPropertyOp6
 70
     1
102
RTVSPropertyOp7
 70
     1
102
RTVSPropertyOp8
 70
     1
102
RTVSPropertyOp9
 70
     1
102
RTVSPropertyOp10
 70
     1
102
RTVSPropertyOp11
 70
     1
102
RTVSPropertyOp12
 70
     1
102
RTVSPropertyOp13
 70
     1
102
RTVSPropertyOp14
 70
     1
102
RTVSPropertyOp15
 70
     1
102
RTVSPropertyOp16
 70
     1
102
RTVSPropertyOp17
 70
     1
102
RTVSPropertyOp18
 70
     1
102
RTVSPropertyOp19
 70
     1
102
RTVSPropertyOp20
 70
     1
102
RTVSPropertyOp21
 70
     1
102
RTVSPropertyOp22
 70
     1
102
RTVSPropertyOp23
 70
     1
102
RTVSPropertyOp24
 70
     1
102
RTVSPropertyOp25
 70
     1
102
RTVSPropertyOp26
 70
     1
102
RTVSPropertyOp27
 70
     1
102
RTVSPropertyOp28
 70
     1
102
RTVSPropertyOp29
 70
     1
102
RTVSPropertyOp30
 70
     1
102
RTVSPropertyOp31
 70
     1
102
RTVSPropertyOp32
 70
     1
102
RTVSPropertyOp33
 70
     1
102
RTVSPropertyOp34
 70
     1
102
RTVSPropertyOp35
 70
     1
102
RTVSPropertyOp36
 70
     1
102
RTVSPropertyOp37
 70
     1
102
RTVSPropertyOp38
 70
     1
102
RTVSPropertyOp39
 70
     1
102
RTVSPropertyOp40
 70
     1
102
RTVSPropertyOp41
 70
     1
102
RTVSPropertyOp42
 70
     1
102
RTVSPropertyOp43
 70
     1
102
RTVSPropertyOp44
 70
     1
102
RTVSPropertyOp45
 70
     1
102
RTVSPropertyOp46
 70
     1
102
RTVSPropertyOp47
 70
     1
102
RTVSPropertyOp48
 70
     1
102
RTVSPropertyOp49
 70
     1
102
RTVSPropertyOp50
 70
     1
102
RTVSPropertyOp51
 70
     0
102
RTVSPropertyOp52
 70
     0
102
RTVSPropertyOp53
 70
     1
102
RTVSPropertyOp54
 70
     1
102
RTVSPropertyOp55
 70
     1
102
RTVSPropertyOp56
 70
     1
102
RTVSPropertyOp57
 70
     1
102
RTVSPost2010Prop28
280
     0
102
RTVSPost2010PropOp28
 70
     1
102
RTVSPost2010Prop29
280
     1
102
RTVSPost2010PropOp29
 70
     1
102
RTVSPost2010Prop30
280
     1
102
RTVSPost2010PropOp30
 70
     1
102
RTVSPost2010Prop31
280
     0
102
RTVSPost2010PropOp31
 70
     1
102
RTVSPost2010Prop32
280
     0
102
RTVSPost2010PropOp32
 70
     1
102
RTVSPost2010Prop33
280
     0
102
RTVSPost2010PropOp33
 70
     1
102
RTVSPost2010Prop34
280
     0
102
RTVSPost2010PropOp34
 70
     1
102
RTVSPost2010Prop35
280
     0
102
RTVSPost2010PropOp35
 70
     1
102
RTVSPost2010Prop36
280
     0
102
RTVSPost2010PropOp36
 70
     1
102
RTVSPost2010Prop37
 90
       50
102
RTVSPost2010PropOp37
 70
     1
102
RTVSPost2010Prop38
140
0.0
102
RTVSPost2010PropOp38
 70
     1
102
RTVSPost2010Prop39
140
1.0
102
RTVSPost2010PropOp39
 70
     1
102
RTVSPost2010Prop40
 90
        0
102
RTVSPost2010PropOp40
 70
     1
102
RTVSPost2010Prop41ColorIndex
 90
       18
102
RTVSPost2010Prop41ColorRGB
 90
        0
102
RTVSPost2010PropOp41
 70
     1
102
RTVSPost2010Prop42
 90
       50
102
RTVSPost2010PropOp42
 70
     1
102
RTVSPost2010Prop43
 90
        3
102
RTVSPost2010PropOp43
 70
     1
102
RTVSPost2010Prop44ColorIndex
 90
        5
102
RTVSPost2010Prop44ColorRGB
 90
      255
102
RTVSPost2010PropOp44
 70
     1
102
RTVSPost2010Prop45
280
     0
102
RTVSPost2010PropOp45
 70
     1
102
RTVSPost2010Prop46
 90
       50
102
RTVSPost2010PropOp46
 70
     1
102
RTVSPost2010Prop47
 90
       50
102
RTVSPost2010PropOp47
 70
     1
102
RTVSPost2010Prop48
 90
       50
102
RTVSPost2010PropOp48
 70
     1
102
RTVSPost2010Prop49
280
     0
102
RTVSPost2010PropOp49
 70
     1
102
RTVSPost2010Prop50
 90
       50
102
RTVSPost2010PropOp50
 70
     1
102
RTVSPost2010Prop51ColorIndex
 90
      256
102
RTVSPost2010Prop51ColorRGB
 90
-16777216
102
RTVSPost2010PropOp51
 70
     0
102
RTVSPost2010Prop52
140
1.0
102
RTVSPost2010PropOp52
 70
     0
102
RTVSPost2010Prop53
 90
        2
102
RTVSPost2010PropOp53
 70
     1
102
RTVSPost2010Prop54
  1
strokes_ogs.tif
102
RTVSPost2010PropOp54
 70
     1
102
RTVSPost2010Prop55
280
     0
102
RTVSPost2010PropOp55
 70
     1
102
RTVSPost2010Prop56
140
1.0
102
RTVSPost2010PropOp56
 70
     1
102
RTVSPost2010Prop57
140
1.0
102
RTVSPost2010PropOp57
 70
     1
  0
XRECORD
  5
3EC
102
{ACAD_REACTORS
330
3EB
102
}
330
3EB
100
AcDbXrecord
280
     1
102
RTVSPropertyOp0
 70
     0
102
RTVSPropertyOp1
 70
     0
102
RTVSPropertyOp2
 70
     0
102
RTVSPropertyOp3
 70
     0
102
RTVSPropertyOp4
 70
     0
102
RTVSPropertyOp5
 70
     0
102
RTVSPropertyOp6
 70
     0
102
RTVSPropertyOp7
 70
     0
102
RTVSPropertyOp8
 70
     0
102
RTVSPropertyOp9
 70
     0
102
RTVSPropertyOp10
 70
     0
102
RTVSPropertyOp11
 70
     0
102
RTVSPropertyOp12
 70
     0
102
RTVSPropertyOp13
 70
     0
102
RTVSPropertyOp14
 70
     2
102
RTVSPropertyOp15
 70
     0
102
RTVSPropertyOp16
 70
     0
102
RTVSPropertyOp17
 70
     0
102
RTVSPropertyOp18
 70
     0
102
RTVSPropertyOp19
 70
     0
102
RTVSPropertyOp20
 70
     0
102
RTVSPropertyOp21
 70
     0
102
RTVSPropertyOp22
 70
     0
102
RTVSPropertyOp23
 70
     0
102
RTVSPropertyOp24
 70
     0
102
RTVSPropertyOp25
 70
     0
102
RTVSPropertyOp26
 70
     0
102
RTVSPropertyOp27
 70
     0
102
RTVSPropertyOp28
 70
     0
102
RTVSPropertyOp29
 70
     0
102
RTVSPropertyOp30
 70
     0
102
RTVSPropertyOp31
 70
     0
102
RTVSPropertyOp32
 70
     0
102
RTVSPropertyOp33
 70
     0
102
RTVSPropertyOp34
 70
     0
102
RTVSPropertyOp35
 70
     0
102
RTVSPropertyOp36
 70
     0
102
RTVSPropertyOp37
 70
     0
102
RTVSPropertyOp38
 70
     0
102
RTVSPropertyOp39
 70
     0
102
RTVSPropertyOp40
 70
     0
102
RTVSPropertyOp41
 70
     0
102
RTVSPropertyOp42
 70
     0
102
RTVSPropertyOp43
 70
     0
102
RTVSPropertyOp44
 70
     0
102
RTVSPropertyOp45
 70
     0
102
RTVSPropertyOp46
 70
     0
102
RTVSPropertyOp47
 70
     0
102
RTVSPropertyOp48
 70
     0
102
RTVSPropertyOp49
 70
     0
102
RTVSPropertyOp50
 70
     0
102
RTVSPropertyOp51
 70
     0
102
RTVSPropertyOp52
 70
     0
102
RTVSPropertyOp53
 70
     0
102
RTVSPropertyOp54
 70
     0
102
RTVSPropertyOp55
 70
     0
102
RTVSPropertyOp56
 70
     0
102
RTVSPropertyOp57
 70
     0
102
RTVSPost2010Prop28
280
     0
102
RTVSPost2010PropOp28
 70
     0
102
RTVSPost2010Prop29
280
     1
102
RTVSPost2010PropOp29
 70
     0
102
RTVSPost2010Prop30
280
     1
102
RTVSPost2010PropOp30
 70
     0
102
RTVSPost2010Prop31
280
     0
102
RTVSPost2010PropOp31
 70
     0
102
RTVSPost2010Prop32
280
     0
102
RTVSPost2010PropOp32
 70
     0
102
RTVSPost2010Prop33
280
     0
102
RTVSPost2010PropOp33
 70
     0
102
RTVSPost2010Prop34
280
     0
102
RTVSPost2010PropOp34
 70
     0
102
RTVSPost2010Prop35
280
     0
102
RTVSPost2010PropOp35
 70
     0
102
RTVSPost2010Prop36
280
     0
102
RTVSPost2010PropOp36
 70
     0
102
RTVSPost2010Prop37
 90
       50
102
RTVSPost2010PropOp37
 70
     0
102
RTVSPost2010Prop38
140
0.0
102
RTVSPost2010PropOp38
 70
     0
102
RTVSPost2010Prop39
140
1.0
102
RTVSPost2010PropOp39
 70
     0
102
RTVSPost2010Prop40
 90
        0
102
RTVSPost2010PropOp40
 70
     0
102
RTVSPost2010Prop41ColorIndex
 90
       18
102
RTVSPost2010Prop41ColorRGB
 90
        0
102
RTVSPost2010PropOp41
 70
     0
102
RTVSPost2010Prop42
 90
       50
102
RTVSPost2010PropOp42
 70
     0
102
RTVSPost2010Prop43
 90
        3
102
RTVSPost2010PropOp43
 70
     0
102
RTVSPost2010Prop44ColorIndex
 90
        5
102
RTVSPost2010Prop44ColorRGB
 90
      255
102
RTVSPost2010PropOp44
 70
     0
102
RTVSPost2010Prop45
280
     0
102
RTVSPost2010PropOp45
 70
     0
102
RTVSPost2010Prop46
 90
       50
102
RTVSPost2010PropOp46
 70
     0
102
RTVSPost2010Prop47
 90
       50
102
RTVSPost2010PropOp47
 70
     0
102
RTVSPost2010Prop48
 90
       50
102
RTVSPost2010PropOp48
 70
     0
102
RTVSPost2010Prop49
280
     0
102
RTVSPost2010PropOp49
 70
     0
102
RTVSPost2010Prop50
 90
       50
102
RTVSPost2010PropOp50
 70
     0
102
RTVSPost2010Prop51ColorIndex
 90
      256
102
RTVSPost2010Prop51ColorRGB
 90
-16777216
102
RTVSPost2010PropOp51
 70
     0
102
RTVSPost2010Prop52
140
1.0
102
RTVSPost2010PropOp52
 70
     0
102
RTVSPost2010Prop53
 90
        2
102
RTVSPost2010PropOp53
 70
     0
102
RTVSPost2010Prop54
  1
strokes_ogs.tif
102
RTVSPost2010PropOp54
 70
     0
102
RTVSPost2010Prop55
280
     0
102
RTVSPost2010PropOp55
 70
     0
102
RTVSPost2010Prop56
140
1.0
102
RTVSPost2010PropOp56
 70
     0
102
RTVSPost2010Prop57
140
1.0
102
RTVSPost2010PropOp57
 70
     0
  0
XRECORD
  5
3DA
102
{ACAD_REACTORS
330
3D9
102
}
330
3D9
100
AcDbXrecord
280
     1
102
RTVSPropertyOp0
 70
     1
102
RTVSPropertyOp1
 70
     1
102
RTVSPropertyOp2
 70
     1
102
RTVSPropertyOp3
 70
     1
102
RTVSPropertyOp4
 70
     1
102
RTVSPropertyOp5
 70
     1
102
RTVSPropertyOp6
 70
     1
102
RTVSPropertyOp7
 70
     1
102
RTVSPropertyOp8
 70
     1
102
RTVSPropertyOp9
 70
     1
102
RTVSPropertyOp10
 70
     1
102
RTVSPropertyOp11
 70
     1
102
RTVSPropertyOp12
 70
     1
102
RTVSPropertyOp13
 70
     1
102
RTVSPropertyOp14
 70
     1
102
RTVSPropertyOp15
 70
     1
102
RTVSPropertyOp16
 70
     1
102
RTVSPropertyOp17
 70
     1
102
RTVSPropertyOp18
 70
     1
102
RTVSPropertyOp19
 70
     1
102
RTVSPropertyOp20
 70
     1
102
RTVSPropertyOp21
 70
     1
102
RTVSPropertyOp22
 70
     1
102
RTVSPropertyOp23
 70
     1
102
RTVSPropertyOp24
 70
     1
102
RTVSPropertyOp25
 70
     1
102
RTVSPropertyOp26
 70
     1
102
RTVSPropertyOp27
 70
     1
102
RTVSPropertyOp28
 70
     1
102
RTVSPropertyOp29
 70
     1
102
RTVSPropertyOp30
 70
     1
102
RTVSPropertyOp31
 70
     1
102
RTVSPropertyOp32
 70
     1
102
RTVSPropertyOp33
 70
     1
102
RTVSPropertyOp34
 70
     1
102
RTVSPropertyOp35
 70
     1
102
RTVSPropertyOp36
 70
     1
102
RTVSPropertyOp37
 70
     1
102
RTVSPropertyOp38
 70
     1
102
RTVSPropertyOp39
 70
     1
102
RTVSPropertyOp40
 70
     1
102
RTVSPropertyOp41
 70
     1
102
RTVSPropertyOp42
 70
     1
102
RTVSPropertyOp43
 70
     1
102
RTVSPropertyOp44
 70
     1
102
RTVSPropertyOp45
 70
     1
102
RTVSPropertyOp46
 70
     1
102
RTVSPropertyOp47
 70
     1
102
RTVSPropertyOp48
 70
     1
102
RTVSPropertyOp49
 70
     1
102
RTVSPropertyOp50
 70
     1
102
RTVSPropertyOp51
 70
     0
102
RTVSPropertyOp52
 70
     0
102
RTVSPropertyOp53
 70
     1
102
RTVSPropertyOp54
 70
     1
102
RTVSPropertyOp55
 70
     1
102
RTVSPropertyOp56
 70
     1
102
RTVSPropertyOp57
 70
     1
102
RTVSPost2010Prop28
280
     0
102
RTVSPost2010PropOp28
 70
     1
102
RTVSPost2010Prop29
280
     1
102
RTVSPost2010PropOp29
 70
     1
102
RTVSPost2010Prop30
280
     1
102
RTVSPost2010PropOp30
 70
     1
102
RTVSPost2010Prop31
280
     0
102
RTVSPost2010PropOp31
 70
     1
102
RTVSPost2010Prop32
280
     0
102
RTVSPost2010PropOp32
 70
     1
102
RTVSPost2010Prop33
280
     0
102
RTVSPost2010PropOp33
 70
     1
102
RTVSPost2010Prop34
280
     0
102
RTVSPost2010PropOp34
 70
     1
102
RTVSPost2010Prop35
280
     0
102
RTVSPost2010PropOp35
 70
     1
102
RTVSPost2010Prop36
280
     0
102
RTVSPost2010PropOp36
 70
     1
102
RTVSPost2010Prop37
 90
       50
102
RTVSPost2010PropOp37
 70
     1
102
RTVSPost2010Prop38
140
0.0
102
RTVSPost2010PropOp38
 70
     1
102
RTVSPost2010Prop39
140
1.0
102
RTVSPost2010PropOp39
 70
     1
102
RTVSPost2010Prop40
 90
        0
102
RTVSPost2010PropOp40
 70
     1
102
RTVSPost2010Prop41ColorIndex
 90
       18
102
RTVSPost2010Prop41ColorRGB
 90
        0
102
RTVSPost2010PropOp41
 70
     1
102
RTVSPost2010Prop42
 90
       50
102
RTVSPost2010PropOp42
 70
     1
102
RTVSPost2010Prop43
 90
        3
102
RTVSPost2010PropOp43
 70
     1
102
RTVSPost2010Prop44ColorIndex
 90
        5
102
RTVSPost2010Prop44ColorRGB
 90
      255
102
RTVSPost2010PropOp44
 70
     1
102
RTVSPost2010Prop45
280
     0
102
RTVSPost2010PropOp45
 70
     1
102
RTVSPost2010Prop46
 90
       50
102
RTVSPost2010PropOp46
 70
     1
102
RTVSPost2010Prop47
 90
       50
102
RTVSPost2010PropOp47
 70
     1
102
RTVSPost2010Prop48
 90
       50
102
RTVSPost2010PropOp48
 70
     1
102
RTVSPost2010Prop49
280
     0
102
RTVSPost2010PropOp49
 70
     1
102
RTVSPost2010Prop50
 90
       50
102
RTVSPost2010PropOp50
 70
     1
102
RTVSPost2010Prop51ColorIndex
 90
      256
102
RTVSPost2010Prop51ColorRGB
 90
-16777216
102
RTVSPost2010PropOp51
 70
     0
102
RTVSPost2010Prop52
140
1.0
102
RTVSPost2010PropOp52
 70
     0
102
RTVSPost2010Prop53
 90
        2
102
RTVSPost2010PropOp53
 70
     1
102
RTVSPost2010Prop54
  1
strokes_ogs.tif
102
RTVSPost2010PropOp54
 70
     1
102
RTVSPost2010Prop55
280
     0
102
RTVSPost2010PropOp55
 70
     1
102
RTVSPost2010Prop56
140
1.0
102
RTVSPost2010PropOp56
 70
     1
102
RTVSPost2010Prop57
140
1.0
102
RTVSPost2010PropOp57
 70
     1
  0
XRECORD
  5
3F8
102
{ACAD_REACTORS
330
3F7
102
}
330
3F7
100
AcDbXrecord
280
     1
102
RTVSPropertyOp0
 70
     1
102
RTVSPropertyOp1
 70
     1
102
RTVSPropertyOp2
 70
     1
102
RTVSPropertyOp3
 70
     1
102
RTVSPropertyOp4
 70
     1
102
RTVSPropertyOp5
 70
     1
102
RTVSPropertyOp6
 70
     1
102
RTVSPropertyOp7
 70
     1
102
RTVSPropertyOp8
 70
     1
102
RTVSPropertyOp9
 70
     1
102
RTVSPropertyOp10
 70
     1
102
RTVSPropertyOp11
 70
     1
102
RTVSPropertyOp12
 70
     1
102
RTVSPropertyOp13
 70
     1
102
RTVSPropertyOp14
 70
     1
102
RTVSPropertyOp15
 70
     1
102
RTVSPropertyOp16
 70
     1
102
RTVSPropertyOp17
 70
     1
102
RTVSPropertyOp18
 70
     1
102
RTVSPropertyOp19
 70
     1
102
RTVSPropertyOp20
 70
     1
102
RTVSPropertyOp21
 70
     1
102
RTVSPropertyOp22
 70
     1
102
RTVSPropertyOp23
 70
     1
102
RTVSPropertyOp24
 70
     1
102
RTVSPropertyOp25
 70
     1
102
RTVSPropertyOp26
 70
     1
102
RTVSPropertyOp27
 70
     1
102
RTVSPropertyOp28
 70
     1
102
RTVSPropertyOp29
 70
     1
102
RTVSPropertyOp30
 70
     1
102
RTVSPropertyOp31
 70
     1
102
RTVSPropertyOp32
 70
     1
102
RTVSPropertyOp33
 70
     1
102
RTVSPropertyOp34
 70
     1
102
RTVSPropertyOp35
 70
     1
102
RTVSPropertyOp36
 70
     1
102
RTVSPropertyOp37
 70
     1
102
RTVSPropertyOp38
 70
     1
102
RTVSPropertyOp39
 70
     1
102
RTVSPropertyOp40
 70
     1
102
RTVSPropertyOp41
 70
     1
102
RTVSPropertyOp42
 70
     1
102
RTVSPropertyOp43
 70
     1
102
RTVSPropertyOp44
 70
     1
102
RTVSPropertyOp45
 70
     1
102
RTVSPropertyOp46
 70
     1
102
RTVSPropertyOp47
 70
     1
102
RTVSPropertyOp48
 70
     1
102
RTVSPropertyOp49
 70
     1
102
RTVSPropertyOp50
 70
     1
102
RTVSPropertyOp51
 70
     0
102
RTVSPropertyOp52
 70
     0
102
RTVSPropertyOp53
 70
     1
102
RTVSPropertyOp54
 70
     1
102
RTVSPropertyOp55
 70
     1
102
RTVSPropertyOp56
 70
     1
102
RTVSPropertyOp57
 70
     1
102
RTVSPost2010Prop28
280
     0
102
RTVSPost2010PropOp28
 70
     1
102
RTVSPost2010Prop29
280
     1
102
RTVSPost2010PropOp29
 70
     1
102
RTVSPost2010Prop30
280
     1
102
RTVSPost2010PropOp30
 70
     1
102
RTVSPost2010Prop31
280
     0
102
RTVSPost2010PropOp31
 70
     1
102
RTVSPost2010Prop32
280
     0
102
RTVSPost2010PropOp32
 70
     1
102
RTVSPost2010Prop33
280
     0
102
RTVSPost2010PropOp33
 70
     1
102
RTVSPost2010Prop34
280
     0
102
RTVSPost2010PropOp34
 70
     1
102
RTVSPost2010Prop35
280
     0
102
RTVSPost2010PropOp35
 70
     1
102
RTVSPost2010Prop36
280
     0
102
RTVSPost2010PropOp36
 70
     1
102
RTVSPost2010Prop37
 90
       50
102
RTVSPost2010PropOp37
 70
     1
102
RTVSPost2010Prop38
140
0.0
102
RTVSPost2010PropOp38
 70
     1
102
RTVSPost2010Prop39
140
1.0
102
RTVSPost2010PropOp39
 70
     1
102
RTVSPost2010Prop40
 90
        0
102
RTVSPost2010PropOp40
 70
     1
102
RTVSPost2010Prop41ColorIndex
 90
       18
102
RTVSPost2010Prop41ColorRGB
 90
        0
102
RTVSPost2010PropOp41
 70
     1
102
RTVSPost2010Prop42
 90
       50
102
RTVSPost2010PropOp42
 70
     1
102
RTVSPost2010Prop43
 90
        3
102
RTVSPost2010PropOp43
 70
     1
102
RTVSPost2010Prop44ColorIndex
 90
        5
102
RTVSPost2010Prop44ColorRGB
 90
      255
102
RTVSPost2010PropOp44
 70
     1
102
RTVSPost2010Prop45
280
     0
102
RTVSPost2010PropOp45
 70
     1
102
RTVSPost2010Prop46
 90
       50
102
RTVSPost2010PropOp46
 70
     1
102
RTVSPost2010Prop47
 90
       50
102
RTVSPost2010PropOp47
 70
     1
102
RTVSPost2010Prop48
 90
       50
102
RTVSPost2010PropOp48
 70
     1
102
RTVSPost2010Prop49
280
     0
102
RTVSPost2010PropOp49
 70
     1
102
RTVSPost2010Prop50
 90
       50
102
RTVSPost2010PropOp50
 70
     1
102
RTVSPost2010Prop51ColorIndex
 90
      256
102
RTVSPost2010Prop51ColorRGB
 90
-16777216
102
RTVSPost2010PropOp51
 70
     0
102
RTVSPost2010Prop52
140
1.0
102
RTVSPost2010PropOp52
 70
     0
102
RTVSPost2010Prop53
 90
        2
102
RTVSPost2010PropOp53
 70
     1
102
RTVSPost2010Prop54
  1
strokes_ogs.tif
102
RTVSPost2010PropOp54
 70
     1
102
RTVSPost2010Prop55
280
     0
102
RTVSPost2010PropOp55
 70
     1
102
RTVSPost2010Prop56
140
1.0
102
RTVSPost2010PropOp56
 70
     1
102
RTVSPost2010Prop57
140
1.0
102
RTVSPost2010PropOp57
 70
     1
  0
XRECORD
  5
3F6
102
{ACAD_REACTORS
330
3F5
102
}
330
3F5
100
AcDbXrecord
280
     1
102
RTVSPropertyOp0
 70
     1
102
RTVSPropertyOp1
 70
     1
102
RTVSPropertyOp2
 70
     1
102
RTVSPropertyOp3
 70
     1
102
RTVSPropertyOp4
 70
     1
102
RTVSPropertyOp5
 70
     1
102
RTVSPropertyOp6
 70
     1
102
RTVSPropertyOp7
 70
     1
102
RTVSPropertyOp8
 70
     1
102
RTVSPropertyOp9
 70
     1
102
RTVSPropertyOp10
 70
     1
102
RTVSPropertyOp11
 70
     1
102
RTVSPropertyOp12
 70
     1
102
RTVSPropertyOp13
 70
     1
102
RTVSPropertyOp14
 70
     1
102
RTVSPropertyOp15
 70
     1
102
RTVSPropertyOp16
 70
     1
102
RTVSPropertyOp17
 70
     1
102
RTVSPropertyOp18
 70
     1
102
RTVSPropertyOp19
 70
     1
102
RTVSPropertyOp20
 70
     1
102
RTVSPropertyOp21
 70
     1
102
RTVSPropertyOp22
 70
     1
102
RTVSPropertyOp23
 70
     1
102
RTVSPropertyOp24
 70
     1
102
RTVSPropertyOp25
 70
     1
102
RTVSPropertyOp26
 70
     1
102
RTVSPropertyOp27
 70
     1
102
RTVSPropertyOp28
 70
     1
102
RTVSPropertyOp29
 70
     1
102
RTVSPropertyOp30
 70
     1
102
RTVSPropertyOp31
 70
     1
102
RTVSPropertyOp32
 70
     1
102
RTVSPropertyOp33
 70
     1
102
RTVSPropertyOp34
 70
     1
102
RTVSPropertyOp35
 70
     1
102
RTVSPropertyOp36
 70
     1
102
RTVSPropertyOp37
 70
     1
102
RTVSPropertyOp38
 70
     1
102
RTVSPropertyOp39
 70
     1
102
RTVSPropertyOp40
 70
     1
102
RTVSPropertyOp41
 70
     1
102
RTVSPropertyOp42
 70
     1
102
RTVSPropertyOp43
 70
     1
102
RTVSPropertyOp44
 70
     1
102
RTVSPropertyOp45
 70
     1
102
RTVSPropertyOp46
 70
     1
102
RTVSPropertyOp47
 70
     1
102
RTVSPropertyOp48
 70
     1
102
RTVSPropertyOp49
 70
     1
102
RTVSPropertyOp50
 70
     1
102
RTVSPropertyOp51
 70
     0
102
RTVSPropertyOp52
 70
     0
102
RTVSPropertyOp53
 70
     1
102
RTVSPropertyOp54
 70
     1
102
RTVSPropertyOp55
 70
     1
102
RTVSPropertyOp56
 70
     1
102
RTVSPropertyOp57
 70
     1
102
RTVSPost2010Prop28
280
     0
102
RTVSPost2010PropOp28
 70
     1
102
RTVSPost2010Prop29
280
     1
102
RTVSPost2010PropOp29
 70
     1
102
RTVSPost2010Prop30
280
     1
102
RTVSPost2010PropOp30
 70
     1
102
RTVSPost2010Prop31
280
     0
102
RTVSPost2010PropOp31
 70
     1
102
RTVSPost2010Prop32
280
     0
102
RTVSPost2010PropOp32
 70
     1
102
RTVSPost2010Prop33
280
     0
102
RTVSPost2010PropOp33
 70
     1
102
RTVSPost2010Prop34
280
     0
102
RTVSPost2010PropOp34
 70
     1
102
RTVSPost2010Prop35
280
     0
102
RTVSPost2010PropOp35
 70
     1
102
RTVSPost2010Prop36
280
     0
102
RTVSPost2010PropOp36
 70
     1
102
RTVSPost2010Prop37
 90
       50
102
RTVSPost2010PropOp37
 70
     1
102
RTVSPost2010Prop38
140
0.0
102
RTVSPost2010PropOp38
 70
     1
102
RTVSPost2010Prop39
140
1.0
102
RTVSPost2010PropOp39
 70
     1
102
RTVSPost2010Prop40
 90
        0
102
RTVSPost2010PropOp40
 70
     1
102
RTVSPost2010Prop41ColorIndex
 90
       18
102
RTVSPost2010Prop41ColorRGB
 90
        0
102
RTVSPost2010PropOp41
 70
     1
102
RTVSPost2010Prop42
 90
       50
102
RTVSPost2010PropOp42
 70
     1
102
RTVSPost2010Prop43
 90
        3
102
RTVSPost2010PropOp43
 70
     1
102
RTVSPost2010Prop44ColorIndex
 90
        5
102
RTVSPost2010Prop44ColorRGB
 90
      255
102
RTVSPost2010PropOp44
 70
     1
102
RTVSPost2010Prop45
280
     0
102
RTVSPost2010PropOp45
 70
     1
102
RTVSPost2010Prop46
 90
       50
102
RTVSPost2010PropOp46
 70
     1
102
RTVSPost2010Prop47
 90
       50
102
RTVSPost2010PropOp47
 70
     1
102
RTVSPost2010Prop48
 90
       50
102
RTVSPost2010PropOp48
 70
     1
102
RTVSPost2010Prop49
280
     0
102
RTVSPost2010PropOp49
 70
     1
102
RTVSPost2010Prop50
 90
       50
102
RTVSPost2010PropOp50
 70
     1
102
RTVSPost2010Prop51ColorIndex
 90
      256
102
RTVSPost2010Prop51ColorRGB
 90
-16777216
102
RTVSPost2010PropOp51
 70
     0
102
RTVSPost2010Prop52
140
1.0
102
RTVSPost2010PropOp52
 70
     0
102
RTVSPost2010Prop53
 90
        2
102
RTVSPost2010PropOp53
 70
     1
102
RTVSPost2010Prop54
  1
strokes_ogs.tif
102
RTVSPost2010PropOp54
 70
     1
102
RTVSPost2010Prop55
280
     0
102
RTVSPost2010PropOp55
 70
     1
102
RTVSPost2010Prop56
140
1.0
102
RTVSPost2010PropOp56
 70
     1
102
RTVSPost2010Prop57
140
1.0
102
RTVSPost2010PropOp57
 70
     1
  0
XRECORD
  5
3F0
102
{ACAD_REACTORS
330
3EF
102
}
330
3EF
100
AcDbXrecord
280
     1
102
RTVSPropertyOp0
 70
     1
102
RTVSPropertyOp1
 70
     1
102
RTVSPropertyOp2
 70
     1
102
RTVSPropertyOp3
 70
     1
102
RTVSPropertyOp4
 70
     1
102
RTVSPropertyOp5
 70
     1
102
RTVSPropertyOp6
 70
     1
102
RTVSPropertyOp7
 70
     1
102
RTVSPropertyOp8
 70
     1
102
RTVSPropertyOp9
 70
     1
102
RTVSPropertyOp10
 70
     1
102
RTVSPropertyOp11
 70
     1
102
RTVSPropertyOp12
 70
     1
102
RTVSPropertyOp13
 70
     1
102
RTVSPropertyOp14
 70
     1
102
RTVSPropertyOp15
 70
     1
102
RTVSPropertyOp16
 70
     1
102
RTVSPropertyOp17
 70
     1
102
RTVSPropertyOp18
 70
     1
102
RTVSPropertyOp19
 70
     1
102
RTVSPropertyOp20
 70
     1
102
RTVSPropertyOp21
 70
     1
102
RTVSPropertyOp22
 70
     1
102
RTVSPropertyOp23
 70
     1
102
RTVSPropertyOp24
 70
     1
102
RTVSPropertyOp25
 70
     1
102
RTVSPropertyOp26
 70
     1
102
RTVSPropertyOp27
 70
     1
102
RTVSPropertyOp28
 70
     1
102
RTVSPropertyOp29
 70
     1
102
RTVSPropertyOp30
 70
     1
102
RTVSPropertyOp31
 70
     1
102
RTVSPropertyOp32
 70
     1
102
RTVSPropertyOp33
 70
     1
102
RTVSPropertyOp34
 70
     1
102
RTVSPropertyOp35
 70
     1
102
RTVSPropertyOp36
 70
     1
102
RTVSPropertyOp37
 70
     1
102
RTVSPropertyOp38
 70
     1
102
RTVSPropertyOp39
 70
     1
102
RTVSPropertyOp40
 70
     1
102
RTVSPropertyOp41
 70
     1
102
RTVSPropertyOp42
 70
     1
102
RTVSPropertyOp43
 70
     1
102
RTVSPropertyOp44
 70
     1
102
RTVSPropertyOp45
 70
     1
102
RTVSPropertyOp46
 70
     1
102
RTVSPropertyOp47
 70
     1
102
RTVSPropertyOp48
 70
     1
102
RTVSPropertyOp49
 70
     1
102
RTVSPropertyOp50
 70
     1
102
RTVSPropertyOp51
 70
     0
102
RTVSPropertyOp52
 70
     0
102
RTVSPropertyOp53
 70
     1
102
RTVSPropertyOp54
 70
     1
102
RTVSPropertyOp55
 70
     1
102
RTVSPropertyOp56
 70
     1
102
RTVSPropertyOp57
 70
     1
102
RTVSPost2010Prop28
280
     0
102
RTVSPost2010PropOp28
 70
     1
102
RTVSPost2010Prop29
280
     1
102
RTVSPost2010PropOp29
 70
     1
102
RTVSPost2010Prop30
280
     1
102
RTVSPost2010PropOp30
 70
     1
102
RTVSPost2010Prop31
280
     0
102
RTVSPost2010PropOp31
 70
     1
102
RTVSPost2010Prop32
280
     0
102
RTVSPost2010PropOp32
 70
     1
102
RTVSPost2010Prop33
280
     0
102
RTVSPost2010PropOp33
 70
     1
102
RTVSPost2010Prop34
280
     0
102
RTVSPost2010PropOp34
 70
     1
102
RTVSPost2010Prop35
280
     0
102
RTVSPost2010PropOp35
 70
     1
102
RTVSPost2010Prop36
280
     0
102
RTVSPost2010PropOp36
 70
     1
102
RTVSPost2010Prop37
 90
       50
102
RTVSPost2010PropOp37
 70
     1
102
RTVSPost2010Prop38
140
0.0
102
RTVSPost2010PropOp38
 70
     1
102
RTVSPost2010Prop39
140
1.0
102
RTVSPost2010PropOp39
 70
     1
102
RTVSPost2010Prop40
 90
        0
102
RTVSPost2010PropOp40
 70
     1
102
RTVSPost2010Prop41ColorIndex
 90
       18
102
RTVSPost2010Prop41ColorRGB
 90
        0
102
RTVSPost2010PropOp41
 70
     1
102
RTVSPost2010Prop42
 90
       50
102
RTVSPost2010PropOp42
 70
     1
102
RTVSPost2010Prop43
 90
        3
102
RTVSPost2010PropOp43
 70
     1
102
RTVSPost2010Prop44ColorIndex
 90
        5
102
RTVSPost2010Prop44ColorRGB
 90
      255
102
RTVSPost2010PropOp44
 70
     1
102
RTVSPost2010Prop45
280
     0
102
RTVSPost2010PropOp45
 70
     1
102
RTVSPost2010Prop46
 90
       50
102
RTVSPost2010PropOp46
 70
     1
102
RTVSPost2010Prop47
 90
       50
102
RTVSPost2010PropOp47
 70
     1
102
RTVSPost2010Prop48
 90
       50
102
RTVSPost2010PropOp48
 70
     1
102
RTVSPost2010Prop49
280
     0
102
RTVSPost2010PropOp49
 70
     1
102
RTVSPost2010Prop50
 90
       50
102
RTVSPost2010PropOp50
 70
     1
102
RTVSPost2010Prop51ColorIndex
 90
      256
102
RTVSPost2010Prop51ColorRGB
 90
-16777216
102
RTVSPost2010PropOp51
 70
     0
102
RTVSPost2010Prop52
140
1.0
102
RTVSPost2010PropOp52
 70
     0
102
RTVSPost2010Prop53
 90
        2
102
RTVSPost2010PropOp53
 70
     1
102
RTVSPost2010Prop54
  1
strokes_ogs.tif
102
RTVSPost2010PropOp54
 70
     1
102
RTVSPost2010Prop55
280
     0
102
RTVSPost2010PropOp55
 70
     1
102
RTVSPost2010Prop56
140
1.0
102
RTVSPost2010PropOp56
 70
     1
102
RTVSPost2010Prop57
140
1.0
102
RTVSPost2010PropOp57
 70
     1
  0
XRECORD
  5
3F2
102
{ACAD_REACTORS
330
3F1
102
}
330
3F1
100
AcDbXrecord
280
     1
102
RTVSPropertyOp0
 70
     1
102
RTVSPropertyOp1
 70
     1
102
RTVSPropertyOp2
 70
     1
102
RTVSPropertyOp3
 70
     1
102
RTVSPropertyOp4
 70
     1
102
RTVSPropertyOp5
 70
     1
102
RTVSPropertyOp6
 70
     1
102
RTVSPropertyOp7
 70
     1
102
RTVSPropertyOp8
 70
     1
102
RTVSPropertyOp9
 70
     1
102
RTVSPropertyOp10
 70
     1
102
RTVSPropertyOp11
 70
     1
102
RTVSPropertyOp12
 70
     1
102
RTVSPropertyOp13
 70
     1
102
RTVSPropertyOp14
 70
     1
102
RTVSPropertyOp15
 70
     1
102
RTVSPropertyOp16
 70
     1
102
RTVSPropertyOp17
 70
     1
102
RTVSPropertyOp18
 70
     1
102
RTVSPropertyOp19
 70
     1
102
RTVSPropertyOp20
 70
     1
102
RTVSPropertyOp21
 70
     1
102
RTVSPropertyOp22
 70
     1
102
RTVSPropertyOp23
 70
     1
102
RTVSPropertyOp24
 70
     1
102
RTVSPropertyOp25
 70
     1
102
RTVSPropertyOp26
 70
     1
102
RTVSPropertyOp27
 70
     1
102
RTVSPropertyOp28
 70
     1
102
RTVSPropertyOp29
 70
     1
102
RTVSPropertyOp30
 70
     1
102
RTVSPropertyOp31
 70
     1
102
RTVSPropertyOp32
 70
     1
102
RTVSPropertyOp33
 70
     1
102
RTVSPropertyOp34
 70
     1
102
RTVSPropertyOp35
 70
     1
102
RTVSPropertyOp36
 70
     1
102
RTVSPropertyOp37
 70
     1
102
RTVSPropertyOp38
 70
     1
102
RTVSPropertyOp39
 70
     1
102
RTVSPropertyOp40
 70
     1
102
RTVSPropertyOp41
 70
     1
102
RTVSPropertyOp42
 70
     1
102
RTVSPropertyOp43
 70
     1
102
RTVSPropertyOp44
 70
     1
102
RTVSPropertyOp45
 70
     1
102
RTVSPropertyOp46
 70
     1
102
RTVSPropertyOp47
 70
     1
102
RTVSPropertyOp48
 70
     1
102
RTVSPropertyOp49
 70
     1
102
RTVSPropertyOp50
 70
     1
102
RTVSPropertyOp51
 70
     0
102
RTVSPropertyOp52
 70
     0
102
RTVSPropertyOp53
 70
     1
102
RTVSPropertyOp54
 70
     1
102
RTVSPropertyOp55
 70
     1
102
RTVSPropertyOp56
 70
     1
102
RTVSPropertyOp57
 70
     1
102
RTVSPost2010Prop28
280
     0
102
RTVSPost2010PropOp28
 70
     1
102
RTVSPost2010Prop29
280
     1
102
RTVSPost2010PropOp29
 70
     1
102
RTVSPost2010Prop30
280
     1
102
RTVSPost2010PropOp30
 70
     1
102
RTVSPost2010Prop31
280
     0
102
RTVSPost2010PropOp31
 70
     1
102
RTVSPost2010Prop32
280
     0
102
RTVSPost2010PropOp32
 70
     1
102
RTVSPost2010Prop33
280
     0
102
RTVSPost2010PropOp33
 70
     1
102
RTVSPost2010Prop34
280
     0
102
RTVSPost2010PropOp34
 70
     1
102
RTVSPost2010Prop35
280
     0
102
RTVSPost2010PropOp35
 70
     1
102
RTVSPost2010Prop36
280
     0
102
RTVSPost2010PropOp36
 70
     1
102
RTVSPost2010Prop37
 90
       50
102
RTVSPost2010PropOp37
 70
     1
102
RTVSPost2010Prop38
140
0.0
102
RTVSPost2010PropOp38
 70
     1
102
RTVSPost2010Prop39
140
1.0
102
RTVSPost2010PropOp39
 70
     1
102
RTVSPost2010Prop40
 90
        0
102
RTVSPost2010PropOp40
 70
     1
102
RTVSPost2010Prop41ColorIndex
 90
       18
102
RTVSPost2010Prop41ColorRGB
 90
        0
102
RTVSPost2010PropOp41
 70
     1
102
RTVSPost2010Prop42
 90
       50
102
RTVSPost2010PropOp42
 70
     1
102
RTVSPost2010Prop43
 90
        3
102
RTVSPost2010PropOp43
 70
     1
102
RTVSPost2010Prop44ColorIndex
 90
        5
102
RTVSPost2010Prop44ColorRGB
 90
      255
102
RTVSPost2010PropOp44
 70
     1
102
RTVSPost2010Prop45
280
     0
102
RTVSPost2010PropOp45
 70
     1
102
RTVSPost2010Prop46
 90
       50
102
RTVSPost2010PropOp46
 70
     1
102
RTVSPost2010Prop47
 90
       50
102
RTVSPost2010PropOp47
 70
     1
102
RTVSPost2010Prop48
 90
       50
102
RTVSPost2010PropOp48
 70
     1
102
RTVSPost2010Prop49
280
     0
102
RTVSPost2010PropOp49
 70
     1
102
RTVSPost2010Prop50
 90
       50
102
RTVSPost2010PropOp50
 70
     1
102
RTVSPost2010Prop51ColorIndex
 90
      256
102
RTVSPost2010Prop51ColorRGB
 90
-16777216
102
RTVSPost2010PropOp51
 70
     0
102
RTVSPost2010Prop52
140
1.0
102
RTVSPost2010PropOp52
 70
     0
102
RTVSPost2010Prop53
 90
        2
102
RTVSPost2010PropOp53
 70
     1
102
RTVSPost2010Prop54
  1
strokes_ogs.tif
102
RTVSPost2010PropOp54
 70
     1
102
RTVSPost2010Prop55
280
     0
102
RTVSPost2010PropOp55
 70
     1
102
RTVSPost2010Prop56
140
1.0
102
RTVSPost2010PropOp56
 70
     1
102
RTVSPost2010Prop57
140
1.0
102
RTVSPost2010PropOp57
 70
     1
  0
XRECORD
  5
3E2
102
{ACAD_REACTORS
330
3E1
102
}
330
3E1
100
AcDbXrecord
280
     1
102
RTVSPropertyOp0
 70
     1
102
RTVSPropertyOp1
 70
     1
102
RTVSPropertyOp2
 70
     1
102
RTVSPropertyOp3
 70
     1
102
RTVSPropertyOp4
 70
     1
102
RTVSPropertyOp5
 70
     1
102
RTVSPropertyOp6
 70
     1
102
RTVSPropertyOp7
 70
     1
102
RTVSPropertyOp8
 70
     1
102
RTVSPropertyOp9
 70
     1
102
RTVSPropertyOp10
 70
     1
102
RTVSPropertyOp11
 70
     1
102
RTVSPropertyOp12
 70
     1
102
RTVSPropertyOp13
 70
     1
102
RTVSPropertyOp14
 70
     1
102
RTVSPropertyOp15
 70
     1
102
RTVSPropertyOp16
 70
     1
102
RTVSPropertyOp17
 70
     1
102
RTVSPropertyOp18
 70
     1
102
RTVSPropertyOp19
 70
     1
102
RTVSPropertyOp20
 70
     1
102
RTVSPropertyOp21
 70
     1
102
RTVSPropertyOp22
 70
     1
102
RTVSPropertyOp23
 70
     1
102
RTVSPropertyOp24
 70
     1
102
RTVSPropertyOp25
 70
     1
102
RTVSPropertyOp26
 70
     1
102
RTVSPropertyOp27
 70
     1
102
RTVSPropertyOp28
 70
     1
102
RTVSPropertyOp29
 70
     1
102
RTVSPropertyOp30
 70
     1
102
RTVSPropertyOp31
 70
     1
102
RTVSPropertyOp32
 70
     1
102
RTVSPropertyOp33
 70
     1
102
RTVSPropertyOp34
 70
     1
102
RTVSPropertyOp35
 70
     1
102
RTVSPropertyOp36
 70
     1
102
RTVSPropertyOp37
 70
     1
102
RTVSPropertyOp38
 70
     1
102
RTVSPropertyOp39
 70
     1
102
RTVSPropertyOp40
 70
     1
102
RTVSPropertyOp41
 70
     1
102
RTVSPropertyOp42
 70
     1
102
RTVSPropertyOp43
 70
     1
102
RTVSPropertyOp44
 70
     1
102
RTVSPropertyOp45
 70
     1
102
RTVSPropertyOp46
 70
     1
102
RTVSPropertyOp47
 70
     1
102
RTVSPropertyOp48
 70
     1
102
RTVSPropertyOp49
 70
     1
102
RTVSPropertyOp50
 70
     1
102
RTVSPropertyOp51
 70
     0
102
RTVSPropertyOp52
 70
     0
102
RTVSPropertyOp53
 70
     1
102
RTVSPropertyOp54
 70
     1
102
RTVSPropertyOp55
 70
     1
102
RTVSPropertyOp56
 70
     1
102
RTVSPropertyOp57
 70
     1
102
RTVSPost2010Prop28
280
     0
102
RTVSPost2010PropOp28
 70
     1
102
RTVSPost2010Prop29
280
     1
102
RTVSPost2010PropOp29
 70
     1
102
RTVSPost2010Prop30
280
     1
102
RTVSPost2010PropOp30
 70
     1
102
RTVSPost2010Prop31
280
     0
102
RTVSPost2010PropOp31
 70
     1
102
RTVSPost2010Prop32
280
     0
102
RTVSPost2010PropOp32
 70
     1
102
RTVSPost2010Prop33
280
     0
102
RTVSPost2010PropOp33
 70
     1
102
RTVSPost2010Prop34
280
     0
102
RTVSPost2010PropOp34
 70
     1
102
RTVSPost2010Prop35
280
     0
102
RTVSPost2010PropOp35
 70
     1
102
RTVSPost2010Prop36
280
     0
102
RTVSPost2010PropOp36
 70
     1
102
RTVSPost2010Prop37
 90
       50
102
RTVSPost2010PropOp37
 70
     1
102
RTVSPost2010Prop38
140
0.0
102
RTVSPost2010PropOp38
 70
     1
102
RTVSPost2010Prop39
140
1.0
102
RTVSPost2010PropOp39
 70
     1
102
RTVSPost2010Prop40
 90
        0
102
RTVSPost2010PropOp40
 70
     1
102
RTVSPost2010Prop41ColorIndex
 90
       18
102
RTVSPost2010Prop41ColorRGB
 90
        0
102
RTVSPost2010PropOp41
 70
     1
102
RTVSPost2010Prop42
 90
       50
102
RTVSPost2010PropOp42
 70
     1
102
RTVSPost2010Prop43
 90
        3
102
RTVSPost2010PropOp43
 70
     1
102
RTVSPost2010Prop44ColorIndex
 90
        5
102
RTVSPost2010Prop44ColorRGB
 90
      255
102
RTVSPost2010PropOp44
 70
     1
102
RTVSPost2010Prop45
280
     0
102
RTVSPost2010PropOp45
 70
     1
102
RTVSPost2010Prop46
 90
       50
102
RTVSPost2010PropOp46
 70
     1
102
RTVSPost2010Prop47
 90
       50
102
RTVSPost2010PropOp47
 70
     1
102
RTVSPost2010Prop48
 90
       50
102
RTVSPost2010PropOp48
 70
     1
102
RTVSPost2010Prop49
280
     0
102
RTVSPost2010PropOp49
 70
     1
102
RTVSPost2010Prop50
 90
       50
102
RTVSPost2010PropOp50
 70
     1
102
RTVSPost2010Prop51ColorIndex
 90
      256
102
RTVSPost2010Prop51ColorRGB
 90
-16777216
102
RTVSPost2010PropOp51
 70
     0
102
RTVSPost2010Prop52
140
1.0
102
RTVSPost2010PropOp52
 70
     0
102
RTVSPost2010Prop53
 90
        2
102
RTVSPost2010PropOp53
 70
     1
102
RTVSPost2010Prop54
  1
strokes_ogs.tif
102
RTVSPost2010PropOp54
 70
     1
102
RTVSPost2010Prop55
280
     0
102
RTVSPost2010PropOp55
 70
     1
102
RTVSPost2010Prop56
140
1.0
102
RTVSPost2010PropOp56
 70
     1
102
RTVSPost2010Prop57
140
1.0
102
RTVSPost2010PropOp57
 70
     1
  0
XRECORD
  5
3D4
102
{ACAD_REACTORS
330
3D3
102
}
330
3D3
100
AcDbXrecord
280
     1
102
RTVSPropertyOp0
 70
     1
102
RTVSPropertyOp1
 70
     1
102
RTVSPropertyOp2
 70
     1
102
RTVSPropertyOp3
 70
     1
102
RTVSPropertyOp4
 70
     1
102
RTVSPropertyOp5
 70
     1
102
RTVSPropertyOp6
 70
     1
102
RTVSPropertyOp7
 70
     1
102
RTVSPropertyOp8
 70
     1
102
RTVSPropertyOp9
 70
     1
102
RTVSPropertyOp10
 70
     1
102
RTVSPropertyOp11
 70
     1
102
RTVSPropertyOp12
 70
     1
102
RTVSPropertyOp13
 70
     1
102
RTVSPropertyOp14
 70
     1
102
RTVSPropertyOp15
 70
     1
102
RTVSPropertyOp16
 70
     1
102
RTVSPropertyOp17
 70
     1
102
RTVSPropertyOp18
 70
     1
102
RTVSPropertyOp19
 70
     1
102
RTVSPropertyOp20
 70
     1
102
RTVSPropertyOp21
 70
     1
102
RTVSPropertyOp22
 70
     1
102
RTVSPropertyOp23
 70
     1
102
RTVSPropertyOp24
 70
     1
102
RTVSPropertyOp25
 70
     1
102
RTVSPropertyOp26
 70
     1
102
RTVSPropertyOp27
 70
     1
102
RTVSPropertyOp28
 70
     1
102
RTVSPropertyOp29
 70
     1
102
RTVSPropertyOp30
 70
     1
102
RTVSPropertyOp31
 70
     1
102
RTVSPropertyOp32
 70
     1
102
RTVSPropertyOp33
 70
     1
102
RTVSPropertyOp34
 70
     1
102
RTVSPropertyOp35
 70
     1
102
RTVSPropertyOp36
 70
     1
102
RTVSPropertyOp37
 70
     1
102
RTVSPropertyOp38
 70
     1
102
RTVSPropertyOp39
 70
     1
102
RTVSPropertyOp40
 70
     1
102
RTVSPropertyOp41
 70
     1
102
RTVSPropertyOp42
 70
     1
102
RTVSPropertyOp43
 70
     1
102
RTVSPropertyOp44
 70
     1
102
RTVSPropertyOp45
 70
     1
102
RTVSPropertyOp46
 70
     1
102
RTVSPropertyOp47
 70
     1
102
RTVSPropertyOp48
 70
     1
102
RTVSPropertyOp49
 70
     1
102
RTVSPropertyOp50
 70
     1
102
RTVSPropertyOp51
 70
     0
102
RTVSPropertyOp52
 70
     0
102
RTVSPropertyOp53
 70
     1
102
RTVSPropertyOp54
 70
     1
102
RTVSPropertyOp55
 70
     1
102
RTVSPropertyOp56
 70
     1
102
RTVSPropertyOp57
 70
     1
102
RTVSPost2010Prop28
280
     0
102
RTVSPost2010PropOp28
 70
     1
102
RTVSPost2010Prop29
280
     1
102
RTVSPost2010PropOp29
 70
     1
102
RTVSPost2010Prop30
280
     1
102
RTVSPost2010PropOp30
 70
     1
102
RTVSPost2010Prop31
280
     0
102
RTVSPost2010PropOp31
 70
     1
102
RTVSPost2010Prop32
280
     0
102
RTVSPost2010PropOp32
 70
     1
102
RTVSPost2010Prop33
280
     0
102
RTVSPost2010PropOp33
 70
     1
102
RTVSPost2010Prop34
280
     0
102
RTVSPost2010PropOp34
 70
     1
102
RTVSPost2010Prop35
280
     0
102
RTVSPost2010PropOp35
 70
     1
102
RTVSPost2010Prop36
280
     0
102
RTVSPost2010PropOp36
 70
     1
102
RTVSPost2010Prop37
 90
       50
102
RTVSPost2010PropOp37
 70
     1
102
RTVSPost2010Prop38
140
0.0
102
RTVSPost2010PropOp38
 70
     1
102
RTVSPost2010Prop39
140
1.0
102
RTVSPost2010PropOp39
 70
     1
102
RTVSPost2010Prop40
 90
        0
102
RTVSPost2010PropOp40
 70
     1
102
RTVSPost2010Prop41ColorIndex
 90
       18
102
RTVSPost2010Prop41ColorRGB
 90
        0
102
RTVSPost2010PropOp41
 70
     1
102
RTVSPost2010Prop42
 90
       50
102
RTVSPost2010PropOp42
 70
     1
102
RTVSPost2010Prop43
 90
        3
102
RTVSPost2010PropOp43
 70
     1
102
RTVSPost2010Prop44ColorIndex
 90
        5
102
RTVSPost2010Prop44ColorRGB
 90
      255
102
RTVSPost2010PropOp44
 70
     1
102
RTVSPost2010Prop45
280
     0
102
RTVSPost2010PropOp45
 70
     1
102
RTVSPost2010Prop46
 90
       50
102
RTVSPost2010PropOp46
 70
     1
102
RTVSPost2010Prop47
 90
       50
102
RTVSPost2010PropOp47
 70
     1
102
RTVSPost2010Prop48
 90
       50
102
RTVSPost2010PropOp48
 70
     1
102
RTVSPost2010Prop49
280
     0
102
RTVSPost2010PropOp49
 70
     1
102
RTVSPost2010Prop50
 90
       50
102
RTVSPost2010PropOp50
 70
     1
102
RTVSPost2010Prop51ColorIndex
 90
      256
102
RTVSPost2010Prop51ColorRGB
 90
-16777216
102
RTVSPost2010PropOp51
 70
     0
102
RTVSPost2010Prop52
140
1.0
102
RTVSPost2010PropOp52
 70
     0
102
RTVSPost2010Prop53
 90
        2
102
RTVSPost2010PropOp53
 70
     1
102
RTVSPost2010Prop54
  1
strokes_ogs.tif
102
RTVSPost2010PropOp54
 70
     1
102
RTVSPost2010Prop55
280
     0
102
RTVSPost2010PropOp55
 70
     1
102
RTVSPost2010Prop56
140
1.0
102
RTVSPost2010PropOp56
 70
     1
102
RTVSPost2010Prop57
140
1.0
102
RTVSPost2010PropOp57
 70
     1
  0
XRECORD
  5
3F4
102
{ACAD_REACTORS
330
3F3
102
}
330
3F3
100
AcDbXrecord
280
     1
102
RTVSPropertyOp0
 70
     1
102
RTVSPropertyOp1
 70
     1
102
RTVSPropertyOp2
 70
     1
102
RTVSPropertyOp3
 70
     1
102
RTVSPropertyOp4
 70
     1
102
RTVSPropertyOp5
 70
     1
102
RTVSPropertyOp6
 70
     1
102
RTVSPropertyOp7
 70
     1
102
RTVSPropertyOp8
 70
     1
102
RTVSPropertyOp9
 70
     1
102
RTVSPropertyOp10
 70
     1
102
RTVSPropertyOp11
 70
     1
102
RTVSPropertyOp12
 70
     1
102
RTVSPropertyOp13
 70
     1
102
RTVSPropertyOp14
 70
     1
102
RTVSPropertyOp15
 70
     1
102
RTVSPropertyOp16
 70
     1
102
RTVSPropertyOp17
 70
     1
102
RTVSPropertyOp18
 70
     1
102
RTVSPropertyOp19
 70
     1
102
RTVSPropertyOp20
 70
     1
102
RTVSPropertyOp21
 70
     1
102
RTVSPropertyOp22
 70
     1
102
RTVSPropertyOp23
 70
     1
102
RTVSPropertyOp24
 70
     1
102
RTVSPropertyOp25
 70
     1
102
RTVSPropertyOp26
 70
     1
102
RTVSPropertyOp27
 70
     1
102
RTVSPropertyOp28
 70
     1
102
RTVSPropertyOp29
 70
     1
102
RTVSPropertyOp30
 70
     1
102
RTVSPropertyOp31
 70
     1
102
RTVSPropertyOp32
 70
     1
102
RTVSPropertyOp33
 70
     1
102
RTVSPropertyOp34
 70
     1
102
RTVSPropertyOp35
 70
     1
102
RTVSPropertyOp36
 70
     1
102
RTVSPropertyOp37
 70
     1
102
RTVSPropertyOp38
 70
     1
102
RTVSPropertyOp39
 70
     1
102
RTVSPropertyOp40
 70
     1
102
RTVSPropertyOp41
 70
     1
102
RTVSPropertyOp42
 70
     1
102
RTVSPropertyOp43
 70
     1
102
RTVSPropertyOp44
 70
     1
102
RTVSPropertyOp45
 70
     1
102
RTVSPropertyOp46
 70
     1
102
RTVSPropertyOp47
 70
     1
102
RTVSPropertyOp48
 70
     1
102
RTVSPropertyOp49
 70
     1
102
RTVSPropertyOp50
 70
     1
102
RTVSPropertyOp51
 70
     0
102
RTVSPropertyOp52
 70
     0
102
RTVSPropertyOp53
 70
     1
102
RTVSPropertyOp54
 70
     1
102
RTVSPropertyOp55
 70
     1
102
RTVSPropertyOp56
 70
     1
102
RTVSPropertyOp57
 70
     1
102
RTVSPost2010Prop28
280
     0
102
RTVSPost2010PropOp28
 70
     1
102
RTVSPost2010Prop29
280
     1
102
RTVSPost2010PropOp29
 70
     1
102
RTVSPost2010Prop30
280
     1
102
RTVSPost2010PropOp30
 70
     1
102
RTVSPost2010Prop31
280
     0
102
RTVSPost2010PropOp31
 70
     1
102
RTVSPost2010Prop32
280
     0
102
RTVSPost2010PropOp32
 70
     1
102
RTVSPost2010Prop33
280
     0
102
RTVSPost2010PropOp33
 70
     1
102
RTVSPost2010Prop34
280
     0
102
RTVSPost2010PropOp34
 70
     1
102
RTVSPost2010Prop35
280
     0
102
RTVSPost2010PropOp35
 70
     1
102
RTVSPost2010Prop36
280
     0
102
RTVSPost2010PropOp36
 70
     1
102
RTVSPost2010Prop37
 90
       50
102
RTVSPost2010PropOp37
 70
     1
102
RTVSPost2010Prop38
140
0.0
102
RTVSPost2010PropOp38
 70
     1
102
RTVSPost2010Prop39
140
1.0
102
RTVSPost2010PropOp39
 70
     1
102
RTVSPost2010Prop40
 90
        0
102
RTVSPost2010PropOp40
 70
     1
102
RTVSPost2010Prop41ColorIndex
 90
       18
102
RTVSPost2010Prop41ColorRGB
 90
        0
102
RTVSPost2010PropOp41
 70
     1
102
RTVSPost2010Prop42
 90
       50
102
RTVSPost2010PropOp42
 70
     1
102
RTVSPost2010Prop43
 90
        3
102
RTVSPost2010PropOp43
 70
     1
102
RTVSPost2010Prop44ColorIndex
 90
        5
102
RTVSPost2010Prop44ColorRGB
 90
      255
102
RTVSPost2010PropOp44
 70
     1
102
RTVSPost2010Prop45
280
     0
102
RTVSPost2010PropOp45
 70
     1
102
RTVSPost2010Prop46
 90
       50
102
RTVSPost2010PropOp46
 70
     1
102
RTVSPost2010Prop47
 90
       50
102
RTVSPost2010PropOp47
 70
     1
102
RTVSPost2010Prop48
 90
       50
102
RTVSPost2010PropOp48
 70
     1
102
RTVSPost2010Prop49
280
     0
102
RTVSPost2010PropOp49
 70
     1
102
RTVSPost2010Prop50
 90
       50
102
RTVSPost2010PropOp50
 70
     1
102
RTVSPost2010Prop51ColorIndex
 90
      256
102
RTVSPost2010Prop51ColorRGB
 90
-16777216
102
RTVSPost2010PropOp51
 70
     0
102
RTVSPost2010Prop52
140
1.0
102
RTVSPost2010PropOp52
 70
     0
102
RTVSPost2010Prop53
 90
        2
102
RTVSPost2010PropOp53
 70
     1
102
RTVSPost2010Prop54
  1
strokes_ogs.tif
102
RTVSPost2010PropOp54
 70
     1
102
RTVSPost2010Prop55
280
     0
102
RTVSPost2010PropOp55
 70
     1
102
RTVSPost2010Prop56
140
1.0
102
RTVSPost2010PropOp56
 70
     1
102
RTVSPost2010Prop57
140
1.0
102
RTVSPost2010PropOp57
 70
     1
  0
ENDSEC
  0
SECTION
  2
THUMBNAILIMAGE
 90
    16364
310
28000000B40000005500000001000800000000000000000000000000000000000000000000000000FFFFFF00FF000000FFFF000000FF000000FFFF000000FF00FF00FF000000000080808000C0C0C000FF000000FF7F7F00A5000000A55252007F0000007F3F3F004C0000004C2626002600000026131300FF3F0000FF9F7F
310
00A5290000A56752007F1F00007F4F3F004C1300004C2F26002609000026171300FF7F0000FFBF7F00A5520000A57C52007F3F00007F5F3F004C2600004C39260026130000261C1300FFBF0000FFDF7F00A57C0000A59152007F5F00007F6F3F004C3900004C422600261C000026211300FFFF0000FFFF7F00A5A50000A5A5
310
52007F7F00007F7F3F004C4C00004C4C26002626000026261300BFFF0000DFFF7F007CA5000091A552005F7F00006F7F3F00394C0000424C26001C260000212613007FFF0000BFFF7F0052A500007CA552003F7F00005F7F3F00264C0000394C2600132600001C2613003FFF00009FFF7F0029A5000067A552001F7F00004F
310
7F3F00134C00002F4C2600092600001726130000FF00007FFF7F0000A5000052A55200007F00003F7F3F00004C0000264C2600002600001326130000FF3F007FFF9F0000A5290052A56700007F1F003F7F4F00004C1300264C2F00002609001326170000FF7F007FFFBF0000A5520052A57C00007F3F003F7F5F00004C2600
310
264C39000026130013261C0000FFBF007FFFDF0000A57C0052A59100007F5F003F7F6F00004C3900264C420000261C001326210000FFFF007FFFFF0000A5A50052A5A500007F7F003F7F7F00004C4C00264C4C00002626001326260000BFFF007FDFFF00007CA5005291A500005F7F003F6F7F0000394C0026424C00001C26
310
0013212600007FFF007FBFFF000052A500527CA500003F7F003F5F7F0000264C0026394C0000132600131C2600003FFF007F9FFF000029A5005267A500001F7F003F4F7F0000134C00262F4C0000092600131726000000FF007F7FFF000000A5005252A50000007F003F3F7F0000004C0026264C0000002600131326003F00
310
FF009F7FFF002900A5006752A5001F007F004F3F7F0013004C002F264C0009002600171326007F00FF00BF7FFF005200A5007C52A5003F007F005F3F7F0026004C0039264C00130026001C132600BF00FF00DF7FFF007C00A5009152A5005F007F006F3F7F0039004C0042264C001C00260021132600FF00FF00FF7FFF00A5
310
00A500A552A5007F007F007F3F7F004C004C004C264C002600260026132600FF00BF00FF7FDF00A5007C00A55291007F005F007F3F6F004C0039004C26420026001C0026132100FF007F00FF7FBF00A5005200A5527C007F003F007F3F5F004C0026004C2639002600130026131C00FF003F00FF7F9F00A5002900A5526700
310
7F001F007F3F4F004C0013004C262F002600090026131700000000002D2D2D005B5B5B0089898900B7B7B700B3B3B30000000000000000000000000000000000000000000000000000000000000000000000000000000000000000000000000000000000000000000000000000000000000000000000000000000000000000
310
00000000000000000000000000000000000000000000000000000000000000000000000000000000000000000000000000000000000000000000000000000000000000000000000000000000000000000000000000000000000000000000000000000000000000000000000000000000000000000000000000000000000000
310
00000000000000000000000000000000000000000000000000000000000000000000000000000000000000000000000000000000000000000000000000000000000000000000000000000000000000000000000000000000000000000000000000000000000000000000000000000000000000000000000000000000000000
310
00000000000000000000000000000000000000000000000000000000000000000000000000000000000000000000000000000000000000000000000000000000000000000000000000000000000000000000000000000000000000000000000000000000000000000000000000000000000000000000000000000000000000
310
00000000000000000000000000000000000000000000000000000000000000000000000000000000000000000000000000000000000000000000000000000000000000000000000000000000000000000000000000000000000000000000000000000000000000000000000000000000000000000000000000000000000000
310
00000000000000000000000000000000000000000000000000000000000000000000000000000000000000000000000000000000000000000000000000000000000000000000000000000000000000000000000000000000000000000000000000000000000000000000000000000000000000000000000000000000000000
310
00000000000000000000000000000000000000000000000000000000000000000000000000000000000000000000000000000000000000000000000000000000000000000007070000000000000000000000000000000000000707000000000000000000000000000000000000000000000007070707070707070707070707
310
07070700000000000000000000000000000000000000000000000000000000000000000000000000000000000000000000000000000000000000000000000000000000000000000000000000000000000000000000000000000000000000000000000000000000000000000000000000000000000000000000000707070707
310
07070707070707070707070707070707070000000000000000000000000000000000000000000000070700000000070707070000000007070000000000000000000000000000000000000000000000000000000000000000000000000000000000000000000000000000000000000000000000000000000000000000000000
310
00000000000000000000000000000000000000000000000000000000000000000000000000000000000000000000000007000000000000000707070707000000000000000007000000000000000000000000000000000000000000000007070000000007070707000000000707000000000000000000000000000000000000
310
00000000000000000000000000000000000000000000000000000000000000000000000000000000000000000000000000000000000000000000000000000000000000000000000000000000000000000000000000000000000000000000000000000000000707070707070707070707070707070707070707070700000000
310
00000000000000000000000000000000000000070707070707070707070707070707070007070707070000000000000000000000000000000000000000000000000000000000000000000000000000000000000000000000000000000000000000000000000000000000000000000000000000000000000000000000000000
310
00000000000000000000000000000000000000000000000000000007000000000000000707070707000000000000000707000000000000000000000000000000000000000000000007070000000007070707000000000707070007070707000000000000000000000000000000000000000000000000000000000000000000
310
00000000000000000000000000000000000000000000000000000000000000000000000000000000000000000000000000000000000000000000000000000000000000000000000000000000000000000700000000000000070707070700000000000000070700000000000000000000000000000000000000000000000707
310
00000000070707070000000007070000000000000000000000000000000000000000000000000000000000000000000000000000000000000000000000000000000000000000000000000000000000000000000000000000000000000000000000000000000000000000000000000000000000000000000000000000000000
310
00000000000007000000000000000000070000000000000000000707000000000000000000000000000000000000000000000007070000000000070000000000000707000000000000000000000000000000000000000000000000000000000000000000000000000000000000000000000000000000000000000000000000
310
00000000000000000000000000000000000000000000000000000000000000000000000000000000000000000000000000000000000000000000000707070707070707070707070707070707070707070700000000000000000000000000000000000000000000000707070707070707070707070707070707070707070700
310
00000000000000000000000000000000000000000000000000000000000000000000000000000000000000000000000000000000000000000000000000000000000000000000000000000000000000000000000000000000000000000000000000000000000000000000000707070707070707070707070707070707070707
310
07070707070707070707070700000000000000000000000000000000000007070707070707070707070707070707000000000700000000000000000000000000000000000000000000000000000000000000000000000000000000000000000000000000000000000000000000000000000000000000000000000000000000
310
00000000000000000000000000000000000000000000000000000000000000000007070707000000000000000000000007000000000000000000000000070007070000000000000000000000000000000000000700070007000007000000070007000700000000070000000000000000000000000000000000000000000000
310
00000000000000000000000000000000000000000000000000000000000000000000000000000000000000000000000000000000000000000000000000000000000000000000000000000000000000000000000000000707070707070707070707070707070707070707070707070707070707070707000000000000000000
310
00000000000000000007070707070707070707070707070707000000000700000000000000000000000000000000000000000000000000000000000000000000000000000000000000000000000000000000000000000000000000000000000000000000000000000000000000000000000000000000000000000000000000
310
00000000000000000000000007000707000000000000000000000007070000000000000000000007070000070000000000000000000000000000000000000700000007000007000007070000000700000000070000000000000000000000000000000000000000000000000000000000000000000000000000000000000000
310
00000000000000000000000000000000000000000000000000000000000000000000000000000000000000000000000000000000000000000000000000000000000700070700000000000000000000000707000000000000000000000707000007000000000000000000000000000000000000070000000700000700000707
310
00000007000000000700000000000000000000000000000000000000000000000000000000000000000000000000000000000000000000000000000000000000000000000000000000000000000000000000000000000000000000000000000000000000000000000000000000000000000000000000070007070000000000
310
00000000000007070000000000000000000007070000070000000000000000000000000000000000000700000007000007000007070000000700000000070000000000000000000000000000000000000000000000000000000000000000000000000000000000000000000000000000000000000000000000000000000000
310
00000000000000000000000000000000000000000000000000000000000000000000000000000000000000000700070700000000000000000000000707000000000000000000000707000007000000000000000000000000000000000000070000000700000700000707000000070000000007000000000000000000000000
310
00000000000000000000000000000000000000000000000000000000000000000000000000000000000000000000000000000000000000000000000000000000000000000000000000000000000000000000000000000000000000000000000000070007070000000000000000000000070700000000000000000000070700
310
00070000000000000000000000000000000000000700000007000007000007070000000700000000070000000000000000000000000000000000000000000000000000000000000000000000000000000000000000000000000000000000000000000000000000000000000000000000000000000000000000000000000000
310
00000000000000000000000000000000000000000000000700070700000000000000000000000707000000000000000000000707000007000000000000000000000000000000000000070000000700000700000707000000070000000007000000000000000000000000000000000000000000000000000000000000000000
310
00000000000000000000000000000000000000000000000000000000000000000000000000000000000000000000000000000000000000000000000000000000000000000000000000000000070007070000000000000000000000070700000000000000000000070700000700000000000000000000000000000000000007
310
00000007000007000007070000000700000000070000000000000000000000000000000000000000000000000000000000000000000000000000000000000000000000000000000000000000000000000000000000000000000000000000000000000000000000000000000000000000000000000000000000000000000000
310
00000700070700000000000000000000000707000000000000000000000707000007000000000000000000000000000000000000070000000700000700000707000000070000070707000000000000000000000000000000000000000000000000000000000000000000000000000000000000000000000000000000000000
310
00000000000000000000000000000000000000000000000000000000000000000000000000000000000000000000000000000000000000070007070000000000000000000000070700000000000000000000070700000700000000000000000000000000000000000007000000070000070000070700000007000007070700
310
00000000000000000000000000000000000000000000000000000000000000000000000000000000000000000000000000000000000000000000000000000000000000000000000000000000000000000000000000000000000000000000000000000000000000000000000007000707000000000000000000000007070000
310
00000000000000000707000007000000000000000000000000000000000000070000000700000700000707000000070000070707000000000000000000000000000000000000000000000000000000000000000000000000000000000000000000000000000000000000000000000000000000000000000000000000000000
310
00000000000000000000000000000000000000000000000000000000000000000000070007070000000000000000000000070700000000000000000000070700000700000000000000000000000000000000000007000000070000070000070700000007000007070700000000000000000000000000000000000000000000
310
00000000000000000000000000000000000000000000000000000000000000000000000000000000000000000000000000000000000000000000000000000000000000000000000000000000000000000000000000000007000707000000000000000000000007070000000000000000000007070000070000000000000000
310
00000000000000000000070000000700000700000707000000070000070707000000000000000000000000000000000000000000000000000000000000000000000000000000000000000000000000000000000000000000000000000000000000000000000000000000000000000000000000000000000000000000000000
310
00000000000000000000000000070007070000000000000000000000070700000000000000000000070700000700000000000000000000000000000000000007000000070000070000070700000007000000000700000000000000000000000000000000000000000000000000000000000000000000000000000000000000
310
00000000000000000000000000000000000000000000000000000000000000000000000000000000000000000000000000000000000000000000000000000000000007000707000000000000000000000007070000000000000000000007070000070000000000000000000000000000000000000700000007000007000007
310
07000000070000000007000000000000000000000000000000000000000000000000000000000000000000000000000000000000000000000000000000000000000000000000000000000000000000000000000000000000000000000000000000000000000000000000000000000000000000000000000700070700000000
310
00000000000000070700000000000000000000070700000700000000000000000000000000000000000007000000070000070000070700000007000000000700000000000000000000000000000000000000000000000000000000000000000000000000000000000000000000000000000000000000000000000000000000
310
00000000000000000000000000000000000000000000000000000000000000000000000000000000000000000007000707000000000000000000000007070000000000000000000007070000070000000000000000000000000000000000000700000007000007000007070000000700000000070000000000000000000000
310
00000000000000000000000000000000000000000000000000000000000000000000000000000000000000000000000000000000000000000000000000000000000000000000000000000000000000000000000000000000000000000000000000000700070700000000000000000000000707000000000000000000000707
310
00000700000000000000000000000000000000000007000000070000070000070700000007000000000700000000000000000000000000000000000000000000000000000000000000000000000000000000000000000000000000000000000000000000000000000000000000000000000000000000000000000000000000
310
00000000000000000000000000000000000000000000000007070707070707070707070707070707070707070707070707070707070707070000000000000000000000000000000000070707070707070707070707070707070700000000070000000000000000000000000000000000000000000000000000000000000000
310
00000000000000000000000000000000000000000000000000000000000000000000000000000000000000000000000000000000000000000000000000000000000000000000000000000000000707070707070707070707070707070707070707070707070707070707070707000000000000000000000000000000000707
310
07070707070707070707070707070707000000000700000000000000000000000000000000000000000000000000000000000000000000000000000000000000000000000000000000000000000000000000000000000000000000000000000000000000000000000000000000000000000000000000000000000000000000
310
00000007070707070707070707070707070707070707070707070703030307070707070007000000000000000000000000070707070707070705050507070303030707070707070700070000000000000000000000000000000000000000000000000000000000000000000000000000000000000000000000000000000000
310
00000000000000000000000000000000000000000000000000000000000000000000000000000000000000000000000000000000000000000007070707000000000000050500050705050007000007000003030707070700000000000000000000000000000007070707000000000505050707030307070000070707000007
310
00000000000000000000000000000000000000000000000000000000000000000000000000000000000000000000000000000000000000000000000000000000000000000000000000000000000000000000000000000000000000000000000000000000000000000000000000000707070000000000000005050005070505
310
00070707070000000007070707000000000000000000000000000000070707070707070707070507070007070700000707070000070000000000000000000000000000000000000000000000000000000000000000000000000000000000000000000000000000000000000000000000000000000000000000000000000000
310
00000000000000000000000000000000000000000000000000000000000000000000000000000000000000000000000000000000000000000707000000000000000000000000000000000000000000000000000707000000000005000700000007000000070707000007000000000000000000000000000000000000000000
310
00000000000000000000000000000000000000000000000000000000000000000000000000000000000000000000000000000000000000000000000000000000000000000000000000000000000000000000000000000000000000000000000000000000000000000000000007000700000000000000000000000000000000
310
00000000000000000000070000000000070007000000070707070707070707070700000000000000000000000000000000000000000000000000000000000000000000000000000000000000000000000000000000000000000000000000000000000000000000000000000000000000000000000000000000000000000000
310
00000000000000000000000000000000000000000000000000000000000000000000070707000000000000000000000000000000000000000000000000000000070707070707070707070707000000000000000000000000000000000000000000000000000000000000000000000000000000000000000000000000000000
310
00000000000000000000000000000000000000000000000000000000000000000000000000000000000000000000000000000000000000000000000000000000000000000000000000000000000000000000000000000007070700000000000000000000000000000000000000000000000000000000070700070700070707
310
07070000000000000000000000000000000000000000000000000000000000000000000000000000000000000000000000000000000000000000000000000000000000000000000000000000000000000000000000000000000000000000000000000000000000000000000000000000000000000000000000000000000000
310
00000000000000000000000000070707000000000000000000000000000000000000000000000000000000070707000000000007070707000000000000000000000000000000000000000000000000000000000000000000000000000000000000000000000000000000000000000000000000000000000000000000000000
310
00000000000000000000000000000000000000000000000000000000000000000000000000000000000000000000000000000000000000000000000000000000000000000700000000000000000000000000000000000000000000000000000000000000000000000000000000000000000000000000000000000000000000
310
00000000000000000000000000000000000000000000000000000000000000000000000000000000000000000000000000000000000000000000000000000000000000000000000000000000000000000000000000000000000000000000000000000000000000000000000000000000000000000000000000000000000000
310
00000000000000000000000000000000000000000000000000000000000000000000000000000000000000000000000000000000000000000000000000000000000000000000000000000000000000000000000000000000000000000000000000000000000000000000000000000000000000000000000000000000000000
310
00000000000000000000000000000000000000000000000000000000000000000000000000000000000000000000000000000000000000000000000000000000000000000000000000000000000000000000000000000000000000000000000000000000000000000000000000000000000000000000000000000000000000
310
00000000000000000000000000000000000000000000000000000000000000000000000000000000000000000000000000000000000000000000000000000000000000000000000000000000000000000000000000000000000000000000000000000000000000000000000000000000000000000000000000000000000000
310
00000000000000000000000000000000000000000000000000000000000000000000000000000000000000000000000000000000000000000000000000000000000000000000000000000000000000000000000000000000000000000000000000000000000000000000000000000000000000000000000000000000000000
310
00000000000000000000000000000000000000000000000000000000000000000000000000000000000000000000000000000000000000000000000000000000000000000000000000000000000000000000000000000000000000000000000000000000000000000000000000000000000000000000000000000000000000
310
00000000000000000000000000000000000000000000000000000000000000000000000000000000000000000000000000000000000000000000000000000000000000000000000000000000000000000000000000000000000000000000000000000000000000000000000000000000000000000000000000000000000000
310
00000000000000000000000000000000000000000000000000000000000000000000000000000000000000000000000000000000000000000000000000000000000000000000000000000000000000000000000000000000000000000000000000000000000000000000000000000000000000000000000000000000000000
310
00000000000000000000000000000000000000000000000000000000000000000000000000000000000000000000000000000000000000000000000000000000000000000000000000000000000000000000000000000000000000000000000000000000000000000000000000000000000000000000000000000000000000
310
00000000000000000000000000000000000000000000000000000000000000000000000000000000000000000000000000000000000000000000000000000000000000000000000000000000000000000000000000000000000000000000000000000000000000000000000000000000000000000000000000000000000000
310
00000000000000000000000000000000000000000000000000000000000000000000000000000000000000000000000000000000000000000000000000000000000000000000000000000000000000000000000000000000000000000000000000000000000000000000000000000000000000000000000000000000000000
310
00000000000000000000000000000000000000000000000000000000000000000000000000000000000000000000000000000000000000000000000000000000000000000000000000000000000000000000000000000000000000000000000000000000000000000000000000000000000000000000000000000000000000
310
00000000000000000000000000000000000000000000000000000000000000000000000000000000000000000000000000000000000000000000000000000000000000000000000000000000000000000000000000000000000000000000000000000000000000000000000000000000000000000000000000000000000000
310
00000000000000000000000000000000000000000000000000000000000000000000000000000000000000000000000000000000000000000000000000000000000000000000000000000000000000000000000000000000000000000000000000000000000000000000000000000000000000000000000000000000000000
310
00000000000000000000000000000000000000000000000000000000000000000000000000000000000000000000000000000000000000000000000000000000000000000000000000000000000000000000000000000000000000000000000000000000000000000000000000000000000000000000000000000000000000
310
00000000000000000000000000000000000000000000000000000000000000000000000000000000000000000000000000000000000000000000000000000000000000000000000000000000000000000000000000000000000000000000000000000000000000000000000000000000000000000000000000000000000000
310
00000000000000000000000000000000000000000000000000000000000000000000000000000000000000000000000000000000000000000000000000000000000000000000000000000000000000000000000000000000000000000000000000000000000000000000000000000000000000000000000000000000000000
310
00000000000000000000000000000000000000000000000000000000000000000000000000000000000000000000000000000000000000000000000000000000000000000000000000000000000000000000000000000000000000000000000000000000000000000000000000000000070007000007000700000000000000
310
00000000000000000000000000000000000000000000000000000000000000000000000000000000000000000000000000000000000000000000000000000000000000000000000000000000000000000000000000000000000000000000000000000000000000000000000000000000000000000000000000000000000000
310
00000000000000000000000000000000000000000000000000000000000000000000000007070707070707070707070000000000000000000000000000000000000000000000000000000000000000000000000000000000000000000000000000000000000000000000000000000000000000000000000000000000000000
310
00000000000000000000000000000000000000000000000000000000000000000000000000000000000000000000000000000000000000000000000000000000000000000000000000000000000000000000000000000000000000070707070707070700000000000000000000000000000000000000000000000000000000
310
00000000000000000000000000000000000000000000000000000000000000000000000000000000000000000000000000000000000000000000000000000000000000000000000000000000000000000000000000000000000000000000000000000000000000000000000000000000000000000000000000000000000000
310
00000000000000000000000000000000000707070707070707000000000000000000000000000000000000000000000000000000000000000000000000000000000000000000000000000000000000000000000000000000000000000000000000000000000000000000000000000000000000000000000000000000000000
310
00000000000000000000000000000000000000000000000000000000000000000000000000000000000000000000000000000000000707070707070700070707070707070707070707070707070707070707070707070700000000000000000000000000000000000000000000000000000000000000000000000000000000
310
00000000000000000000000000000000000000000000000000000000000000000000000000000000000000000000000000000000000000000000000000000000000000000000000000000000000000000000000000000000000000000000000000000000000000000000000700070707070707070707070707070707070707
310
07070707070707070707070707070707000000000000000000000000000000000000000000000000000000000000000000000000000000000000000000000000000000000000000000000000000000000000000000000000000000000000000000000000000000000000000000000000000000000000000000000000000000
310
00000000000000000000000000000000000000000000000000000000000000000007070700070000000007070700000000070007070007000700000000000000000000000700000000000000000000000000000000000000000000000000000000000000000000000000000000000000000000000000000000000000000000
310
00000000000000000000000000000000000000000000000000000000000000000000000000000000000000000000000000000000000000000000000000000000000000000000000000000000000000000000000000000707070007000007070000000000000007000707000700070000000000000000000000070000000000
310
00000000000000000000000000000000000000000000000000000000000000000000000000000000000000000000000000000000000000000000000000000000000000000000000000000000000000000000000000000000000000000000000000000000000000000000000000000000000000000000000000000000000000
310
00000000000000000000000007070700070007070700000000000005070507070507000700000000000000000000000700000000000000000000000000000000000000000000000000000000000000000000000000000000000000000000000000000000000000000000000000000000000000000000000000000000000000
310
00000000000000000000000000000000000000000000000000000000000000000000000000000000000000000000000000000000000000000000000000000000000707070007000007000000000000000303050307030305030500000000000000000000070000000000000000000000000000000000000000000000000000
310
00000000000000000000000000000000000000000000000000000000000000000000000000000000000000000000000000000000000000000000000000000000000000000000000000000000000000000000000000000000000000000000000000000000000000000000000000000000000000070707070007000700000000
310
00000000000005050505070505000300000000000000000000000700000000000000000000000000000000000000000000000000000000000000000000000000000000000000000000000000000000000000000000000000000000000000000000000000000000000000000000000000000000000000000000000000000000
310
00000000000000000000000000000000000000000000000000000000000000000000000000000000000707070700070707000000000000000000000005000507000500000000000000000000000000070000000000000000000000000000000000000000000000000000000000000000000000000000000000000000000000
310
00000000000000000000000000000000000000000000000000000000000000000000000000000000000000000000000000000000000000000000000000000000000000000000000000000000000000000000000000000000000000000000070707070007070707070707070707070707070707070707070707070707070707
310
07070707070700000000000000000000000000000000000000000000000000000000000000000000000000000000000000000000000000000000000000000000000000000000000000000000000000000000000000000000000000000000000000000000000000000000000000000000000000000000000000000000000000
310
00000000000000000000000000000000000000000707000700000007000000000000000000000000000007000000000000000007070700000000070000000000000000000000000000000000000000000000000000000000000000000000000000000000000000000000000000000000000000000000000000000000000000
310
00000000000000000000000000000000000000000000000000000000000000000000000000000000000000000000000000000000000000000000000000000000000000000000000000000000070000000700000000000000000000070707070707070707000000000707070004000007000000000000000000000000000000
310
00000000000000000000000000000000000000000000000000000000000000000000000000000000000000000000000000000000000000000000000000000000000000000000000000000000000000000000000000000000000000000000000000000000000000000000000000000000000000000000000000000000000000
310
00000700000007000000000000000000000507070507070507070500000000070700040400070000000000000000000000000000000000000000000000000000000000000000000000000000000000000000000000000000000000000000000000000000000000000000000000000000000000000000000000000000000000
310
00000000000000000000000000000000000000000000000000000000000000000000000000000000000000000000000000000000000000070000000700000000000000000000070707070707070707000000000000000000000007000000000000000000000000000000000000000000000000000000000000000000000000
310
00000000000000000000000000000000000000000000000000000000000000000000000000000000000000000000000000000000000000000000000000000000000000000000000000000000000000000000000000000000000000000000000000000000000000000000000007000000070000000000000000000000070000
310
07000007000000000000000000000000070000000000000000000000000000000000000000000000000000000000000000000000000000000000000000000000000000000000000000000000000000000000000000000000000000000000000000000000000000000000000000000000000000000000000000000000000000
310
00000000000000000000000000000000000000000000000000000000000000000007070000000707070707070707070707070707070707070707070707070707070707070707000000000000000000000000000000000000000000000000000000000000000000000000000000000000000000000000000000000000000000
310
00000000000000000000000000000000000000000000000000000000000000000000000000000000000000000000000000000000000000000000000000000000000000000000000000000000000000000000000000000707070707070707070707070707070707070707070707070707070707070707070700000700000000
310
00000000000000000000000000000000000000000000000000000000000000000000000000000000000000000000000000000000000000000000000000000000000000000000000000000000000000000000000000000000000000000000000000000000000000000000000000000000000000000000000000000000000000
310
00000000000000000000000000000000000700000000000000000000000700000700000700000000000000000000000007000000000000000000000000000000000000000000000000000000000000000000000000000000000000000000000000000000000000000000000000000000000000000000000000000000000000
310
00000000000000000000000000000000000000000000000000000000000000000000000000000000000000000000000000000000000000000000000000000000000000000000070000000000000000000000070707070707070000000000000000000000000700000000000000000000000000000000000000000000000000
310
00000000000000000000000000000000000000000000000000000000000000000000000000000000000000000000000000000000000000000000000000000000000000000000000000000000000000000000000000000000000000000000000000000000000000000000000000000000000000000000000000000007000000
310
00000000000000000007070707070700000000000000000000000007000000000000000000000000000000000000000000000000000000000000000000000000000000000000000000000000000000000000000000000000000000000000000000000000000000000000000000000000000000000000000000000000000000
310
00000000000000000000000000000000000000000000000000000000000000000000000000000000000000000000000000070000000000000000000000000707070707070000000000000000000000000700000000000000000000000000000000000000000000000000000000000000000000000000000000000000000000
310
00000000000000000000000000000000000000000000000000000000000000000000000000000000000000000000000000000000000000000000000000000000000000000000000000000000000000000000000000000000000000000000000000000000000007070707070707070707070707070707070707070707070707
310
07070707070707000000000000000000000000000000000000000000000000000000000000000000000000000000000000000000000000000000000000000000000000000000000000000000000000000000000000000000000000000000000000000000000000000000000000000000000000000000000000000000000000
310
00000000000000000000000000000000000000000000000000000000000000000000000000000000000707070707000000000000000000000000000000000000000000000000000000000000000000000000000000000000000000000000000000000000000000000000000000000000000000000000000000000000000000
310
00000000000000000000000000000000000000000000000000000000000000000000000000000000000000000000000000000000000000000000000000000000000000000000000000000000000000000000000000000000000000000000070707070700000000000000000000000000000000000000000000000000000000
310
00000000000000000000000000000000000000000000000000000000000000000000000000000000000000000000000000000000000000000000000000000000000000000000000000000000000000000000000000000000000000000000000000000000000000000000000000000000000000000000000000000000000000
310
00000000000000000000000000000000000000000000000000000000000000000000000000000000000000000000000000000000000000000000000000000000000000000000000000000000000000000000000000000000000000000000000000000000000000000000000000000000000000000000000000000000000000
310
00000000000000000000000000000000000000000000000000000000000000000000000000000000000000000000000000000000000000000000000000000000000000000000000000000000000000000000000000000000000000000000000000000000000000000000000000000000000000000000000000000000000000
310
00000000000000000000000000000000000000000000000000000000000000000000000000000000000000000000000000000000000000000000000000000000000000000000000000000000000000000000000000000000000000000000000000000000000000000000000000000000000000000000000000000000000000
310
000000000000000000000000000000000000000000000000000000000000000000000000000000000000000000000000000000000000000000000000000000000000000000000000000000000000000000000000000000000000000000000000000000000000000000000000
  0
ENDSEC
  0
EOF
