  0
SECTION
  2
HEADER
  9
$ACADVER
  1
AC1015
  9
$ACADMAINTVER
 70
     6
  9
$DWGCODEPAGE
  3
ANSI_932
  9
$INSBASE
 10
0.0
 20
0.0
 30
0.0
  9
$EXTMIN
 10
603.1948604293275
 20
1869.999974519015
 30
0.0
  9
$EXTMAX
 10
3694.2
 20
5097.064732841508
 30
0.0
  9
$LIMMIN
 10
603.1948604293275
 20
1869.999974519015
  9
$LIMMAX
 10
3694.2
 20
5097.064732841508
  9
$ORTHOMODE
 70
     0
  9
$REGENMODE
 70
     1
  9
$FILLMODE
 70
     1
  9
$QTEXTMODE
 70
     0
  9
$MIRRTEXT
 70
     1
  9
$LTSCALE
 40
1.863396973309576
  9
$ATTMODE
 70
     1
  9
$TEXTSIZE
 40
2.5
  9
$TRACEWID
 40
1.0
  9
$TEXTSTYLE
  7
Standard
  9
$CLAYER
  8
0
  9
$CELTYPE
  6
ByLayer
  9
$CECOLOR
 62
   256
  9
$CELTSCALE
 40
1.0
  9
$DISPSILH
 70
     0
  9
$DIMSCALE
 40
1.0
  9
$DIMASZ
 40
2.5
  9
$DIMEXO
 40
0.625
  9
$DIMDLI
 40
3.75
  9
$DIMRND
 40
0.0
  9
$DIMDLE
 40
0.0
  9
$DIMEXE
 40
1.25
  9
$DIMTP
 40
0.0
  9
$DIMTM
 40
0.0
  9
$DIMTXT
 40
2.5
  9
$DIMCEN
 40
2.5
  9
$DIMTSZ
 40
0.0
  9
$DIMTOL
 70
     0
  9
$DIMLIM
 70
     0
  9
$DIMTIH
 70
     0
  9
$DIMTOH
 70
     0
  9
$DIMSE1
 70
     0
  9
$DIMSE2
 70
     0
  9
$DIMTAD
 70
     1
  9
$DIMZIN
 70
     0
  9
$DIMBLK
  1

  9
$DIMASO
 70
     1
  9
$DIMSHO
 70
     1
  9
$DIMPOST
  1

  9
$DIMAPOST
  1

  9
$DIMALT
 70
     0
  9
$DIMALTD
 70
     3
  9
$DIMALTF
 40
0.03937007874016
  9
$DIMLFAC
 40
1.0
  9
$DIMTOFL
 70
     1
  9
$DIMTVP
 40
0.0
  9
$DIMTIX
 70
     0
  9
$DIMSOXD
 70
     0
  9
$DIMSAH
 70
     0
  9
$DIMBLK1
  1

  9
$DIMBLK2
  1

  9
$DIMSTYLE
  2
Standard
  9
$DIMCLRD
 70
     0
  9
$DIMCLRE
 70
     0
  9
$DIMCLRT
 70
     0
  9
$DIMTFAC
 40
0.75
  9
$DIMGAP
 40
0.625
  9
$DIMJUST
 70
     0
  9
$DIMSD1
 70
     0
  9
$DIMSD2
 70
     0
  9
$DIMTOLJ
 70
     0
  9
$DIMTZIN
 70
     8
  9
$DIMALTZ
 70
     0
  9
$DIMALTTZ
 70
     0
  9
$DIMUPT
 70
     0
  9
$DIMDEC
 70
     2
  9
$DIMTDEC
 70
     2
  9
$DIMALTU
 70
     2
  9
$DIMALTTD
 70
     3
  9
$DIMTXSTY
  7
Standard
  9
$DIMAUNIT
 70
     0
  9
$DIMADEC
 70
     0
  9
$DIMALTRND
 40
0.0
  9
$DIMAZIN
 70
     0
  9
$DIMDSEP
 70
    46
  9
$DIMATFIT
 70
     3
  9
$DIMFRAC
 70
     0
  9
$DIMLDRBLK
  1

  9
$DIMLUNIT
 70
     2
  9
$DIMLWD
 70
    -2
  9
$DIMLWE
 70
    -2
  9
$DIMTMOVE
 70
     0
  9
$LUNITS
 70
     2
  9
$LUPREC
 70
     4
  9
$SKETCHINC
 40
1.0
  9
$FILLETRAD
 40
10.0
  9
$AUNITS
 70
     0
  9
$AUPREC
 70
     0
  9
$MENU
  1
.
  9
$ELEVATION
 40
0.0
  9
$PELEVATION
 40
0.0
  9
$THICKNESS
 40
0.0
  9
$LIMCHECK
 70
     0
  9
$CHAMFERA
 40
10.0
  9
$CHAMFERB
 40
10.0
  9
$CHAMFERC
 40
20.0
  9
$CHAMFERD
 40
0.0
  9
$SKPOLY
 70
     0
  9
$TDCREATE
 40
2455188.75
  9
$TDUCREATE
 40
2455188.375
  9
$TDUPDATE
 40
2455188.75
  9
$TDUUPDATE
 40
2455188.375
  9
$TDINDWG
 40
0.0000000116
  9
$TDUSRTIMER
 40
0.0000000116
  9
$USRTIMER
 70
     1
  9
$ANGBASE
 50
0.0
  9
$ANGDIR
 70
     0
  9
$PDMODE
 70
     0
  9
$PDSIZE
 40
0.0
  9
$PLINEWID
 40
0.0
  9
$SPLFRAME
 70
     0
  9
$SPLINETYPE
 70
     6
  9
$SPLINESEGS
 70
     8
  9
$HANDSEED
  5
3C8
  9
$SURFTAB1
 70
     6
  9
$SURFTAB2
 70
     6
  9
$SURFTYPE
 70
     6
  9
$SURFU
 70
     6
  9
$SURFV
 70
     6
  9
$UCSBASE
  2

  9
$UCSNAME
  2

  9
$UCSORG
 10
0.0
 20
0.0
 30
0.0
  9
$UCSXDIR
 10
1.0
 20
0.0
 30
0.0
  9
$UCSYDIR
 10
0.0
 20
1.0
 30
0.0
  9
$UCSORTHOREF
  2

  9
$UCSORTHOVIEW
 70
     0
  9
$UCSORGTOP
 10
0.0
 20
0.0
 30
0.0
  9
$UCSORGBOTTOM
 10
0.0
 20
0.0
 30
0.0
  9
$UCSORGLEFT
 10
0.0
 20
0.0
 30
0.0
  9
$UCSORGRIGHT
 10
0.0
 20
0.0
 30
0.0
  9
$UCSORGFRONT
 10
0.0
 20
0.0
 30
0.0
  9
$UCSORGBACK
 10
0.0
 20
0.0
 30
0.0
  9
$PUCSBASE
  2

  9
$PUCSNAME
  2

  9
$PUCSORG
 10
0.0
 20
0.0
 30
0.0
  9
$PUCSXDIR
 10
1.0
 20
0.0
 30
0.0
  9
$PUCSYDIR
 10
0.0
 20
1.0
 30
0.0
  9
$PUCSORTHOREF
  2

  9
$PUCSORTHOVIEW
 70
     0
  9
$PUCSORGTOP
 10
0.0
 20
0.0
 30
0.0
  9
$PUCSORGBOTTOM
 10
0.0
 20
0.0
 30
0.0
  9
$PUCSORGLEFT
 10
0.0
 20
0.0
 30
0.0
  9
$PUCSORGRIGHT
 10
0.0
 20
0.0
 30
0.0
  9
$PUCSORGFRONT
 10
0.0
 20
0.0
 30
0.0
  9
$PUCSORGBACK
 10
0.0
 20
0.0
 30
0.0
  9
$USERI1
 70
     0
  9
$USERI2
 70
     0
  9
$USERI3
 70
     0
  9
$USERI4
 70
     0
  9
$USERI5
 70
     0
  9
$USERR1
 40
0.0
  9
$USERR2
 40
0.0
  9
$USERR3
 40
0.0
  9
$USERR4
 40
0.0
  9
$USERR5
 40
0.0
  9
$WORLDVIEW
 70
     1
  9
$SHADEDGE
 70
     3
  9
$SHADEDIF
 70
    70
  9
$TILEMODE
 70
     1
  9
$MAXACTVP
 70
    64
  9
$PINSBASE
 10
0.0
 20
0.0
 30
0.0
  9
$PLIMCHECK
 70
     0
  9
$PEXTMIN
 10
1.000000000000000E+20
 20
1.000000000000000E+20
 30
1.000000000000000E+20
  9
$PEXTMAX
 10
-1.000000000000000E+20
 20
-1.000000000000000E+20
 30
-1.000000000000000E+20
  9
$PLIMMIN
 10
0.0
 20
0.0
  9
$PLIMMAX
 10
420.0
 20
297.0
  9
$UNITMODE
 70
     0
  9
$VISRETAIN
 70
     1
  9
$PLINEGEN
 70
     0
  9
$PSLTSCALE
 70
     0
  9
$TREEDEPTH
 70
  3020
  9
$CMLSTYLE
  2
Standard
  9
$CMLJUST
 70
     0
  9
$CMLSCALE
 40
20.0
  9
$PROXYGRAPHICS
 70
     1
  9
$MEASUREMENT
 70
     1
  9
$CELWEIGHT
370
    -1
  9
$ENDCAPS
280
     0
  9
$JOINSTYLE
280
     0
  9
$LWDISPLAY
290
     0
  9
$INSUNITS
 70
     4
  9
$HYPERLINKBASE
  1

  9
$STYLESHEET
  1

  9
$XEDIT
290
     1
  9
$CEPSNTYPE
380
     0
  9
$PSTYLEMODE
290
     1
  9
$FINGERPRINTGUID
  2
{BEBF436C-E7CB-4F07-9C4B-62A7CC23D32F}
  9
$VERSIONGUID
  2
{FAEB1C32-E019-11D5-929B-00C0DF256EC4}
  9
$EXTNAMES
290
     1
  9
$PSVPSCALE
 40
0.0
  9
$OLESTARTUP
290
     0
  0
ENDSEC
  0
SECTION
  2
CLASSES
  0
CLASS
  1
ACDBDICTIONARYWDFLT
  2
AcDbDictionaryWithDefault
  3
ObjectDBX Classes
 90
        0
280
     0
281
     0
  0
CLASS
  1
VISUALSTYLE
  2
AcDbVisualStyle
  3
ObjectDBX Classes
 90
     4095
280
     0
281
     0
  0
CLASS
  1
MATERIAL
  2
AcDbMaterial
  3
ObjectDBX Classes
 90
     1153
280
     0
281
     0
  0
CLASS
  1
SCALE
  2
AcDbScale
  3
ObjectDBX Classes
 90
     1153
280
     0
281
     0
  0
CLASS
  1
SUN
  2
AcDbSun
  3
SCENEOE
 90
     1153
280
     0
281
     0
  0
CLASS
  1
DICTIONARYVAR
  2
AcDbDictionaryVar
  3
ObjectDBX Classes
 90
        0
280
     0
281
     0
  0
CLASS
  1
ACDBPLACEHOLDER
  2
AcDbPlaceHolder
  3
ObjectDBX Classes
 90
        0
280
     0
281
     0
  0
CLASS
  1
LAYOUT
  2
AcDbLayout
  3
ObjectDBX Classes
 90
        0
280
     0
281
     0
  0
ENDSEC
  0
SECTION
  2
TABLES
  0
TABLE
  2
VPORT
  5
8
330
0
100
AcDbSymbolTable
 70
     1
  0
VPORT
  5
29
330
8
100
AcDbSymbolTableRecord
100
AcDbViewportTableRecord
  2
*Active
 70
     0
 10
0.0
 20
0.0
 11
1.0
 21
1.0
 12
2148.697430214664
 22
3483.532353680262
 13
0.0
 23
0.0
 14
10.0
 24
10.0
 15
10.0
 25
10.0
 16
0.0
 26
0.0
 36
1.0
 17
0.0
 27
0.0
 37
0.0
 40
3549.771234154743
 41
1.333333333333333
 42
50.0
 43
0.0
 44
0.0
 50
0.0
 51
0.0
 71
     0
 72
 20000
 73
     1
 74
     3
 75
     0
 76
     0
 77
     0
 78
     0
281
     0
 65
     1
110
0.0
120
0.0
130
0.0
111
1.0
121
0.0
131
0.0
112
0.0
122
1.0
132
0.0
 79
     0
146
0.0
  0
ENDTAB
  0
TABLE
  2
LTYPE
  5
5
330
0
100
AcDbSymbolTable
 70
     7
  0
LTYPE
  5
14
330
5
100
AcDbSymbolTableRecord
100
AcDbLinetypeTableRecord
  2
ByBlock
 70
     0
  3

 72
    65
 73
     0
 40
0.0
  0
LTYPE
  5
15
330
5
100
AcDbSymbolTableRecord
100
AcDbLinetypeTableRecord
  2
ByLayer
 70
     0
  3

 72
    65
 73
     0
 40
0.0
  0
LTYPE
  5
16
330
5
100
AcDbSymbolTableRecord
100
AcDbLinetypeTableRecord
  2
Continuous
 70
     0
  3
Solid line
 72
    65
 73
     0
 40
0.0
  0
LTYPE
  5
6B
330
5
100
AcDbSymbolTableRecord
100
AcDbLinetypeTableRecord
  2
DASHED
 70
     0
  3
ICAD/SX(2) Dashed __ __ __ __ __ __ __ __ __ __ __ __ __ _
 72
    65
 73
     2
 40
19.05
 49
12.7
 74
     0
 49
-6.35
 74
     0
  0
LTYPE
  5
6C
330
5
100
AcDbSymbolTableRecord
100
AcDbLinetypeTableRecord
  2
CENTER
 70
     0
  3
ICAD/SX(3) Center ____ _ ____ _ ____ _ ____ _ ____ _ ____
 72
    65
 73
     4
 40
50.8
 49
31.75
 74
     0
 49
-6.35
 74
     0
 49
6.35
 74
     0
 49
-6.35
 74
     0
  0
LTYPE
  5
6D
330
5
100
AcDbSymbolTableRecord
100
AcDbLinetypeTableRecord
  2
PHANTOM
 70
     0
  3
ICAD/SX(4) Phantom ______  __  __  ______  __  __  ______
 72
    65
 73
     6
 40
63.5
 49
31.75
 74
     0
 49
-6.35
 74
     0
 49
6.35
 74
     0
 49
-6.35
 74
     0
 49
6.35
 74
     0
 49
-6.35
 74
     0
  0
LTYPE
  5
6E
330
5
100
AcDbSymbolTableRecord
100
AcDbLinetypeTableRecord
  2
DOT
 70
     0
  3
ICAD/SX(5) Dot . . . . . . . . . . . . . . . . . . . . . . . .
 72
    65
 73
     2
 40
6.35
 49
0.0
 74
     0
 49
-6.35
 74
     0
  0
LTYPE
  5
6F
330
5
100
AcDbSymbolTableRecord
100
AcDbLinetypeTableRecord
  2
HIDDEN
 70
     0
  3
ICAD/SX(6) Hidden __ __ __ __ __ __ __ __ __ __ __ __ __ __
 72
    65
 73
     2
 40
9.525
 49
6.35
 74
     0
 49
-3.175
 74
     0
  0
LTYPE
  5
70
330
5
100
AcDbSymbolTableRecord
100
AcDbLinetypeTableRecord
  2
DOTSX
 70
     0
  3
ICAD/SX(5) Dot . . . . . . . . . . . . . . . . . . . . . . . .
 72
    65
 73
     2
 40
6.35
 49
3.175
 74
     0
 49
-3.175
 74
     0
  0
ENDTAB
  0
TABLE
  2
LAYER
  5
2
330
0
100
AcDbSymbolTable
 70
     5
  0
LAYER
  5
10
330
2
100
AcDbSymbolTableRecord
100
AcDbLayerTableRecord
  2
0
 70
     0
 62
     7
  6
Continuous
370
    -3
390
F
  0
LAYER
  5
71
330
2
100
AcDbSymbolTableRecord
100
AcDbLayerTableRecord
  2
NoLayerName_001
 70
     0
 62
     7
  6
Continuous
370
    -3
390
F
  0
LAYER
  5
72
330
2
100
AcDbSymbolTableRecord
100
AcDbLayerTableRecord
  2
FRAME
 70
     0
 62
     7
  6
Continuous
370
    -3
390
F
  0
LAYER
  5
73
330
2
100
AcDbSymbolTableRecord
100
AcDbLayerTableRecord
  2
NoLayerName_002
 70
     0
 62
     7
  6
Continuous
370
    -3
390
F
  0
LAYER
  5
74
330
2
100
AcDbSymbolTableRecord
100
AcDbLayerTableRecord
  2
Defpoints
 70
     0
 62
     7
  6
Continuous
290
     0
370
    -3
390
F
  0
ENDTAB
  0
TABLE
  2
STYLE
  5
3
330
0
100
AcDbSymbolTable
 70
     2
  0
STYLE
  5
11
330
3
100
AcDbSymbolTableRecord
100
AcDbTextStyleTableRecord
  2
Standard
 70
     0
 40
0.0
 41
1.0
 50
0.0
 71
     0
 42
2.5
  3
txt
  4
extfont2
  0
STYLE
  5
6A
330
3
100
AcDbSymbolTableRecord
100
AcDbTextStyleTableRecord
  2

 70
     1
 40
0.0
 41
1.0
 50
0.0
 71
     0
 42
2.5
  3
ltypeshp.shx
  4

  0
ENDTAB
  0
TABLE
  2
VIEW
  5
6
330
0
100
AcDbSymbolTable
 70
     0
  0
ENDTAB
  0
TABLE
  2
UCS
  5
7
330
0
100
AcDbSymbolTable
 70
     0
  0
ENDTAB
  0
TABLE
  2
APPID
  5
9
330
0
100
AcDbSymbolTable
 70
     4
  0
APPID
  5
12
330
9
100
AcDbSymbolTableRecord
100
AcDbRegAppTableRecord
  2
ACAD
 70
     0
  0
APPID
  5
38D
330
9
100
AcDbSymbolTableRecord
100
AcDbRegAppTableRecord
  2
ACAD_DSTYLE_DIM_LINETYPE
 70
     0
  0
APPID
  5
38E
330
9
100
AcDbSymbolTableRecord
100
AcDbRegAppTableRecord
  2
ACAD_DSTYLE_DIM_EXT1_LINETYPE
 70
     0
  0
APPID
  5
38F
330
9
100
AcDbSymbolTableRecord
100
AcDbRegAppTableRecord
  2
ACAD_DSTYLE_DIM_EXT2_LINETYPE
 70
     0
  0
ENDTAB
  0
TABLE
  2
DIMSTYLE
  5
A
330
0
100
AcDbSymbolTable
 70
     1
100
AcDbDimStyleTable
  0
DIMSTYLE
105
27
102
{ACAD_REACTORS
330
299
330
2AD
330
2BB
330
2C9
330
2D7
330
2E5
330
2F3
330
303
330
311
330
31F
330
32D
330
33E
330
34C
330
35A
330
368
102
}
330
A
100
AcDbSymbolTableRecord
100
AcDbDimStyleTableRecord
  2
Standard
 70
     0
 41
2.5
 42
0.625
 43
3.75
 44
1.25
 73
     0
 74
     0
 77
     1
140
2.5
141
2.5
143
0.03937007874016
146
0.75
147
0.625
171
     3
172
     1
178
     0
271
     2
272
     2
274
     3
283
     0
284
     8
340
11
  0
ENDTAB
  0
TABLE
  2
BLOCK_RECORD
  5
1
330
0
100
AcDbSymbolTable
 70
    19
  0
BLOCK_RECORD
  5
1F
330
1
100
AcDbSymbolTableRecord
100
AcDbBlockTableRecord
  2
*Model_Space
340
22
  0
BLOCK_RECORD
  5
1B
330
1
100
AcDbSymbolTableRecord
100
AcDbBlockTableRecord
  2
*Paper_Space
340
1E
  0
BLOCK_RECORD
  5
23
330
1
100
AcDbSymbolTableRecord
100
AcDbBlockTableRecord
  2
*Paper_Space0
340
0
  0
BLOCK_RECORD
  5
75
330
1
100
AcDbSymbolTableRecord
100
AcDbBlockTableRecord
  2
JZB_0001
340
0
102
{BLKREFS
331
380
102
}
  0
BLOCK_RECORD
  5
78
330
1
100
AcDbSymbolTableRecord
100
AcDbBlockTableRecord
  2
JZB_0002
340
0
102
{BLKREFS
331
381
102
}
  0
BLOCK_RECORD
  5
29B
330
1
100
AcDbSymbolTableRecord
100
AcDbBlockTableRecord
  2
_OPEN30
340
0
102
{BLKREFS
331
2A8
331
2A7
331
2B6
331
2B5
331
2C4
331
2C3
331
2D2
331
2D1
331
2E0
331
2DF
331
2EE
331
2ED
331
2FC
331
2FB
331
30C
331
30B
331
31A
331
319
331
328
331
327
331
336
331
335
331
347
331
346
331
355
331
354
331
363
331
362
331
371
331
370
102
}
  0
BLOCK_RECORD
  5
2A1
330
1
100
AcDbSymbolTableRecord
100
AcDbBlockTableRecord
  2
*D4
340
0
  0
BLOCK_RECORD
  5
2AF
330
1
100
AcDbSymbolTableRecord
100
AcDbBlockTableRecord
  2
*D5
340
0
  0
BLOCK_RECORD
  5
2BD
330
1
100
AcDbSymbolTableRecord
100
AcDbBlockTableRecord
  2
*D6
340
0
  0
BLOCK_RECORD
  5
2CB
330
1
100
AcDbSymbolTableRecord
100
AcDbBlockTableRecord
  2
*D7
340
0
  0
BLOCK_RECORD
  5
2D9
330
1
100
AcDbSymbolTableRecord
100
AcDbBlockTableRecord
  2
*D8
340
0
  0
BLOCK_RECORD
  5
2E7
330
1
100
AcDbSymbolTableRecord
100
AcDbBlockTableRecord
  2
*D9
340
0
  0
BLOCK_RECORD
  5
2F5
330
1
100
AcDbSymbolTableRecord
100
AcDbBlockTableRecord
  2
*D10
340
0
  0
BLOCK_RECORD
  5
305
330
1
100
AcDbSymbolTableRecord
100
AcDbBlockTableRecord
  2
*D11
340
0
  0
BLOCK_RECORD
  5
313
330
1
100
AcDbSymbolTableRecord
100
AcDbBlockTableRecord
  2
*D12
340
0
  0
BLOCK_RECORD
  5
321
330
1
100
AcDbSymbolTableRecord
100
AcDbBlockTableRecord
  2
*D13
340
0
  0
BLOCK_RECORD
  5
32F
330
1
100
AcDbSymbolTableRecord
100
AcDbBlockTableRecord
  2
*D14
340
0
  0
BLOCK_RECORD
  5
340
330
1
100
AcDbSymbolTableRecord
100
AcDbBlockTableRecord
  2
*D15
340
0
  0
BLOCK_RECORD
  5
34E
330
1
100
AcDbSymbolTableRecord
100
AcDbBlockTableRecord
  2
*D16
340
0
  0
BLOCK_RECORD
  5
35C
330
1
100
AcDbSymbolTableRecord
100
AcDbBlockTableRecord
  2
*D17
340
0
  0
BLOCK_RECORD
  5
36A
330
1
100
AcDbSymbolTableRecord
100
AcDbBlockTableRecord
  2
*D18
340
0
  0
ENDTAB
  0
ENDSEC
  0
SECTION
  2
BLOCKS
  0
BLOCK
  5
20
330
1F
100
AcDbEntity
  8
0
100
AcDbBlockBegin
  2
*Model_Space
 70
     0
 10
0.0
 20
0.0
 30
0.0
  3
*Model_Space
  1
*Model_Space
  0
ENDBLK
  5
21
330
1F
100
AcDbEntity
  8
0
100
AcDbBlockEnd
  0
BLOCK
  5
1C
330
1B
100
AcDbEntity
 67
     1
  8
0
100
AcDbBlockBegin
  2
*Paper_Space
 70
     0
 10
0.0
 20
0.0
 30
0.0
  3
*Paper_Space
  1
*Paper_Space
  0
ENDBLK
  5
1D
330
1B
100
AcDbEntity
 67
     1
  8
0
100
AcDbBlockEnd
  0
BLOCK
  5
24
330
23
100
AcDbEntity
  8
0
100
AcDbBlockBegin
  2
*Paper_Space0
 70
     0
 10
0.0
 20
0.0
 30
0.0
  3
*Paper_Space0
  1
*Paper_Space0
  0
ENDBLK
  5
25
330
23
100
AcDbEntity
  8
0
100
AcDbBlockEnd
  0
BLOCK
  5
76
330
75
100
AcDbEntity
  8
0
100
AcDbBlockBegin
  2
JZB_0001
 70
     0
 10
0.0
 20
0.0
 30
0.0
  3
JZB_0001
  1
JZB_0001
  0
LINE
  5
7B
330
75
100
AcDbEntity
  8
NoLayerName_001
  6
CENTER
 62
     7
370
    25
100
AcDbLine
 10
42.5
 20
176.9999745190157
 30
0.0
 11
42.5
 21
-0.0000254809851867
 31
0.0
  0
CIRCLE
  5
7C
330
75
100
AcDbEntity
  8
NoLayerName_001
  6
Continuous
 62
     7
370
    25
100
AcDbCircle
 10
42.5
 20
146.9999745190148
 30
0.0
 40
5.0
  0
LINE
  5
7D
330
75
100
AcDbEntity
  8
NoLayerName_001
  6
Continuous
 62
     7
370
    25
100
AcDbLine
 10
34.0
 20
142.089974519015
 30
0.0
 11
42.5
 21
137.1999745190146
 31
0.0
  0
LINE
  5
7E
330
75
100
AcDbEntity
  8
NoLayerName_001
  6
Continuous
 62
     7
370
    25
100
AcDbLine
 10
51.0
 20
142.089974519015
 30
0.0
 11
42.5
 21
137.1999745190146
 31
0.0
  0
LINE
  5
7F
330
75
100
AcDbEntity
  8
NoLayerName_001
  6
Continuous
 62
     7
370
    25
100
AcDbLine
 10
34.0
 20
142.089974519015
 30
0.0
 11
34.0
 21
151.8999745190144
 31
0.0
  0
LINE
  5
80
330
75
100
AcDbEntity
  8
NoLayerName_001
  6
Continuous
 62
     7
370
    25
100
AcDbLine
 10
51.0
 20
142.089974519015
 30
0.0
 11
51.0
 21
151.8999745190144
 31
0.0
  0
LINE
  5
81
330
75
100
AcDbEntity
  8
NoLayerName_001
  6
Continuous
 62
     7
370
    25
100
AcDbLine
 10
42.5
 20
156.7999745190159
 30
0.0
 11
34.0
 21
151.8999745190154
 31
0.0
  0
LINE
  5
82
330
75
100
AcDbEntity
  8
NoLayerName_001
  6
Continuous
 62
     7
370
    25
100
AcDbLine
 10
42.5
 20
156.7999745190159
 30
0.0
 11
51.0
 21
151.8999745190154
 31
0.0
  0
LINE
  5
83
330
75
100
AcDbEntity
  8
NoLayerName_001
  6
Continuous
 62
     7
370
    25
100
AcDbLine
 10
31.5
 20
158.9999745190148
 30
0.0
 11
53.5
 21
158.9999745190148
 31
0.0
  0
LINE
  5
84
330
75
100
AcDbEntity
  8
NoLayerName_001
  6
Continuous
 62
     7
370
    25
100
AcDbLine
 10
31.5
 20
158.9999745190148
 30
0.0
 11
28.5
 21
155.9999745190148
 31
0.0
  0
LINE
  5
85
330
75
100
AcDbEntity
  8
NoLayerName_001
  6
Continuous
 62
     7
370
    25
100
AcDbLine
 10
53.5
 20
158.9999745190148
 30
0.0
 11
56.5
 21
155.9999745190148
 31
0.0
  0
LINE
  5
86
330
75
100
AcDbEntity
  8
NoLayerName_001
  6
Continuous
 62
     7
370
    25
100
AcDbLine
 10
28.5
 20
138.8199745190145
 30
0.0
 11
28.5
 21
155.9999745190148
 31
0.0
  0
LINE
  5
87
330
75
100
AcDbEntity
  8
NoLayerName_001
  6
Continuous
 62
     7
370
    25
100
AcDbLine
 10
56.5
 20
138.8199745190145
 30
0.0
 11
56.5
 21
155.9999745190148
 31
0.0
  0
ARC
  5
88
330
75
100
AcDbEntity
  8
NoLayerName_001
  6
Continuous
 62
     7
370
    25
100
AcDbCircle
 10
30.5
 20
138.8199745190145
 30
0.0
 40
2.0
100
AcDbArc
 50
180.0
 51
225.0
  0
ARC
  5
89
330
75
100
AcDbEntity
  8
NoLayerName_001
  6
Continuous
 62
     7
370
    25
100
AcDbCircle
 10
54.5
 20
138.8199745190145
 30
0.0
 40
2.0
100
AcDbArc
 50
315.0
 51
0.0
  0
LINE
  5
8A
330
75
100
AcDbEntity
  8
NoLayerName_001
  6
Continuous
 62
     7
370
    25
100
AcDbLine
 10
32.91500000000087
 20
133.5849745190158
 30
0.0
 11
29.09000000000106
 21
137.4099745190156
 31
0.0
  0
LINE
  5
8B
330
75
100
AcDbEntity
  8
NoLayerName_001
  6
Continuous
 62
     7
370
    25
100
AcDbLine
 10
52.08499999999913
 20
133.5849745190158
 30
0.0
 11
55.90999999999894
 21
137.4099745190156
 31
0.0
  0
ARC
  5
8C
330
75
100
AcDbEntity
  8
NoLayerName_001
  6
Continuous
 62
     7
370
    25
100
AcDbCircle
 10
31.5
 20
132.1699745190149
 30
0.0
 40
2.0
100
AcDbArc
 50
0.0
 51
44.8
  0
LINE
  5
8D
330
75
100
AcDbEntity
  8
NoLayerName_001
  6
Continuous
 62
     7
370
    25
100
AcDbLine
 10
33.5
 20
132.1699745190149
 30
0.0
 11
33.5
 21
130.259974519015
 31
0.0
  0
LINE
  5
8E
330
75
100
AcDbEntity
  8
NoLayerName_001
  6
Continuous
 62
     7
370
    25
100
AcDbLine
 10
51.5
 20
132.1699745190149
 30
0.0
 11
51.5
 21
130.259974519015
 31
0.0
  0
ARC
  5
8F
330
75
100
AcDbEntity
  8
NoLayerName_001
  6
Continuous
 62
     7
370
    25
100
AcDbCircle
 10
30.5
 20
130.259974519015
 30
0.0
 40
3.0
100
AcDbArc
 50
277.0
 51
0.0
  0
ARC
  5
90
330
75
100
AcDbEntity
  8
NoLayerName_001
  6
Continuous
 62
     7
370
    25
100
AcDbCircle
 10
54.5
 20
130.259974519015
 30
0.0
 40
3.0
100
AcDbArc
 50
180.0
 51
263.0
  0
LINE
  5
91
330
75
100
AcDbEntity
  8
NoLayerName_001
  6
Continuous
 62
     7
370
    25
100
AcDbLine
 10
56.5
 20
126.9999745190148
 30
0.0
 11
42.5
 21
128.7199745190151
 31
0.0
  0
LINE
  5
92
330
75
100
AcDbEntity
  8
NoLayerName_001
  6
Continuous
 62
     7
370
    25
100
AcDbLine
 10
28.5
 20
126.9999745190148
 30
0.0
 11
42.5
 21
128.7199745190151
 31
0.0
  0
LINE
  5
93
330
75
100
AcDbEntity
  8
NoLayerName_001
  6
Continuous
 62
     7
370
    25
100
AcDbLine
 10
28.5
 20
126.9999745190148
 30
0.0
 11
56.5
 21
126.9999745190148
 31
0.0
  0
ARC
  5
94
330
75
100
AcDbEntity
  8
NoLayerName_001
  6
Continuous
 62
     7
370
    25
100
AcDbCircle
 10
28.5
 20
124.9999745190148
 30
0.0
 40
2.0
100
AcDbArc
 50
90.0
 51
180.0
  0
ARC
  5
95
330
75
100
AcDbEntity
  8
NoLayerName_001
  6
Continuous
 62
     7
370
    25
100
AcDbCircle
 10
56.5
 20
124.9999745190148
 30
0.0
 40
2.0
100
AcDbArc
 50
0.0
 51
90.0
  0
LINE
  5
96
330
75
100
AcDbEntity
  8
NoLayerName_001
  6
Continuous
 62
     7
370
    25
100
AcDbLine
 10
26.5
 20
124.9999745190148
 30
0.0
 11
26.5
 21
120.9999745190148
 31
0.0
  0
LINE
  5
97
330
75
100
AcDbEntity
  8
NoLayerName_001
  6
Continuous
 62
     7
370
    25
100
AcDbLine
 10
58.5
 20
124.9999745190148
 30
0.0
 11
58.5
 21
120.9999745190148
 31
0.0
  0
LINE
  5
98
330
75
100
AcDbEntity
  8
NoLayerName_001
  6
Continuous
 62
     7
370
    25
100
AcDbLine
 10
60.0
 20
120.9999745190148
 30
0.0
 11
25.0
 21
120.9999745190148
 31
0.0
  0
LINE
  5
99
330
75
100
AcDbEntity
  8
NoLayerName_001
  6
Continuous
 62
     7
370
    25
100
AcDbLine
 10
25.0
 20
120.9999745190148
 30
0.0
 11
25.0
 21
114.3909745190144
 31
0.0
  0
LINE
  5
9A
330
75
100
AcDbEntity
  8
NoLayerName_001
  6
Continuous
 62
     7
370
    25
100
AcDbLine
 10
60.0
 20
120.9999745190148
 30
0.0
 11
60.0
 21
114.3909745190144
 31
0.0
  0
LINE
  5
9B
330
75
100
AcDbEntity
  8
NoLayerName_001
  6
Continuous
 62
     7
370
    25
100
AcDbLine
 10
83.5
 20
106.5979745190148
 30
0.0
 11
60.0
 21
114.3909745190144
 31
0.0
  0
LINE
  5
9C
330
75
100
AcDbEntity
  8
NoLayerName_001
  6
Continuous
 62
     7
370
    25
100
AcDbLine
 10
1.5
 20
106.5979745190148
 30
0.0
 11
25.0
 21
114.3909745190144
 31
0.0
  0
ARC
  5
9D
330
75
100
AcDbEntity
  8
NoLayerName_001
  6
Continuous
 62
     7
370
    25
100
AcDbCircle
 10
3.0
 20
103.9999745190148
 30
0.0
 40
3.0
100
AcDbArc
 50
120.0
 51
180.0
  0
ARC
  5
9E
330
75
100
AcDbEntity
  8
NoLayerName_001
  6
Continuous
 62
     7
370
    25
100
AcDbCircle
 10
82.0
 20
103.9999745190148
 30
0.0
 40
3.0
100
AcDbArc
 50
0.0
 51
60.0
  0
LINE
  5
9F
330
75
100
AcDbEntity
  8
NoLayerName_001
  6
PHANTOM
 62
     7
370
    25
100
AcDbLine
 10
0.0
 20
-0.0000254809851867
 30
0.0
 11
0.0
 21
103.9999745190148
 31
0.0
  0
LINE
  5
A0
330
75
100
AcDbEntity
  8
NoLayerName_001
  6
PHANTOM
 62
     7
370
    25
100
AcDbLine
 10
85.0
 20
-0.0000254809851867
 30
0.0
 11
85.0
 21
103.9999745190148
 31
0.0
  0
ARC
  5
A1
330
75
100
AcDbEntity
  8
NoLayerName_001
  6
Continuous
 62
     7
370
    25
100
AcDbCircle
 10
53.5
 20
132.1699745190149
 30
0.0
 40
2.0
100
AcDbArc
 50
135.2
 51
180.0
  0
ENDBLK
  5
77
330
75
100
AcDbEntity
  8
0
100
AcDbBlockEnd
  0
BLOCK
  5
79
330
78
100
AcDbEntity
  8
0
100
AcDbBlockBegin
  2
JZB_0002
 70
     0
 10
0.0
 20
0.0
 30
0.0
  3
JZB_0002
  1
JZB_0002
  0
LINE
  5
A2
330
78
100
AcDbEntity
  8
NoLayerName_001
  6
Continuous
 62
     3
370
    25
100
AcDbLine
 10
88.7379286262294
 20
8.913031320390019
 30
0.0
 11
87.49789980342247
 21
51.68260898394789
 31
0.0
  0
LINE
  5
A3
330
78
100
AcDbEntity
  8
NoLayerName_001
  6
Continuous
 62
     3
370
    25
100
AcDbLine
 10
11.26207137377423
 20
8.913031320390928
 30
0.0
 11
12.50210019658112
 21
51.68260898394791
 31
0.0
  0
LINE
  5
A4
330
78
100
AcDbEntity
  8
NoLayerName_001
  6
Continuous
 62
     3
370
    25
100
AcDbLine
 10
0.000000000001819
 20
-0.0000254809851867
 30
0.0
 11
21.77918375371155
 21
-0.0000254809851867
 31
0.0
  0
LINE
  5
A5
330
78
100
AcDbEntity
  8
NoLayerName_001
  6
Continuous
 62
     3
370
    25
100
AcDbLine
 10
8.263331491720237
 20
5.999974519014813
 30
0.0
 11
2.000000000001364
 21
5.999974519014813
 31
0.0
  0
LINE
  5
A6
330
78
100
AcDbEntity
  8
NoLayerName_001
  6
Continuous
 62
     3
370
    25
100
AcDbLine
 10
20.45925737773359
 20
59.4999745190139
 30
0.0
 11
50.00000000000192
 21
60.49997451901402
 31
0.0
  0
LINE
  5
A7
330
78
100
AcDbEntity
  8
NoLayerName_001
  6
Continuous
 62
     3
370
    25
100
AcDbLine
 10
50.00000000000182
 20
60.4999745190139
 30
0.0
 11
79.54074262227036
 21
59.49997451901402
 31
0.0
  0
LINE
  5
A8
330
78
100
AcDbEntity
  8
NoLayerName_001
  6
Continuous
 62
     3
370
    25
100
AcDbLine
 10
91.73666850828158
 20
5.999974519013904
 30
0.0
 11
98.00000000000114
 21
5.999974519014017
 31
0.0
  0
ARC
  5
A9
330
78
100
AcDbEntity
  8
NoLayerName_001
  6
Continuous
 62
     3
370
    25
100
AcDbCircle
 10
2.000000000001819
 20
3.999974519014813
 30
0.0
 40
2.0
100
AcDbArc
 50
90.0
 51
180.0
  0
ARC
  5
AA
330
78
100
AcDbEntity
  8
NoLayerName_001
  6
Continuous
 62
     3
370
    25
100
AcDbCircle
 10
20.45925737773359
 20
51.49997451901481
 30
0.0
 40
7.999999999999999
100
AcDbArc
 50
90.0
 51
178.7811247648684
  0
ARC
  5
AB
330
78
100
AcDbEntity
  8
NoLayerName_001
  6
Continuous
 62
     3
370
    25
100
AcDbCircle
 10
79.54074262227005
 20
51.49997451901481
 30
0.0
 40
8.0
100
AcDbArc
 50
1.218875235131631
 51
90.0
  0
ARC
  5
AC
330
78
100
AcDbEntity
  8
NoLayerName_001
  6
Continuous
 62
     3
370
    25
100
AcDbCircle
 10
98.00000000000182
 20
3.999974519014813
 30
0.0
 40
2.0
100
AcDbArc
 50
0.0
 51
90.0
  0
LINE
  5
AD
330
78
100
AcDbEntity
  8
NoLayerName_001
  6
Continuous
 62
     3
370
    25
100
AcDbLine
 10
100.0000000000018
 20
3.999974519014813
 30
0.0
 11
100.0000000000018
 21
-0.0000254809851867
 31
0.0
  0
LINE
  5
AE
330
78
100
AcDbEntity
  8
NoLayerName_001
  6
Continuous
 62
     3
370
    25
100
AcDbLine
 10
0.000000000001819
 20
3.999974519014813
 30
0.0
 11
0.0000000000018948
 21
-0.0000254809851867
 31
0.0
  0
LINE
  5
AF
330
78
100
AcDbEntity
  8
NoLayerName_001
  6
Continuous
 62
     3
370
    25
100
AcDbLine
 10
21.77918375371155
 20
-0.0000254809851867
 30
0.0
 11
100.0000000000018
 21
-0.0000254809851867
 31
0.0
  0
ARC
  5
B0
330
78
100
AcDbEntity
  8
NoLayerName_001
  6
Continuous
 62
     3
370
    25
100
AcDbCircle
 10
8.263331491720237
 20
8.999974519014813
 30
0.0
 40
3.0
100
AcDbArc
 50
270.0
 51
358.3392746906825
  0
ARC
  5
B1
330
78
100
AcDbEntity
  8
NoLayerName_001
  6
Continuous
 62
     3
370
    25
100
AcDbCircle
 10
91.73666850828158
 20
8.999974519013904
 30
0.0
 40
3.0
100
AcDbArc
 50
181.6607253093175
 51
270.000000000001
  0
ENDBLK
  5
7A
330
78
100
AcDbEntity
  8
0
100
AcDbBlockEnd
  0
BLOCK
  5
29F
330
29B
100
AcDbEntity
  8
0
100
AcDbBlockBegin
  2
_OPEN30
 70
     0
 10
0.0
 20
0.0
 30
0.0
  3
_OPEN30
  1
_OPEN30
  0
LINE
  5
29C
330
29B
100
AcDbEntity
  8
0
  6
ByBlock
 62
     0
370
    -2
100
AcDbLine
 10
-1.0
 20
0.267949
 30
0.0
 11
0.0
 21
0.0
 31
0.0
  0
LINE
  5
29D
330
29B
100
AcDbEntity
  8
0
  6
ByBlock
 62
     0
370
    -2
100
AcDbLine
 10
0.0
 20
0.0
 30
0.0
 11
-1.0
 21
-0.267949
 31
0.0
  0
LINE
  5
29E
330
29B
100
AcDbEntity
  8
0
  6
ByBlock
 62
     0
370
    -2
100
AcDbLine
 10
0.0
 20
0.0
 30
0.0
 11
-1.0
 21
0.0
 31
0.0
  0
ENDBLK
  5
2A0
330
29B
100
AcDbEntity
  8
0
100
AcDbBlockEnd
  0
BLOCK
  5
2A2
330
2A1
100
AcDbEntity
  8
0
100
AcDbBlockBegin
  2
*D4
 70
     1
 10
0.0
 20
0.0
 30
0.0
  3
*D4
  1
*D4
  0
LINE
  5
2A4
330
2A1
100
AcDbEntity
  8
NoLayerName_001
  6
Continuous
 62
     0
370
    25
100
AcDbLine
 10
2750.0
 20
2099.999974519015
 30
0.0
 11
2750.0
 21
1969.999974519015
 31
0.0
  0
LINE
  5
2A5
330
2A1
100
AcDbEntity
  8
NoLayerName_001
  6
Continuous
 62
     0
370
    25
100
AcDbLine
 10
3450.0
 20
2099.999974519015
 30
0.0
 11
3450.0
 21
1969.999974519015
 31
0.0
  0
LINE
  5
2A6
330
2A1
100
AcDbEntity
  8
NoLayerName_001
  6
Continuous
 62
     0
370
    25
100
AcDbLine
 10
2780.0
 20
1989.999974519015
 30
0.0
 11
3420.0
 21
1989.999974519015
 31
0.0
  0
INSERT
  5
2A7
330
2A1
100
AcDbEntity
  8
NoLayerName_001
 62
     0
370
    25
100
AcDbBlockReference
  2
_OPEN30
 10
2750.0
 20
1989.999974519015
 30
0.0
 41
30.0
 42
30.0
 43
30.0
 50
180.0
  0
INSERT
  5
2A8
330
2A1
100
AcDbEntity
  8
NoLayerName_001
 62
     0
370
    25
100
AcDbBlockReference
  2
_OPEN30
 10
3450.0
 20
1989.999974519015
 30
0.0
 41
30.0
 42
30.0
 43
30.0
  0
MTEXT
  5
2A9
330
2A1
100
AcDbEntity
  8
NoLayerName_001
 62
     0
370
    25
100
AcDbMText
 10
3100.0
 20
2041.999974519015
 30
0.0
 40
64.0
 41
0.0
 71
     5
 72
     1
  1
\W0.8000;700
 73
     1
 44
1.0
  0
POINT
  5
2AA
330
2A1
100
AcDbEntity
  8
Defpoints
 62
     0
100
AcDbPoint
 10
2750.0
 20
2109.999974519015
 30
0.0
  0
POINT
  5
2AB
330
2A1
100
AcDbEntity
  8
Defpoints
 62
     0
100
AcDbPoint
 10
3450.0
 20
2109.999974519015
 30
0.0
  0
POINT
  5
2AC
330
2A1
100
AcDbEntity
  8
Defpoints
 62
     0
100
AcDbPoint
 10
3450.0
 20
1989.999974519015
 30
0.0
  0
ENDBLK
  5
2A3
330
2A1
100
AcDbEntity
  8
0
100
AcDbBlockEnd
  0
BLOCK
  5
2B0
330
2AF
100
AcDbEntity
  8
0
100
AcDbBlockBegin
  2
*D5
 70
     1
 10
0.0
 20
0.0
 30
0.0
  3
*D5
  1
*D5
  0
LINE
  5
2B2
330
2AF
100
AcDbEntity
  8
NoLayerName_001
  6
Continuous
 62
     0
370
    25
100
AcDbLine
 10
3500.0
 20
2119.999974519015
 30
0.0
 11
3500.0
 21
1869.999974519015
 31
0.0
  0
LINE
  5
2B3
330
2AF
100
AcDbEntity
  8
NoLayerName_001
  6
Continuous
 62
     0
370
    25
100
AcDbLine
 10
2700.0
 20
2119.999974519015
 30
0.0
 11
2700.0
 21
1869.999974519015
 31
0.0
  0
LINE
  5
2B4
330
2AF
100
AcDbEntity
  8
NoLayerName_001
  6
Continuous
 62
     0
370
    25
100
AcDbLine
 10
3470.0
 20
1889.999974519015
 30
0.0
 11
2730.0
 21
1889.999974519015
 31
0.0
  0
INSERT
  5
2B5
330
2AF
100
AcDbEntity
  8
NoLayerName_001
 62
     0
370
    25
100
AcDbBlockReference
  2
_OPEN30
 10
3500.0
 20
1889.999974519015
 30
0.0
 41
30.0
 42
30.0
 43
30.0
  0
INSERT
  5
2B6
330
2AF
100
AcDbEntity
  8
NoLayerName_001
 62
     0
370
    25
100
AcDbBlockReference
  2
_OPEN30
 10
2700.0
 20
1889.999974519015
 30
0.0
 41
30.0
 42
30.0
 43
30.0
 50
180.0
  0
MTEXT
  5
2B7
330
2AF
100
AcDbEntity
  8
NoLayerName_001
 62
     0
370
    25
100
AcDbMText
 10
3100.0
 20
1941.999974519015
 30
0.0
 40
64.0
 41
0.0
 71
     5
 72
     1
  1
\W0.8000;800
 73
     1
 44
1.0
  0
POINT
  5
2B8
330
2AF
100
AcDbEntity
  8
Defpoints
 62
     0
100
AcDbPoint
 10
3500.0
 20
2129.999974519015
 30
0.0
  0
POINT
  5
2B9
330
2AF
100
AcDbEntity
  8
Defpoints
 62
     0
100
AcDbPoint
 10
2700.0
 20
2129.999974519015
 30
0.0
  0
POINT
  5
2BA
330
2AF
100
AcDbEntity
  8
Defpoints
 62
     0
100
AcDbPoint
 10
2700.0
 20
1889.999974519015
 30
0.0
  0
ENDBLK
  5
2B1
330
2AF
100
AcDbEntity
  8
0
100
AcDbBlockEnd
  0
BLOCK
  5
2BE
330
2BD
100
AcDbEntity
  8
0
100
AcDbBlockBegin
  2
*D6
 70
     1
 10
0.0
 20
0.0
 30
0.0
  3
*D6
  1
*D6
  0
LINE
  5
2C0
330
2BD
100
AcDbEntity
  8
NoLayerName_001
  6
Continuous
 62
     0
370
    25
100
AcDbLine
 10
3316.0
 20
3493.499974519015
 30
0.0
 11
3694.2
 21
3493.499974519015
 31
0.0
  0
LINE
  5
2C1
330
2BD
100
AcDbEntity
  8
NoLayerName_001
  6
Continuous
 62
     0
370
    25
100
AcDbLine
 10
3510.0
 20
2129.999974519015
 30
0.0
 11
3694.2
 21
2129.999974519015
 31
0.0
  0
LINE
  5
2C2
330
2BD
100
AcDbEntity
  8
NoLayerName_001
  6
Continuous
 62
     0
370
    25
100
AcDbLine
 10
3674.2
 20
3463.499974519015
 30
0.0
 11
3674.2
 21
2159.999974519015
 31
0.0
  0
INSERT
  5
2C3
330
2BD
100
AcDbEntity
  8
NoLayerName_001
 62
     0
370
    25
100
AcDbBlockReference
  2
_OPEN30
 10
3674.2
 20
3493.499974519015
 30
0.0
 41
30.0
 42
30.0
 43
30.0
 50
90.0
  0
INSERT
  5
2C4
330
2BD
100
AcDbEntity
  8
NoLayerName_001
 62
     0
370
    25
100
AcDbBlockReference
  2
_OPEN30
 10
3674.2
 20
2129.999974519015
 30
0.0
 41
30.0
 42
30.0
 43
30.0
 50
270.0
  0
MTEXT
  5
2C5
330
2BD
100
AcDbEntity
  8
NoLayerName_001
 62
     0
370
    25
100
AcDbMText
 10
3622.2
 20
2811.74997312025
 30
0.0
 40
64.0
 41
0.0
 71
     5
 72
     1
  1
\W0.8000;１３６４
 11
0.0
 21
1.0
 31
0.0
 73
     1
 44
1.0
  0
POINT
  5
2C6
330
2BD
100
AcDbEntity
  8
Defpoints
 62
     0
100
AcDbPoint
 10
3306.0
 20
3493.499974519015
 30
0.0
  0
POINT
  5
2C7
330
2BD
100
AcDbEntity
  8
Defpoints
 62
     0
100
AcDbPoint
 10
3500.0
 20
2129.999974519015
 30
0.0
  0
POINT
  5
2C8
330
2BD
100
AcDbEntity
  8
Defpoints
 62
     0
100
AcDbPoint
 10
3674.2
 20
2129.999974519015
 30
0.0
  0
ENDBLK
  5
2BF
330
2BD
100
AcDbEntity
  8
0
100
AcDbBlockEnd
  0
BLOCK
  5
2CC
330
2CB
100
AcDbEntity
  8
0
100
AcDbBlockBegin
  2
*D7
 70
     1
 10
0.0
 20
0.0
 30
0.0
  3
*D7
  1
*D7
  0
LINE
  5
2CE
330
2CB
100
AcDbEntity
  8
NoLayerName_001
  6
Continuous
 62
     0
370
    25
100
AcDbLine
 10
3316.0
 20
3493.499974519015
 30
0.0
 11
3594.2
 21
3493.499974519015
 31
0.0
  0
LINE
  5
2CF
330
2CB
100
AcDbEntity
  8
NoLayerName_001
  6
Continuous
 62
     0
370
    25
100
AcDbLine
 10
3437.5
 20
3334.499974519015
 30
0.0
 11
3594.2
 21
3334.499974519015
 31
0.0
  0
LINE
  5
2D0
330
2CB
100
AcDbEntity
  8
NoLayerName_001
  6
Continuous
 62
     0
370
    25
100
AcDbLine
 10
3574.2
 20
3463.499974519015
 30
0.0
 11
3574.2
 21
3364.499974519015
 31
0.0
  0
INSERT
  5
2D1
330
2CB
100
AcDbEntity
  8
NoLayerName_001
 62
     0
370
    25
100
AcDbBlockReference
  2
_OPEN30
 10
3574.2
 20
3493.499974519015
 30
0.0
 41
30.0
 42
30.0
 43
30.0
 50
90.0
  0
INSERT
  5
2D2
330
2CB
100
AcDbEntity
  8
NoLayerName_001
 62
     0
370
    25
100
AcDbBlockReference
  2
_OPEN30
 10
3574.2
 20
3334.499974519015
 30
0.0
 41
30.0
 42
30.0
 43
30.0
 50
270.0
  0
MTEXT
  5
2D3
330
2CB
100
AcDbEntity
  8
NoLayerName_001
 62
     0
370
    25
100
AcDbMText
 10
3522.2
 20
3413.99997312025
 30
0.0
 40
64.0
 41
0.0
 71
     5
 72
     1
  1
\W0.8000;\T0.7500;159
 11
0.0
 21
1.0
 31
0.0
 73
     1
 44
1.0
  0
POINT
  5
2D4
330
2CB
100
AcDbEntity
  8
Defpoints
 62
     0
100
AcDbPoint
 10
3306.0
 20
3493.499974519015
 30
0.0
  0
POINT
  5
2D5
330
2CB
100
AcDbEntity
  8
Defpoints
 62
     0
100
AcDbPoint
 10
3427.5
 20
3334.499974519015
 30
0.0
  0
POINT
  5
2D6
330
2CB
100
AcDbEntity
  8
Defpoints
 62
     0
100
AcDbPoint
 10
3574.2
 20
3334.499974519015
 30
0.0
  0
ENDBLK
  5
2CD
330
2CB
100
AcDbEntity
  8
0
100
AcDbBlockEnd
  0
BLOCK
  5
2DA
330
2D9
100
AcDbEntity
  8
0
100
AcDbBlockBegin
  2
*D8
 70
     1
 10
0.0
 20
0.0
 30
0.0
  3
*D8
  1
*D8
  0
LINE
  5
2DC
330
2D9
100
AcDbEntity
  8
NoLayerName_001
  6
Continuous
 62
     0
370
    25
100
AcDbLine
 10
3100.0
 20
3521.499974519016
 30
0.0
 11
3100.0
 21
3621.499974519016
 31
0.0
  0
LINE
  5
2DD
330
2D9
100
AcDbEntity
  8
NoLayerName_001
  6
Continuous
 62
     0
370
    25
100
AcDbLine
 10
3295.0
 20
3521.499974519016
 30
0.0
 11
3295.0
 21
3621.499974519016
 31
0.0
  0
LINE
  5
2DE
330
2D9
100
AcDbEntity
  8
NoLayerName_001
  6
Continuous
 62
     0
370
    25
100
AcDbLine
 10
3130.0
 20
3601.499974519016
 30
0.0
 11
3265.0
 21
3601.499974519016
 31
0.0
  0
INSERT
  5
2DF
330
2D9
100
AcDbEntity
  8
NoLayerName_001
 62
     0
370
    25
100
AcDbBlockReference
  2
_OPEN30
 10
3100.0
 20
3601.499974519016
 30
0.0
 41
30.0
 42
30.0
 43
30.0
 50
180.0
  0
INSERT
  5
2E0
330
2D9
100
AcDbEntity
  8
NoLayerName_001
 62
     0
370
    25
100
AcDbBlockReference
  2
_OPEN30
 10
3295.0
 20
3601.499974519016
 30
0.0
 41
30.0
 42
30.0
 43
30.0
  0
MTEXT
  5
2E1
330
2D9
100
AcDbEntity
  8
NoLayerName_001
 62
     0
370
    25
100
AcDbMText
 10
3197.5
 20
3653.499974519016
 30
0.0
 40
64.0
 41
0.0
 71
     5
 72
     1
  1
\W0.8000;\T0.7500;195
 73
     1
 44
1.0
  0
POINT
  5
2E2
330
2D9
100
AcDbEntity
  8
Defpoints
 62
     0
100
AcDbPoint
 10
3100.0
 20
3511.499974519016
 30
0.0
  0
POINT
  5
2E3
330
2D9
100
AcDbEntity
  8
Defpoints
 62
     0
100
AcDbPoint
 10
3295.0
 20
3511.499974519016
 30
0.0
  0
POINT
  5
2E4
330
2D9
100
AcDbEntity
  8
Defpoints
 62
     0
100
AcDbPoint
 10
3295.0
 20
3601.499974519016
 30
0.0
  0
ENDBLK
  5
2DB
330
2D9
100
AcDbEntity
  8
0
100
AcDbBlockEnd
  0
BLOCK
  5
2E8
330
2E7
100
AcDbEntity
  8
0
100
AcDbBlockBegin
  2
*D9
 70
     1
 10
0.0
 20
0.0
 30
0.0
  3
*D9
  1
*D9
  0
LINE
  5
2EA
330
2E7
100
AcDbEntity
  8
NoLayerName_001
  6
Continuous
 62
     0
370
    25
100
AcDbLine
 10
2940.0
 20
3522.499974519016
 30
0.0
 11
2940.0
 21
3621.499974519016
 31
0.0
  0
LINE
  5
2EB
330
2E7
100
AcDbEntity
  8
NoLayerName_001
  6
Continuous
 62
     0
370
    25
100
AcDbLine
 10
3100.0
 20
3521.499974519016
 30
0.0
 11
3100.0
 21
3621.499974519016
 31
0.0
  0
LINE
  5
2EC
330
2E7
100
AcDbEntity
  8
NoLayerName_001
  6
Continuous
 62
     0
370
    25
100
AcDbLine
 10
2970.0
 20
3601.499974519016
 30
0.0
 11
3070.0
 21
3601.499974519016
 31
0.0
  0
INSERT
  5
2ED
330
2E7
100
AcDbEntity
  8
NoLayerName_001
 62
     0
370
    25
100
AcDbBlockReference
  2
_OPEN30
 10
2940.0
 20
3601.499974519016
 30
0.0
 41
30.0
 42
30.0
 43
30.0
 50
180.0
  0
INSERT
  5
2EE
330
2E7
100
AcDbEntity
  8
NoLayerName_001
 62
     0
370
    25
100
AcDbBlockReference
  2
_OPEN30
 10
3100.0
 20
3601.499974519016
 30
0.0
 41
30.0
 42
30.0
 43
30.0
  0
MTEXT
  5
2EF
330
2E7
100
AcDbEntity
  8
NoLayerName_001
 62
     0
370
    25
100
AcDbMText
 10
3020.0
 20
3653.499974519016
 30
0.0
 40
64.0
 41
0.0
 71
     5
 72
     1
  1
\W0.8000;\T0.7500;160
 73
     1
 44
1.0
  0
POINT
  5
2F0
330
2E7
100
AcDbEntity
  8
Defpoints
 62
     0
100
AcDbPoint
 10
2940.0
 20
3512.499974519016
 30
0.0
  0
POINT
  5
2F1
330
2E7
100
AcDbEntity
  8
Defpoints
 62
     0
100
AcDbPoint
 10
3100.0
 20
3511.499974519016
 30
0.0
  0
POINT
  5
2F2
330
2E7
100
AcDbEntity
  8
Defpoints
 62
     0
100
AcDbPoint
 10
3100.0
 20
3601.499974519016
 30
0.0
  0
ENDBLK
  5
2E9
330
2E7
100
AcDbEntity
  8
0
100
AcDbBlockEnd
  0
BLOCK
  5
2F6
330
2F5
100
AcDbEntity
  8
0
100
AcDbBlockBegin
  2
*D10
 70
     1
 10
0.0
 20
0.0
 30
0.0
  3
*D10
  1
*D10
  0
LINE
  5
2F8
330
2F5
100
AcDbEntity
  8
NoLayerName_001
  6
Continuous
 62
     0
370
    25
100
AcDbLine
 10
2870.0
 20
3491.499974519016
 30
0.0
 11
2605.8
 21
3491.499974519016
 31
0.0
  0
LINE
  5
2F9
330
2F5
100
AcDbEntity
  8
NoLayerName_001
  6
Continuous
 62
     0
370
    25
100
AcDbLine
 10
2765.0
 20
3334.499974519015
 30
0.0
 11
2605.8
 21
3334.499974519015
 31
0.0
  0
LINE
  5
2FA
330
2F5
100
AcDbEntity
  8
NoLayerName_001
  6
Continuous
 62
     0
370
    25
100
AcDbLine
 10
2625.8
 20
3461.499974519016
 30
0.0
 11
2625.8
 21
3364.499974519015
 31
0.0
  0
INSERT
  5
2FB
330
2F5
100
AcDbEntity
  8
NoLayerName_001
 62
     0
370
    25
100
AcDbBlockReference
  2
_OPEN30
 10
2625.8
 20
3491.499974519016
 30
0.0
 41
30.0
 42
30.0
 43
30.0
 50
90.0
  0
INSERT
  5
2FC
330
2F5
100
AcDbEntity
  8
NoLayerName_001
 62
     0
370
    25
100
AcDbBlockReference
  2
_OPEN30
 10
2625.8
 20
3334.499974519015
 30
0.0
 41
30.0
 42
30.0
 43
30.0
 50
270.0
  0
MTEXT
  5
2FD
330
2F5
100
AcDbEntity
  8
NoLayerName_001
 62
     0
370
    25
100
AcDbMText
 10
2573.8
 20
3412.999973120251
 30
0.0
 40
64.0
 41
0.0
 71
     5
 72
     1
  1
\W0.8000;\T0.7500;157
 11
0.0
 21
1.0
 31
0.0
 73
     1
 44
1.0
  0
POINT
  5
2FE
330
2F5
100
AcDbEntity
  8
Defpoints
 62
     0
100
AcDbPoint
 10
2880.0
 20
3491.499974519016
 30
0.0
  0
POINT
  5
2FF
330
2F5
100
AcDbEntity
  8
Defpoints
 62
     0
100
AcDbPoint
 10
2775.0
 20
3334.499974519015
 30
0.0
  0
POINT
  5
300
330
2F5
100
AcDbEntity
  8
Defpoints
 62
     0
100
AcDbPoint
 10
2625.8
 20
3334.499974519015
 30
0.0
  0
ENDBLK
  5
2F7
330
2F5
100
AcDbEntity
  8
0
100
AcDbBlockEnd
  0
BLOCK
  5
306
330
305
100
AcDbEntity
  8
0
100
AcDbBlockBegin
  2
*D11
 70
     1
 10
0.0
 20
0.0
 30
0.0
  3
*D11
  1
*D11
  0
LINE
  5
308
330
305
100
AcDbEntity
  8
NoLayerName_001
  6
Continuous
 62
     0
370
    25
100
AcDbLine
 10
1600.0
 20
4144.999974519014
 30
0.0
 11
1600.0
 21
3855.799974519015
 31
0.0
  0
LINE
  5
309
330
305
100
AcDbEntity
  8
NoLayerName_001
  6
Continuous
 62
     0
370
    25
100
AcDbLine
 10
1450.0
 20
3965.799974519014
 30
0.0
 11
1450.0
 21
3855.799974519015
 31
0.0
  0
LINE
  5
30A
330
305
100
AcDbEntity
  8
NoLayerName_001
  6
Continuous
 62
     0
370
    25
100
AcDbLine
 10
1570.0
 20
3875.799974519015
 30
0.0
 11
1480.0
 21
3875.799974519015
 31
0.0
  0
INSERT
  5
30B
330
305
100
AcDbEntity
  8
NoLayerName_001
 62
     0
370
    25
100
AcDbBlockReference
  2
_OPEN30
 10
1600.0
 20
3875.799974519015
 30
0.0
 41
30.0
 42
30.0
 43
30.0
  0
INSERT
  5
30C
330
305
100
AcDbEntity
  8
NoLayerName_001
 62
     0
370
    25
100
AcDbBlockReference
  2
_OPEN30
 10
1450.0
 20
3875.799974519015
 30
0.0
 41
30.0
 42
30.0
 43
30.0
 50
180.0
  0
MTEXT
  5
30D
330
305
100
AcDbEntity
  8
NoLayerName_001
 62
     0
370
    25
100
AcDbMText
 10
1525.0
 20
3927.799974519015
 30
0.0
 40
64.0
 41
0.0
 71
     5
 72
     1
  1
\W0.8000;\T0.7500;150
 73
     1
 44
1.0
  0
POINT
  5
30E
330
305
100
AcDbEntity
  8
Defpoints
 62
     0
100
AcDbPoint
 10
1600.0
 20
4154.999974519014
 30
0.0
  0
POINT
  5
30F
330
305
100
AcDbEntity
  8
Defpoints
 62
     0
100
AcDbPoint
 10
1450.0
 20
3975.799974519014
 30
0.0
  0
POINT
  5
310
330
305
100
AcDbEntity
  8
Defpoints
 62
     0
100
AcDbPoint
 10
1450.0
 20
3875.799974519015
 30
0.0
  0
ENDBLK
  5
307
330
305
100
AcDbEntity
  8
0
100
AcDbBlockEnd
  0
BLOCK
  5
314
330
313
100
AcDbEntity
  8
0
100
AcDbBlockBegin
  2
*D12
 70
     1
 10
0.0
 20
0.0
 30
0.0
  3
*D12
  1
*D12
  0
LINE
  5
316
330
313
100
AcDbEntity
  8
NoLayerName_001
  6
Continuous
 62
     0
370
    25
100
AcDbLine
 10
1450.0
 20
3965.799974519014
 30
0.0
 11
1450.0
 21
3855.799974519015
 31
0.0
  0
LINE
  5
317
330
313
100
AcDbEntity
  8
NoLayerName_001
  6
Continuous
 62
     0
370
    25
100
AcDbLine
 10
1300.0
 20
4144.999974519014
 30
0.0
 11
1300.0
 21
3855.799974519015
 31
0.0
  0
LINE
  5
318
330
313
100
AcDbEntity
  8
NoLayerName_001
  6
Continuous
 62
     0
370
    25
100
AcDbLine
 10
1420.0
 20
3875.799974519015
 30
0.0
 11
1330.0
 21
3875.799974519015
 31
0.0
  0
INSERT
  5
319
330
313
100
AcDbEntity
  8
NoLayerName_001
 62
     0
370
    25
100
AcDbBlockReference
  2
_OPEN30
 10
1450.0
 20
3875.799974519015
 30
0.0
 41
30.0
 42
30.0
 43
30.0
  0
INSERT
  5
31A
330
313
100
AcDbEntity
  8
NoLayerName_001
 62
     0
370
    25
100
AcDbBlockReference
  2
_OPEN30
 10
1300.0
 20
3875.799974519015
 30
0.0
 41
30.0
 42
30.0
 43
30.0
 50
180.0
  0
MTEXT
  5
31B
330
313
100
AcDbEntity
  8
NoLayerName_001
 62
     0
370
    25
100
AcDbMText
 10
1375.0
 20
3927.799974519015
 30
0.0
 40
64.0
 41
0.0
 71
     5
 72
     1
  1
\W0.8000;\T0.7500;150
 73
     1
 44
1.0
  0
POINT
  5
31C
330
313
100
AcDbEntity
  8
Defpoints
 62
     0
100
AcDbPoint
 10
1450.0
 20
3975.799974519014
 30
0.0
  0
POINT
  5
31D
330
313
100
AcDbEntity
  8
Defpoints
 62
     0
100
AcDbPoint
 10
1300.0
 20
4154.999974519014
 30
0.0
  0
POINT
  5
31E
330
313
100
AcDbEntity
  8
Defpoints
 62
     0
100
AcDbPoint
 10
1300.0
 20
3875.799974519015
 30
0.0
  0
ENDBLK
  5
315
330
313
100
AcDbEntity
  8
0
100
AcDbBlockEnd
  0
BLOCK
  5
322
330
321
100
AcDbEntity
  8
0
100
AcDbBlockBegin
  2
*D13
 70
     1
 10
0.0
 20
0.0
 30
0.0
  3
*D13
  1
*D13
  0
LINE
  5
324
330
321
100
AcDbEntity
  8
NoLayerName_001
  6
Continuous
 62
     0
370
    25
100
AcDbLine
 10
1630.0
 20
4698.749974519014
 30
0.0
 11
1630.0
 21
4904.199974519014
 31
0.0
  0
LINE
  5
325
330
321
100
AcDbEntity
  8
NoLayerName_001
  6
Continuous
 62
     0
370
    25
100
AcDbLine
 10
1450.0
 20
4859.723475250239
 30
0.0
 11
1450.0
 21
4904.199974519014
 31
0.0
  0
LINE
  5
326
330
321
100
AcDbEntity
  8
NoLayerName_001
  6
Continuous
 62
     0
370
    25
100
AcDbLine
 10
1600.0
 20
4884.199974519014
 30
0.0
 11
1480.0
 21
4884.199974519014
 31
0.0
  0
INSERT
  5
327
330
321
100
AcDbEntity
  8
NoLayerName_001
 62
     0
370
    25
100
AcDbBlockReference
  2
_OPEN30
 10
1630.0
 20
4884.199974519014
 30
0.0
 41
30.0
 42
30.0
 43
30.0
  0
INSERT
  5
328
330
321
100
AcDbEntity
  8
NoLayerName_001
 62
     0
370
    25
100
AcDbBlockReference
  2
_OPEN30
 10
1450.0
 20
4884.199974519014
 30
0.0
 41
30.0
 42
30.0
 43
30.0
 50
180.0
  0
MTEXT
  5
329
330
321
100
AcDbEntity
  8
NoLayerName_001
 62
     0
370
    25
100
AcDbMText
 10
1540.0
 20
4936.199974519014
 30
0.0
 40
64.0
 41
0.0
 71
     5
 72
     1
  1
\W0.8000;\T0.7500;180
 73
     1
 44
1.0
  0
POINT
  5
32A
330
321
100
AcDbEntity
  8
Defpoints
 62
     0
100
AcDbPoint
 10
1630.0
 20
4688.749974519014
 30
0.0
  0
POINT
  5
32B
330
321
100
AcDbEntity
  8
Defpoints
 62
     0
100
AcDbPoint
 10
1450.0
 20
4849.723475250239
 30
0.0
  0
POINT
  5
32C
330
321
100
AcDbEntity
  8
Defpoints
 62
     0
100
AcDbPoint
 10
1450.0
 20
4884.199974519014
 30
0.0
  0
ENDBLK
  5
323
330
321
100
AcDbEntity
  8
0
100
AcDbBlockEnd
  0
BLOCK
  5
330
330
32F
100
AcDbEntity
  8
0
100
AcDbBlockBegin
  2
*D14
 70
     1
 10
0.0
 20
0.0
 30
0.0
  3
*D14
  1
*D14
  0
LINE
  5
332
330
32F
100
AcDbEntity
  8
NoLayerName_001
  6
Continuous
 62
     0
370
    25
100
AcDbLine
 10
1270.0
 20
4698.749974519014
 30
0.0
 11
1270.0
 21
4904.199974519014
 31
0.0
  0
LINE
  5
333
330
32F
100
AcDbEntity
  8
NoLayerName_001
  6
Continuous
 62
     0
370
    25
100
AcDbLine
 10
1450.0
 20
4859.723475250239
 30
0.0
 11
1450.0
 21
4904.199974519014
 31
0.0
  0
LINE
  5
334
330
32F
100
AcDbEntity
  8
NoLayerName_001
  6
Continuous
 62
     0
370
    25
100
AcDbLine
 10
1300.0
 20
4884.199974519014
 30
0.0
 11
1420.0
 21
4884.199974519014
 31
0.0
  0
INSERT
  5
335
330
32F
100
AcDbEntity
  8
NoLayerName_001
 62
     0
370
    25
100
AcDbBlockReference
  2
_OPEN30
 10
1270.0
 20
4884.199974519014
 30
0.0
 41
30.0
 42
30.0
 43
30.0
 50
180.0
  0
INSERT
  5
336
330
32F
100
AcDbEntity
  8
NoLayerName_001
 62
     0
370
    25
100
AcDbBlockReference
  2
_OPEN30
 10
1450.0
 20
4884.199974519014
 30
0.0
 41
30.0
 42
30.0
 43
30.0
  0
MTEXT
  5
337
330
32F
100
AcDbEntity
  8
NoLayerName_001
 62
     0
370
    25
100
AcDbMText
 10
1360.0
 20
4936.199974519014
 30
0.0
 40
64.0
 41
0.0
 71
     5
 72
     1
  1
\W0.8000;\T0.7500;180
 73
     1
 44
1.0
  0
POINT
  5
338
330
32F
100
AcDbEntity
  8
Defpoints
 62
     0
100
AcDbPoint
 10
1270.0
 20
4688.749974519014
 30
0.0
  0
POINT
  5
339
330
32F
100
AcDbEntity
  8
Defpoints
 62
     0
100
AcDbPoint
 10
1450.0
 20
4849.723475250239
 30
0.0
  0
POINT
  5
33A
330
32F
100
AcDbEntity
  8
Defpoints
 62
     0
100
AcDbPoint
 10
1450.0
 20
4884.199974519014
 30
0.0
  0
ENDBLK
  5
331
330
32F
100
AcDbEntity
  8
0
100
AcDbBlockEnd
  0
BLOCK
  5
341
330
340
100
AcDbEntity
  8
0
100
AcDbBlockBegin
  2
*D15
 70
     1
 10
0.0
 20
0.0
 30
0.0
  3
*D15
  1
*D15
  0
LINE
  5
343
330
340
100
AcDbEntity
  8
NoLayerName_001
  6
Continuous
 62
     0
370
    25
100
AcDbLine
 10
1885.0
 20
2119.999974519015
 30
0.0
 11
1885.0
 21
1869.999974519015
 31
0.0
  0
LINE
  5
344
330
340
100
AcDbEntity
  8
NoLayerName_001
  6
Continuous
 62
     0
370
    25
100
AcDbLine
 10
1015.002
 20
2119.999974519015
 30
0.0
 11
1015.002
 21
1869.999974519015
 31
0.0
  0
LINE
  5
345
330
340
100
AcDbEntity
  8
NoLayerName_001
  6
Continuous
 62
     0
370
    25
100
AcDbLine
 10
1855.0
 20
1889.999974519015
 30
0.0
 11
1045.002
 21
1889.999974519015
 31
0.0
  0
INSERT
  5
346
330
340
100
AcDbEntity
  8
NoLayerName_001
 62
     0
370
    25
100
AcDbBlockReference
  2
_OPEN30
 10
1885.0
 20
1889.999974519015
 30
0.0
 41
30.0
 42
30.0
 43
30.0
  0
INSERT
  5
347
330
340
100
AcDbEntity
  8
NoLayerName_001
 62
     0
370
    25
100
AcDbBlockReference
  2
_OPEN30
 10
1015.002
 20
1889.999974519015
 30
0.0
 41
30.0
 42
30.0
 43
30.0
 50
180.0
  0
MTEXT
  5
348
330
340
100
AcDbEntity
  8
NoLayerName_001
 62
     0
370
    25
100
AcDbMText
 10
1450.001
 20
1941.999974519015
 30
0.0
 40
64.0
 41
0.0
 71
     5
 72
     1
  1
\W0.8000;870
 73
     1
 44
1.0
  0
POINT
  5
349
330
340
100
AcDbEntity
  8
Defpoints
 62
     0
100
AcDbPoint
 10
1885.0
 20
2129.999974519015
 30
0.0
  0
POINT
  5
34A
330
340
100
AcDbEntity
  8
Defpoints
 62
     0
100
AcDbPoint
 10
1015.002
 20
2129.999974519015
 30
0.0
  0
POINT
  5
34B
330
340
100
AcDbEntity
  8
Defpoints
 62
     0
100
AcDbPoint
 10
1015.002
 20
1889.999974519015
 30
0.0
  0
ENDBLK
  5
342
330
340
100
AcDbEntity
  8
0
100
AcDbBlockEnd
  0
BLOCK
  5
34F
330
34E
100
AcDbEntity
  8
0
100
AcDbBlockBegin
  2
*D16
 70
     1
 10
0.0
 20
0.0
 30
0.0
  3
*D16
  1
*D16
  0
LINE
  5
351
330
34E
100
AcDbEntity
  8
NoLayerName_001
  6
Continuous
 62
     0
370
    25
100
AcDbLine
 10
1850.0
 20
2099.999974519015
 30
0.0
 11
1850.0
 21
1969.999974519015
 31
0.0
  0
LINE
  5
352
330
34E
100
AcDbEntity
  8
NoLayerName_001
  6
Continuous
 62
     0
370
    25
100
AcDbLine
 10
1050.002
 20
2099.999974519015
 30
0.0
 11
1050.002
 21
1969.999974519015
 31
0.0
  0
LINE
  5
353
330
34E
100
AcDbEntity
  8
NoLayerName_001
  6
Continuous
 62
     0
370
    25
100
AcDbLine
 10
1820.0
 20
1989.999974519015
 30
0.0
 11
1080.002
 21
1989.999974519015
 31
0.0
  0
INSERT
  5
354
330
34E
100
AcDbEntity
  8
NoLayerName_001
 62
     0
370
    25
100
AcDbBlockReference
  2
_OPEN30
 10
1850.0
 20
1989.999974519015
 30
0.0
 41
30.0
 42
30.0
 43
30.0
  0
INSERT
  5
355
330
34E
100
AcDbEntity
  8
NoLayerName_001
 62
     0
370
    25
100
AcDbBlockReference
  2
_OPEN30
 10
1050.002
 20
1989.999974519015
 30
0.0
 41
30.0
 42
30.0
 43
30.0
 50
180.0
  0
MTEXT
  5
356
330
34E
100
AcDbEntity
  8
NoLayerName_001
 62
     0
370
    25
100
AcDbMText
 10
1450.001
 20
2041.999974519015
 30
0.0
 40
64.0
 41
0.0
 71
     5
 72
     1
  1
\W0.8000;800
 73
     1
 44
1.0
  0
POINT
  5
357
330
34E
100
AcDbEntity
  8
Defpoints
 62
     0
100
AcDbPoint
 10
1850.0
 20
2109.999974519015
 30
0.0
  0
POINT
  5
358
330
34E
100
AcDbEntity
  8
Defpoints
 62
     0
100
AcDbPoint
 10
1050.002
 20
2109.999974519015
 30
0.0
  0
POINT
  5
359
330
34E
100
AcDbEntity
  8
Defpoints
 62
     0
100
AcDbPoint
 10
1050.002
 20
1989.999974519015
 30
0.0
  0
ENDBLK
  5
350
330
34E
100
AcDbEntity
  8
0
100
AcDbBlockEnd
  0
BLOCK
  5
35D
330
35C
100
AcDbEntity
  8
0
100
AcDbBlockBegin
  2
*D17
 70
     1
 10
0.0
 20
0.0
 30
0.0
  3
*D17
  1
*D17
  0
LINE
  5
35F
330
35C
100
AcDbEntity
  8
NoLayerName_001
  6
Continuous
 62
     0
370
    25
100
AcDbLine
 10
814.3399610142355
 20
4615.702297875228
 30
0.0
 11
814.3399610142355
 21
5033.064732841508
 31
0.0
  0
LINE
  5
360
330
35C
100
AcDbEntity
  8
NoLayerName_001
  6
Continuous
 62
     0
370
    25
100
AcDbLine
 10
2085.660038985764
 20
4615.702297875228
 30
0.0
 11
2085.660038985764
 21
5033.064732841508
 31
0.0
  0
LINE
  5
361
330
35C
100
AcDbEntity
  8
NoLayerName_001
  6
Continuous
 62
     0
370
    25
100
AcDbLine
 10
844.3399610142355
 20
5013.064732841508
 30
0.0
 11
2055.660038985764
 21
5013.064732841508
 31
0.0
  0
INSERT
  5
362
330
35C
100
AcDbEntity
  8
NoLayerName_001
 62
     0
370
    25
100
AcDbBlockReference
  2
_OPEN30
 10
814.3399610142355
 20
5013.064732841508
 30
0.0
 41
30.0
 42
30.0
 43
30.0
 50
180.0
  0
INSERT
  5
363
330
35C
100
AcDbEntity
  8
NoLayerName_001
 62
     0
370
    25
100
AcDbBlockReference
  2
_OPEN30
 10
2085.660038985764
 20
5013.064732841508
 30
0.0
 41
30.0
 42
30.0
 43
30.0
  0
MTEXT
  5
364
330
35C
100
AcDbEntity
  8
NoLayerName_001
 62
     0
370
    25
100
AcDbMText
 10
1450.0
 20
5065.064732841508
 30
0.0
 40
64.0
 41
0.0
 71
     5
 72
     1
  1
\W0.8000;１２７５
 73
     1
 44
1.0
  0
POINT
  5
365
330
35C
100
AcDbEntity
  8
Defpoints
 62
     0
100
AcDbPoint
 10
814.3399610142355
 20
4605.702297875228
 30
0.0
  0
POINT
  5
366
330
35C
100
AcDbEntity
  8
Defpoints
 62
     0
100
AcDbPoint
 10
2085.660038985764
 20
4605.702297875228
 30
0.0
  0
POINT
  5
367
330
35C
100
AcDbEntity
  8
Defpoints
 62
     0
100
AcDbPoint
 10
2085.660038985764
 20
5013.064732841508
 30
0.0
  0
ENDBLK
  5
35E
330
35C
100
AcDbEntity
  8
0
100
AcDbBlockEnd
  0
BLOCK
  5
36B
330
36A
100
AcDbEntity
  8
0
100
AcDbBlockBegin
  2
*D18
 70
     1
 10
0.0
 20
0.0
 30
0.0
  3
*D18
  1
*D18
  0
LINE
  5
36D
330
36A
100
AcDbEntity
  8
NoLayerName_001
  6
Continuous
 62
     0
370
    25
100
AcDbLine
 10
997.5000000000002
 20
3997.799974519015
 30
0.0
 11
667.1948604293277
 21
3997.799974519015
 31
0.0
  0
LINE
  5
36E
330
36A
100
AcDbEntity
  8
NoLayerName_001
  6
Continuous
 62
     0
370
    25
100
AcDbLine
 10
997.5000000000002
 20
4822.199974519014
 30
0.0
 11
667.1948604293277
 21
4822.199974519014
 31
0.0
  0
LINE
  5
36F
330
36A
100
AcDbEntity
  8
NoLayerName_001
  6
Continuous
 62
     0
370
    25
100
AcDbLine
 10
687.1948604293277
 20
4027.799974519015
 30
0.0
 11
687.1948604293277
 21
4792.199974519014
 31
0.0
  0
INSERT
  5
370
330
36A
100
AcDbEntity
  8
NoLayerName_001
 62
     0
370
    25
100
AcDbBlockReference
  2
_OPEN30
 10
687.1948604293277
 20
3997.799974519015
 30
0.0
 41
30.0
 42
30.0
 43
30.0
 50
270.0
  0
INSERT
  5
371
330
36A
100
AcDbEntity
  8
NoLayerName_001
 62
     0
370
    25
100
AcDbBlockReference
  2
_OPEN30
 10
687.1948604293277
 20
4822.199974519014
 30
0.0
 41
30.0
 42
30.0
 43
30.0
 50
90.0
  0
MTEXT
  5
372
330
36A
100
AcDbEntity
  8
NoLayerName_001
 62
     0
370
    25
100
AcDbMText
 10
635.1948604293277
 20
4409.99997312025
 30
0.0
 40
64.0
 41
0.0
 71
     5
 72
     1
  1
\W0.8000;８３０
 11
0.0
 21
1.0
 31
0.0
 73
     1
 44
1.0
  0
POINT
  5
373
330
36A
100
AcDbEntity
  8
Defpoints
 62
     0
100
AcDbPoint
 10
1007.5
 20
3997.799974519015
 30
0.0
  0
POINT
  5
374
330
36A
100
AcDbEntity
  8
Defpoints
 62
     0
100
AcDbPoint
 10
1007.5
 20
4822.199974519014
 30
0.0
  0
POINT
  5
375
330
36A
100
AcDbEntity
  8
Defpoints
 62
     0
100
AcDbPoint
 10
687.1948604293277
 20
4822.199974519014
 30
0.0
  0
ENDBLK
  5
36C
330
36A
100
AcDbEntity
  8
0
100
AcDbBlockEnd
  0
ENDSEC
  0
SECTION
  2
ENTITIES
  0
POINT
  5
B2
330
1F
100
AcDbEntity
  8
NoLayerName_001
  6
Continuous
 62
     7
 60
     1
370
    50
100
AcDbPoint
 10
0.0
 20
0.0
 30
0.0
  0
CIRCLE
  5
B3
330
1F
100
AcDbEntity
  8
FRAME
  6
Continuous
 62
     1
370
    25
100
AcDbCircle
 10
1450.0
 20
4604.999974519014
 30
0.0
 40
48.75
  0
LINE
  5
B4
330
1F
100
AcDbEntity
  8
FRAME
  6
CENTER
 62
     1
370
    25
100
AcDbLine
 10
1415.0
 20
4249.999974519014
 30
0.0
 11
1395.0
 21
4249.999974519014
 31
0.0
  0
LINE
  5
B5
330
1F
100
AcDbEntity
  8
FRAME
  6
CENTER
 62
     1
370
    25
100
AcDbLine
 10
1505.0
 20
4249.999974519014
 30
0.0
 11
1485.0
 21
4249.999974519014
 31
0.0
  0
LINE
  5
B6
330
1F
100
AcDbEntity
  8
FRAME
  6
CENTER
 62
     1
370
    25
100
AcDbLine
 10
1564.74
 20
4249.999974519014
 30
0.0
 11
1544.74
 21
4249.999974519014
 31
0.0
  0
LINE
  5
B7
330
1F
100
AcDbEntity
  8
FRAME
  6
CENTER
 62
     1
370
    25
100
AcDbLine
 10
1654.74
 20
4249.999974519014
 30
0.0
 11
1634.74
 21
4249.999974519014
 31
0.0
  0
LINE
  5
B8
330
1F
100
AcDbEntity
  8
FRAME
  6
CENTER
 62
     1
370
    25
100
AcDbLine
 10
1600.0
 20
4324.999974519014
 30
0.0
 11
1600.0
 21
4344.999974519014
 31
0.0
  0
LINE
  5
B9
330
1F
100
AcDbEntity
  8
FRAME
  6
CENTER
 62
     1
370
    25
100
AcDbLine
 10
1600.0
 20
4174.999974519014
 30
0.0
 11
1600.0
 21
4154.999974519014
 31
0.0
  0
LINE
  5
BA
330
1F
100
AcDbEntity
  8
FRAME
  6
CENTER
 62
     1
370
    25
100
AcDbLine
 10
1264.74
 20
4249.999974519014
 30
0.0
 11
1244.74
 21
4249.999974519014
 31
0.0
  0
LINE
  5
BB
330
1F
100
AcDbEntity
  8
FRAME
  6
CENTER
 62
     1
370
    25
100
AcDbLine
 10
1300.0
 20
4324.999974519014
 30
0.0
 11
1300.0
 21
4344.999974519014
 31
0.0
  0
LINE
  5
BC
330
1F
100
AcDbEntity
  8
FRAME
  6
CENTER
 62
     1
370
    25
100
AcDbLine
 10
1354.74
 20
4249.999974519014
 30
0.0
 11
1334.74
 21
4249.999974519014
 31
0.0
  0
CIRCLE
  5
BD
330
1F
100
AcDbEntity
  8
FRAME
  6
Continuous
 62
     1
370
    25
100
AcDbCircle
 10
1270.0
 20
4604.999974519014
 30
0.0
 40
48.75
  0
CIRCLE
  5
BE
330
1F
100
AcDbEntity
  8
FRAME
  6
Continuous
 62
     1
370
    25
100
AcDbCircle
 10
1630.0
 20
4604.999974519014
 30
0.0
 40
48.75
  0
LINE
  5
BF
330
1F
100
AcDbEntity
  8
NoLayerName_001
  6
Continuous
 62
     7
370
    25
100
AcDbLine
 10
3406.999999999999
 20
3262.999974519015
 30
0.0
 11
3386.999999999999
 21
3262.999974519015
 31
0.0
  0
LINE
  5
C0
330
1F
100
AcDbEntity
  8
NoLayerName_001
  6
Continuous
 62
     7
370
    25
100
AcDbLine
 10
2793.0
 20
3262.999974519015
 30
0.0
 11
2813.0
 21
3262.999974519015
 31
0.0
  0
ARC
  5
C1
330
1F
100
AcDbEntity
  8
NoLayerName_001
  6
Continuous
 62
     7
370
    25
100
AcDbCircle
 10
1599.74
 20
4289.999974519014
 30
0.0
 40
35.0
100
AcDbArc
 50
0.0
 51
180.0
  0
ARC
  5
C2
330
1F
100
AcDbEntity
  8
NoLayerName_001
  6
Continuous
 62
     7
370
    25
100
AcDbCircle
 10
1599.74
 20
4209.999974519014
 30
0.0
 40
35.0
100
AcDbArc
 50
180.0
 51
0.0
  0
LINE
  5
C3
330
1F
100
AcDbEntity
  8
FRAME
  6
Continuous
 62
     1
370
    25
100
AcDbLine
 10
1634.74
 20
4209.999974519014
 30
0.0
 11
1634.74
 21
4289.999974519014
 31
0.0
  0
LINE
  5
C4
330
1F
100
AcDbEntity
  8
FRAME
  6
Continuous
 62
     1
370
    25
100
AcDbLine
 10
1564.74
 20
4289.999974519014
 30
0.0
 11
1564.74
 21
4209.999974519014
 31
0.0
  0
ARC
  5
C5
330
1F
100
AcDbEntity
  8
NoLayerName_001
  6
Continuous
 62
     7
370
    25
100
AcDbCircle
 10
1449.74
 20
4289.999974519014
 30
0.0
 40
35.0
100
AcDbArc
 50
0.0
 51
180.0
  0
ARC
  5
C6
330
1F
100
AcDbEntity
  8
NoLayerName_001
  6
Continuous
 62
     7
370
    25
100
AcDbCircle
 10
1449.74
 20
4209.999974519014
 30
0.0
 40
35.0
100
AcDbArc
 50
180.0
 51
0.0
  0
LINE
  5
C7
330
1F
100
AcDbEntity
  8
FRAME
  6
Continuous
 62
     1
370
    25
100
AcDbLine
 10
1484.74
 20
4209.999974519014
 30
0.0
 11
1484.74
 21
4289.999974519014
 31
0.0
  0
LINE
  5
C8
330
1F
100
AcDbEntity
  8
FRAME
  6
Continuous
 62
     1
370
    25
100
AcDbLine
 10
1414.74
 20
4289.999974519014
 30
0.0
 11
1414.74
 21
4209.999974519014
 31
0.0
  0
ARC
  5
C9
330
1F
100
AcDbEntity
  8
NoLayerName_001
  6
Continuous
 62
     7
370
    25
100
AcDbCircle
 10
1299.74
 20
4289.999974519014
 30
0.0
 40
35.0
100
AcDbArc
 50
0.0
 51
180.0
  0
ARC
  5
CA
330
1F
100
AcDbEntity
  8
NoLayerName_001
  6
Continuous
 62
     7
370
    25
100
AcDbCircle
 10
1299.74
 20
4209.999974519014
 30
0.0
 40
35.0
100
AcDbArc
 50
180.0
 51
0.0
  0
LINE
  5
CB
330
1F
100
AcDbEntity
  8
FRAME
  6
Continuous
 62
     1
370
    25
100
AcDbLine
 10
1334.74
 20
4209.999974519014
 30
0.0
 11
1334.74
 21
4289.999974519014
 31
0.0
  0
LINE
  5
CC
330
1F
100
AcDbEntity
  8
FRAME
  6
Continuous
 62
     1
370
    25
100
AcDbLine
 10
1264.74
 20
4289.999974519014
 30
0.0
 11
1264.74
 21
4209.999974519014
 31
0.0
  0
LINE
  5
CD
330
1F
100
AcDbEntity
  8
FRAME
  6
CENTER
 62
     1
370
    25
100
AcDbLine
 10
1450.0
 20
4561.249974519014
 30
0.0
 11
1450.0
 21
4324.999008791406
 31
0.0
  0
LINE
  5
CE
330
1F
100
AcDbEntity
  8
FRAME
  6
CENTER
 62
     1
370
    25
100
AcDbLine
 10
1300.0
 20
4173.445510843354
 30
0.0
 11
1300.0
 21
4154.999974519014
 31
0.0
  0
LINE
  5
CF
330
1F
100
AcDbEntity
  8
FRAME
  6
CENTER
 62
     1
370
    25
100
AcDbLine
 10
1450.0
 20
4849.723475250239
 30
0.0
 11
1450.0
 21
4658.749974519014
 31
0.0
  0
LINE
  5
D0
330
1F
100
AcDbEntity
  8
FRAME
  6
Continuous
 62
     1
370
    25
100
AcDbLine
 10
1481.999999999998
 20
3342.499974519017
 30
0.0
 11
1481.999999999998
 21
3338.499974519017
 31
0.0
  0
ARC
  5
D1
330
1F
100
AcDbEntity
  8
FRAME
  6
Continuous
 62
     1
370
    25
100
AcDbCircle
 10
1484.000000000001
 20
3343.499974519015
 30
0.0
 40
1.0
100
AcDbArc
 50
270.0
 51
0.0
  0
LINE
  5
D2
330
1F
100
AcDbEntity
  8
FRAME
  6
Continuous
 62
     1
370
    25
100
AcDbLine
 10
1485.0
 20
3350.499974519013
 30
0.0
 11
1485.0
 21
3343.499974519013
 31
0.0
  0
LINE
  5
D3
330
1F
100
AcDbEntity
  8
FRAME
  6
Continuous
 62
     1
370
    25
100
AcDbLine
 10
1475.540000000001
 20
3370.359974519012
 30
0.0
 11
1485.000000000001
 21
3350.499974519012
 31
0.0
  0
ARC
  5
D4
330
1F
100
AcDbEntity
  8
FRAME
  6
Continuous
 62
     1
370
    25
100
AcDbCircle
 10
1473.739999999998
 20
3369.499974519015
 30
0.0
 40
2.0
100
AcDbArc
 50
25.46330000000272
 51
90.0
  0
LINE
  5
D5
330
1F
100
AcDbEntity
  8
FRAME
  6
Continuous
 62
     1
370
    25
100
AcDbLine
 10
1472.999999999997
 20
3375.499974519013
 30
0.0
 11
1472.999999999997
 21
3371.499974519013
 31
0.0
  0
LINE
  5
D6
330
1F
100
AcDbEntity
  8
FRAME
  6
Continuous
 62
     1
370
    25
100
AcDbLine
 10
1460.0
 20
3488.499974519016
 30
0.0
 11
1460.0
 21
3393.499974519016
 31
0.0
  0
LINE
  5
D7
330
1F
100
AcDbEntity
  8
FRAME
  6
Continuous
 62
     1
370
    25
100
AcDbLine
 10
1460.0
 20
3488.499974519016
 30
0.0
 11
1460.0
 21
3493.499974519016
 31
0.0
  0
LINE
  5
D8
330
1F
100
AcDbEntity
  8
FRAME
  6
Continuous
 62
     1
370
    25
100
AcDbLine
 10
1460.0
 20
3393.499974519015
 30
0.0
 11
1460.0
 21
3395.499974519015
 31
0.0
  0
LINE
  5
D9
330
1F
100
AcDbEntity
  8
FRAME
  6
Continuous
 62
     1
370
    25
100
AcDbLine
 10
1470.0
 20
3395.499974519013
 30
0.0
 11
1460.0
 21
3395.499974519013
 31
0.0
  0
LINE
  5
DA
330
1F
100
AcDbEntity
  8
FRAME
  6
Continuous
 62
     1
370
    25
100
AcDbLine
 10
1475.0
 20
3375.499974519013
 30
0.0
 11
1475.0
 21
3395.499974519013
 31
0.0
  0
LINE
  5
DB
330
1F
100
AcDbEntity
  8
FRAME
  6
Continuous
 62
     1
370
    25
100
AcDbLine
 10
1475.0
 20
3395.499974519013
 30
0.0
 11
1470.0
 21
3395.499974519013
 31
0.0
  0
LINE
  5
DC
330
1F
100
AcDbEntity
  8
FRAME
  6
Continuous
 62
     1
370
    25
100
AcDbLine
 10
1470.0
 20
3375.499974519013
 30
0.0
 11
1475.0
 21
3375.499974519013
 31
0.0
  0
LINE
  5
DD
330
1F
100
AcDbEntity
  8
FRAME
  6
Continuous
 62
     1
370
    25
100
AcDbLine
 10
1473.739999999998
 20
3371.499974519013
 30
0.0
 11
1449.999999999998
 21
3371.499974519013
 31
0.0
  0
LINE
  5
DE
330
1F
100
AcDbEntity
  8
FRAME
  6
Continuous
 62
     1
370
    25
100
AcDbLine
 10
1460.0
 20
3393.499974519015
 30
0.0
 11
1450.0
 21
3393.499974519015
 31
0.0
  0
LINE
  5
DF
330
1F
100
AcDbEntity
  8
FRAME
  6
Continuous
 62
     1
370
    25
100
AcDbLine
 10
1460.0
 20
3493.499974519016
 30
0.0
 11
1450.0
 21
3493.499974519016
 31
0.0
  0
LINE
  5
E0
330
1F
100
AcDbEntity
  8
FRAME
  6
Continuous
 62
     1
370
    25
100
AcDbLine
 10
1460.0
 20
3393.499974519015
 30
0.0
 11
1450.0
 21
3393.499974519015
 31
0.0
  0
LINE
  5
E1
330
1F
100
AcDbEntity
  8
FRAME
  6
Continuous
 62
     1
370
    25
100
AcDbLine
 10
1470.0
 20
3375.499974519013
 30
0.0
 11
1450.0
 21
3375.499974519013
 31
0.0
  0
LINE
  5
E2
330
1F
100
AcDbEntity
  8
FRAME
  6
Continuous
 62
     1
370
    25
100
AcDbLine
 10
1485.0
 20
3350.499974519013
 30
0.0
 11
1450.0
 21
3350.499974519013
 31
0.0
  0
LINE
  5
E3
330
1F
100
AcDbEntity
  8
FRAME
  6
Continuous
 62
     1
370
    25
100
AcDbLine
 10
1450.0
 20
3342.499974519017
 30
0.0
 11
1484.0
 21
3342.499974519017
 31
0.0
  0
LINE
  5
E4
330
1F
100
AcDbEntity
  8
FRAME
  6
Continuous
 62
     1
370
    25
100
AcDbLine
 10
1417.999999999997
 20
3342.499974519017
 30
0.0
 11
1417.999999999997
 21
3338.499974519017
 31
0.0
  0
ARC
  5
E5
330
1F
100
AcDbEntity
  8
FRAME
  6
Continuous
 62
     1
370
    25
100
AcDbCircle
 10
1415.999999999999
 20
3343.499974519015
 30
0.0
 40
1.0
100
AcDbArc
 50
180.0
 51
270.0
  0
LINE
  5
E6
330
1F
100
AcDbEntity
  8
FRAME
  6
Continuous
 62
     1
370
    25
100
AcDbLine
 10
1415.0
 20
3350.499974519013
 30
0.0
 11
1415.0
 21
3343.499974519013
 31
0.0
  0
LINE
  5
E7
330
1F
100
AcDbEntity
  8
FRAME
  6
Continuous
 62
     1
370
    25
100
AcDbLine
 10
1424.459999999999
 20
3370.359974519012
 30
0.0
 11
1414.999999999999
 21
3350.499974519012
 31
0.0
  0
ARC
  5
E8
330
1F
100
AcDbEntity
  8
FRAME
  6
Continuous
 62
     1
370
    25
100
AcDbCircle
 10
1426.259999999997
 20
3369.499974519015
 30
0.0
 40
1.999999999999944
100
AcDbArc
 50
90.0
 51
154.5369999999958
  0
LINE
  5
E9
330
1F
100
AcDbEntity
  8
FRAME
  6
Continuous
 62
     1
370
    25
100
AcDbLine
 10
1426.999999999998
 20
3375.499974519013
 30
0.0
 11
1426.999999999998
 21
3371.499974519013
 31
0.0
  0
LINE
  5
EA
330
1F
100
AcDbEntity
  8
FRAME
  6
Continuous
 62
     1
370
    25
100
AcDbLine
 10
1440.0
 20
3488.499974519016
 30
0.0
 11
1440.0
 21
3393.499974519016
 31
0.0
  0
LINE
  5
EB
330
1F
100
AcDbEntity
  8
FRAME
  6
Continuous
 62
     1
370
    25
100
AcDbLine
 10
1440.0
 20
3488.499974519016
 30
0.0
 11
1440.0
 21
3493.499974519016
 31
0.0
  0
LINE
  5
EC
330
1F
100
AcDbEntity
  8
FRAME
  6
Continuous
 62
     1
370
    25
100
AcDbLine
 10
1440.0
 20
3393.499974519015
 30
0.0
 11
1440.0
 21
3395.499974519015
 31
0.0
  0
LINE
  5
ED
330
1F
100
AcDbEntity
  8
FRAME
  6
Continuous
 62
     1
370
    25
100
AcDbLine
 10
1430.0
 20
3395.499974519013
 30
0.0
 11
1440.0
 21
3395.499974519013
 31
0.0
  0
LINE
  5
EE
330
1F
100
AcDbEntity
  8
FRAME
  6
Continuous
 62
     1
370
    25
100
AcDbLine
 10
1425.0
 20
3375.499974519013
 30
0.0
 11
1425.0
 21
3395.499974519013
 31
0.0
  0
LINE
  5
EF
330
1F
100
AcDbEntity
  8
FRAME
  6
Continuous
 62
     1
370
    25
100
AcDbLine
 10
1425.0
 20
3395.499974519013
 30
0.0
 11
1430.0
 21
3395.499974519013
 31
0.0
  0
LINE
  5
F0
330
1F
100
AcDbEntity
  8
FRAME
  6
Continuous
 62
     1
370
    25
100
AcDbLine
 10
1430.0
 20
3375.499974519013
 30
0.0
 11
1425.0
 21
3375.499974519013
 31
0.0
  0
LINE
  5
F1
330
1F
100
AcDbEntity
  8
FRAME
  6
Continuous
 62
     1
370
    25
100
AcDbLine
 10
1426.259999999997
 20
3371.499974519013
 30
0.0
 11
1449.999999999997
 21
3371.499974519013
 31
0.0
  0
LINE
  5
F2
330
1F
100
AcDbEntity
  8
FRAME
  6
Continuous
 62
     1
370
    25
100
AcDbLine
 10
1440.0
 20
3393.499974519015
 30
0.0
 11
1450.0
 21
3393.499974519015
 31
0.0
  0
LINE
  5
F3
330
1F
100
AcDbEntity
  8
FRAME
  6
Continuous
 62
     1
370
    25
100
AcDbLine
 10
1440.0
 20
3493.499974519016
 30
0.0
 11
1450.0
 21
3493.499974519016
 31
0.0
  0
LINE
  5
F4
330
1F
100
AcDbEntity
  8
FRAME
  6
Continuous
 62
     1
370
    25
100
AcDbLine
 10
1440.0
 20
3393.499974519015
 30
0.0
 11
1450.0
 21
3393.499974519015
 31
0.0
  0
LINE
  5
F5
330
1F
100
AcDbEntity
  8
FRAME
  6
Continuous
 62
     1
370
    25
100
AcDbLine
 10
1430.0
 20
3375.499974519013
 30
0.0
 11
1450.0
 21
3375.499974519013
 31
0.0
  0
LINE
  5
F6
330
1F
100
AcDbEntity
  8
FRAME
  6
Continuous
 62
     1
370
    25
100
AcDbLine
 10
1415.0
 20
3350.499974519013
 30
0.0
 11
1450.0
 21
3350.499974519013
 31
0.0
  0
LINE
  5
F7
330
1F
100
AcDbEntity
  8
FRAME
  6
Continuous
 62
     1
370
    25
100
AcDbLine
 10
1450.0
 20
3342.499974519017
 30
0.0
 11
1416.0
 21
3342.499974519017
 31
0.0
  0
LINE
  5
F8
330
1F
100
AcDbEntity
  8
FRAME
  6
Continuous
 62
     1
370
    25
100
AcDbLine
 10
1631.999999999998
 20
3342.499974519017
 30
0.0
 11
1631.999999999998
 21
3338.499974519017
 31
0.0
  0
ARC
  5
F9
330
1F
100
AcDbEntity
  8
FRAME
  6
Continuous
 62
     1
370
    25
100
AcDbCircle
 10
1634.000000000001
 20
3343.499974519015
 30
0.0
 40
1.0
100
AcDbArc
 50
270.0
 51
0.0
  0
LINE
  5
FA
330
1F
100
AcDbEntity
  8
FRAME
  6
Continuous
 62
     1
370
    25
100
AcDbLine
 10
1635.0
 20
3350.499974519013
 30
0.0
 11
1635.0
 21
3343.499974519013
 31
0.0
  0
LINE
  5
FB
330
1F
100
AcDbEntity
  8
FRAME
  6
Continuous
 62
     1
370
    25
100
AcDbLine
 10
1625.540000000001
 20
3370.359974519012
 30
0.0
 11
1635.000000000001
 21
3350.499974519012
 31
0.0
  0
ARC
  5
FC
330
1F
100
AcDbEntity
  8
FRAME
  6
Continuous
 62
     1
370
    25
100
AcDbCircle
 10
1623.739999999998
 20
3369.499974519015
 30
0.0
 40
2.0
100
AcDbArc
 50
25.46330000000272
 51
90.0
  0
LINE
  5
FD
330
1F
100
AcDbEntity
  8
FRAME
  6
Continuous
 62
     1
370
    25
100
AcDbLine
 10
1622.999999999997
 20
3375.499974519013
 30
0.0
 11
1622.999999999997
 21
3371.499974519013
 31
0.0
  0
LINE
  5
FE
330
1F
100
AcDbEntity
  8
FRAME
  6
Continuous
 62
     1
370
    25
100
AcDbLine
 10
1610.0
 20
3488.499974519016
 30
0.0
 11
1610.0
 21
3393.499974519016
 31
0.0
  0
LINE
  5
FF
330
1F
100
AcDbEntity
  8
FRAME
  6
Continuous
 62
     1
370
    25
100
AcDbLine
 10
1610.0
 20
3488.499974519016
 30
0.0
 11
1610.0
 21
3493.499974519016
 31
0.0
  0
LINE
  5
100
330
1F
100
AcDbEntity
  8
FRAME
  6
Continuous
 62
     1
370
    25
100
AcDbLine
 10
1610.0
 20
3393.499974519015
 30
0.0
 11
1610.0
 21
3395.499974519015
 31
0.0
  0
LINE
  5
101
330
1F
100
AcDbEntity
  8
FRAME
  6
Continuous
 62
     1
370
    25
100
AcDbLine
 10
1620.0
 20
3395.499974519013
 30
0.0
 11
1610.0
 21
3395.499974519013
 31
0.0
  0
LINE
  5
102
330
1F
100
AcDbEntity
  8
FRAME
  6
Continuous
 62
     1
370
    25
100
AcDbLine
 10
1625.0
 20
3375.499974519013
 30
0.0
 11
1625.0
 21
3395.499974519013
 31
0.0
  0
LINE
  5
103
330
1F
100
AcDbEntity
  8
FRAME
  6
Continuous
 62
     1
370
    25
100
AcDbLine
 10
1625.0
 20
3395.499974519013
 30
0.0
 11
1620.0
 21
3395.499974519013
 31
0.0
  0
LINE
  5
104
330
1F
100
AcDbEntity
  8
FRAME
  6
Continuous
 62
     1
370
    25
100
AcDbLine
 10
1620.0
 20
3375.499974519013
 30
0.0
 11
1625.0
 21
3375.499974519013
 31
0.0
  0
LINE
  5
105
330
1F
100
AcDbEntity
  8
FRAME
  6
Continuous
 62
     1
370
    25
100
AcDbLine
 10
1665.0
 20
3334.499974519015
 30
0.0
 11
1665.0
 21
3338.499974519015
 31
0.0
  0
LINE
  5
106
330
1F
100
AcDbEntity
  8
FRAME
  6
Continuous
 62
     1
370
    25
100
AcDbLine
 10
1623.739999999998
 20
3371.499974519013
 30
0.0
 11
1599.999999999998
 21
3371.499974519013
 31
0.0
  0
LINE
  5
107
330
1F
100
AcDbEntity
  8
FRAME
  6
Continuous
 62
     1
370
    25
100
AcDbLine
 10
1610.0
 20
3393.499974519015
 30
0.0
 11
1600.0
 21
3393.499974519015
 31
0.0
  0
LINE
  5
108
330
1F
100
AcDbEntity
  8
FRAME
  6
Continuous
 62
     1
370
    25
100
AcDbLine
 10
1610.0
 20
3493.499974519016
 30
0.0
 11
1600.0
 21
3493.499974519016
 31
0.0
  0
LINE
  5
109
330
1F
100
AcDbEntity
  8
FRAME
  6
Continuous
 62
     1
370
    25
100
AcDbLine
 10
1610.0
 20
3393.499974519015
 30
0.0
 11
1600.0
 21
3393.499974519015
 31
0.0
  0
LINE
  5
10A
330
1F
100
AcDbEntity
  8
FRAME
  6
Continuous
 62
     1
370
    25
100
AcDbLine
 10
1620.0
 20
3375.499974519013
 30
0.0
 11
1600.0
 21
3375.499974519013
 31
0.0
  0
LINE
  5
10B
330
1F
100
AcDbEntity
  8
FRAME
  6
Continuous
 62
     1
370
    25
100
AcDbLine
 10
1635.0
 20
3350.499974519013
 30
0.0
 11
1600.0
 21
3350.499974519013
 31
0.0
  0
LINE
  5
10C
330
1F
100
AcDbEntity
  8
FRAME
  6
Continuous
 62
     1
370
    25
100
AcDbLine
 10
1600.0
 20
3342.499974519017
 30
0.0
 11
1634.0
 21
3342.499974519017
 31
0.0
  0
LINE
  5
10D
330
1F
100
AcDbEntity
  8
FRAME
  6
Continuous
 62
     1
370
    25
100
AcDbLine
 10
1567.999999999997
 20
3342.499974519017
 30
0.0
 11
1567.999999999997
 21
3338.499974519017
 31
0.0
  0
ARC
  5
10E
330
1F
100
AcDbEntity
  8
FRAME
  6
Continuous
 62
     1
370
    25
100
AcDbCircle
 10
1565.999999999999
 20
3343.499974519015
 30
0.0
 40
1.0
100
AcDbArc
 50
180.0
 51
270.0
  0
LINE
  5
10F
330
1F
100
AcDbEntity
  8
FRAME
  6
Continuous
 62
     1
370
    25
100
AcDbLine
 10
1565.0
 20
3350.499974519013
 30
0.0
 11
1565.0
 21
3343.499974519013
 31
0.0
  0
LINE
  5
110
330
1F
100
AcDbEntity
  8
FRAME
  6
Continuous
 62
     1
370
    25
100
AcDbLine
 10
1574.459999999999
 20
3370.359974519012
 30
0.0
 11
1564.999999999999
 21
3350.499974519012
 31
0.0
  0
ARC
  5
111
330
1F
100
AcDbEntity
  8
FRAME
  6
Continuous
 62
     1
370
    25
100
AcDbCircle
 10
1576.259999999997
 20
3369.499974519015
 30
0.0
 40
1.999999999999944
100
AcDbArc
 50
90.0
 51
154.5369999999958
  0
LINE
  5
112
330
1F
100
AcDbEntity
  8
FRAME
  6
Continuous
 62
     1
370
    25
100
AcDbLine
 10
1576.999999999998
 20
3375.499974519013
 30
0.0
 11
1576.999999999998
 21
3371.499974519013
 31
0.0
  0
LINE
  5
113
330
1F
100
AcDbEntity
  8
FRAME
  6
Continuous
 62
     1
370
    25
100
AcDbLine
 10
1590.0
 20
3488.499974519016
 30
0.0
 11
1590.0
 21
3393.499974519016
 31
0.0
  0
LINE
  5
114
330
1F
100
AcDbEntity
  8
FRAME
  6
Continuous
 62
     1
370
    25
100
AcDbLine
 10
1590.0
 20
3488.499974519016
 30
0.0
 11
1590.0
 21
3493.499974519016
 31
0.0
  0
LINE
  5
115
330
1F
100
AcDbEntity
  8
FRAME
  6
Continuous
 62
     1
370
    25
100
AcDbLine
 10
1590.0
 20
3393.499974519015
 30
0.0
 11
1590.0
 21
3395.499974519015
 31
0.0
  0
LINE
  5
116
330
1F
100
AcDbEntity
  8
FRAME
  6
Continuous
 62
     1
370
    25
100
AcDbLine
 10
1580.0
 20
3395.499974519013
 30
0.0
 11
1590.0
 21
3395.499974519013
 31
0.0
  0
LINE
  5
117
330
1F
100
AcDbEntity
  8
FRAME
  6
Continuous
 62
     1
370
    25
100
AcDbLine
 10
1575.0
 20
3375.499974519013
 30
0.0
 11
1575.0
 21
3395.499974519013
 31
0.0
  0
LINE
  5
118
330
1F
100
AcDbEntity
  8
FRAME
  6
Continuous
 62
     1
370
    25
100
AcDbLine
 10
1575.0
 20
3395.499974519013
 30
0.0
 11
1580.0
 21
3395.499974519013
 31
0.0
  0
LINE
  5
119
330
1F
100
AcDbEntity
  8
FRAME
  6
Continuous
 62
     1
370
    25
100
AcDbLine
 10
1580.0
 20
3375.499974519013
 30
0.0
 11
1575.0
 21
3375.499974519013
 31
0.0
  0
LINE
  5
11A
330
1F
100
AcDbEntity
  8
FRAME
  6
Continuous
 62
     1
370
    25
100
AcDbLine
 10
1576.259999999997
 20
3371.499974519013
 30
0.0
 11
1599.999999999997
 21
3371.499974519013
 31
0.0
  0
LINE
  5
11B
330
1F
100
AcDbEntity
  8
FRAME
  6
Continuous
 62
     1
370
    25
100
AcDbLine
 10
1590.0
 20
3393.499974519015
 30
0.0
 11
1600.0
 21
3393.499974519015
 31
0.0
  0
LINE
  5
11C
330
1F
100
AcDbEntity
  8
FRAME
  6
Continuous
 62
     1
370
    25
100
AcDbLine
 10
1590.0
 20
3493.499974519016
 30
0.0
 11
1600.0
 21
3493.499974519016
 31
0.0
  0
LINE
  5
11D
330
1F
100
AcDbEntity
  8
FRAME
  6
Continuous
 62
     1
370
    25
100
AcDbLine
 10
1590.0
 20
3393.499974519015
 30
0.0
 11
1600.0
 21
3393.499974519015
 31
0.0
  0
LINE
  5
11E
330
1F
100
AcDbEntity
  8
FRAME
  6
Continuous
 62
     1
370
    25
100
AcDbLine
 10
1580.0
 20
3375.499974519013
 30
0.0
 11
1600.0
 21
3375.499974519013
 31
0.0
  0
LINE
  5
11F
330
1F
100
AcDbEntity
  8
FRAME
  6
Continuous
 62
     1
370
    25
100
AcDbLine
 10
1565.0
 20
3350.499974519013
 30
0.0
 11
1600.0
 21
3350.499974519013
 31
0.0
  0
LINE
  5
120
330
1F
100
AcDbEntity
  8
FRAME
  6
Continuous
 62
     1
370
    25
100
AcDbLine
 10
1600.0
 20
3342.499974519017
 30
0.0
 11
1566.0
 21
3342.499974519017
 31
0.0
  0
LINE
  5
121
330
1F
100
AcDbEntity
  8
FRAME
  6
Continuous
 62
     1
370
    25
100
AcDbLine
 10
1331.999999999998
 20
3342.499974519017
 30
0.0
 11
1331.999999999998
 21
3338.499974519017
 31
0.0
  0
ARC
  5
122
330
1F
100
AcDbEntity
  8
FRAME
  6
Continuous
 62
     1
370
    25
100
AcDbCircle
 10
1334.000000000001
 20
3343.499974519015
 30
0.0
 40
1.0
100
AcDbArc
 50
270.0
 51
0.0
  0
LINE
  5
123
330
1F
100
AcDbEntity
  8
FRAME
  6
Continuous
 62
     1
370
    25
100
AcDbLine
 10
1335.0
 20
3350.499974519013
 30
0.0
 11
1335.0
 21
3343.499974519013
 31
0.0
  0
LINE
  5
124
330
1F
100
AcDbEntity
  8
FRAME
  6
Continuous
 62
     1
370
    25
100
AcDbLine
 10
1325.540000000001
 20
3370.359974519012
 30
0.0
 11
1335.000000000001
 21
3350.499974519012
 31
0.0
  0
ARC
  5
125
330
1F
100
AcDbEntity
  8
FRAME
  6
Continuous
 62
     1
370
    25
100
AcDbCircle
 10
1323.739999999998
 20
3369.499974519015
 30
0.0
 40
2.0
100
AcDbArc
 50
25.46330000000272
 51
90.0
  0
LINE
  5
126
330
1F
100
AcDbEntity
  8
FRAME
  6
Continuous
 62
     1
370
    25
100
AcDbLine
 10
1322.999999999997
 20
3375.499974519013
 30
0.0
 11
1322.999999999997
 21
3371.499974519013
 31
0.0
  0
LINE
  5
127
330
1F
100
AcDbEntity
  8
FRAME
  6
Continuous
 62
     1
370
    25
100
AcDbLine
 10
1310.0
 20
3488.499974519016
 30
0.0
 11
1310.0
 21
3393.499974519016
 31
0.0
  0
LINE
  5
128
330
1F
100
AcDbEntity
  8
FRAME
  6
Continuous
 62
     1
370
    25
100
AcDbLine
 10
1310.0
 20
3488.499974519016
 30
0.0
 11
1310.0
 21
3493.499974519016
 31
0.0
  0
LINE
  5
129
330
1F
100
AcDbEntity
  8
FRAME
  6
Continuous
 62
     1
370
    25
100
AcDbLine
 10
1310.0
 20
3393.499974519015
 30
0.0
 11
1310.0
 21
3395.499974519015
 31
0.0
  0
LINE
  5
12A
330
1F
100
AcDbEntity
  8
FRAME
  6
Continuous
 62
     1
370
    25
100
AcDbLine
 10
1320.0
 20
3395.499974519013
 30
0.0
 11
1310.0
 21
3395.499974519013
 31
0.0
  0
LINE
  5
12B
330
1F
100
AcDbEntity
  8
FRAME
  6
Continuous
 62
     1
370
    25
100
AcDbLine
 10
1325.0
 20
3375.499974519013
 30
0.0
 11
1325.0
 21
3395.499974519013
 31
0.0
  0
LINE
  5
12C
330
1F
100
AcDbEntity
  8
FRAME
  6
Continuous
 62
     1
370
    25
100
AcDbLine
 10
1325.0
 20
3395.499974519013
 30
0.0
 11
1320.0
 21
3395.499974519013
 31
0.0
  0
LINE
  5
12D
330
1F
100
AcDbEntity
  8
FRAME
  6
Continuous
 62
     1
370
    25
100
AcDbLine
 10
1320.0
 20
3375.499974519013
 30
0.0
 11
1325.0
 21
3375.499974519013
 31
0.0
  0
LINE
  5
12E
330
1F
100
AcDbEntity
  8
FRAME
  6
Continuous
 62
     1
370
    25
100
AcDbLine
 10
1323.739999999998
 20
3371.499974519013
 30
0.0
 11
1299.999999999998
 21
3371.499974519013
 31
0.0
  0
LINE
  5
12F
330
1F
100
AcDbEntity
  8
FRAME
  6
Continuous
 62
     1
370
    25
100
AcDbLine
 10
1310.0
 20
3393.499974519015
 30
0.0
 11
1300.0
 21
3393.499974519015
 31
0.0
  0
LINE
  5
130
330
1F
100
AcDbEntity
  8
FRAME
  6
Continuous
 62
     1
370
    25
100
AcDbLine
 10
1310.0
 20
3493.499974519016
 30
0.0
 11
1300.0
 21
3493.499974519016
 31
0.0
  0
LINE
  5
131
330
1F
100
AcDbEntity
  8
FRAME
  6
Continuous
 62
     1
370
    25
100
AcDbLine
 10
1310.0
 20
3393.499974519015
 30
0.0
 11
1300.0
 21
3393.499974519015
 31
0.0
  0
LINE
  5
132
330
1F
100
AcDbEntity
  8
FRAME
  6
Continuous
 62
     1
370
    25
100
AcDbLine
 10
1320.0
 20
3375.499974519013
 30
0.0
 11
1300.0
 21
3375.499974519013
 31
0.0
  0
LINE
  5
133
330
1F
100
AcDbEntity
  8
FRAME
  6
Continuous
 62
     1
370
    25
100
AcDbLine
 10
1335.0
 20
3350.499974519013
 30
0.0
 11
1300.0
 21
3350.499974519013
 31
0.0
  0
LINE
  5
134
330
1F
100
AcDbEntity
  8
FRAME
  6
Continuous
 62
     1
370
    25
100
AcDbLine
 10
1300.0
 20
3342.499974519017
 30
0.0
 11
1334.0
 21
3342.499974519017
 31
0.0
  0
LINE
  5
135
330
1F
100
AcDbEntity
  8
FRAME
  6
Continuous
 62
     1
370
    25
100
AcDbLine
 10
1267.999999999997
 20
3342.499974519017
 30
0.0
 11
1267.999999999997
 21
3338.499974519017
 31
0.0
  0
ARC
  5
136
330
1F
100
AcDbEntity
  8
FRAME
  6
Continuous
 62
     1
370
    25
100
AcDbCircle
 10
1265.999999999999
 20
3343.499974519015
 30
0.0
 40
1.0
100
AcDbArc
 50
180.0
 51
270.0
  0
LINE
  5
137
330
1F
100
AcDbEntity
  8
FRAME
  6
Continuous
 62
     1
370
    25
100
AcDbLine
 10
1265.0
 20
3350.499974519013
 30
0.0
 11
1265.0
 21
3343.499974519013
 31
0.0
  0
LINE
  5
138
330
1F
100
AcDbEntity
  8
FRAME
  6
Continuous
 62
     1
370
    25
100
AcDbLine
 10
1274.459999999999
 20
3370.359974519012
 30
0.0
 11
1264.999999999999
 21
3350.499974519012
 31
0.0
  0
ARC
  5
139
330
1F
100
AcDbEntity
  8
FRAME
  6
Continuous
 62
     1
370
    25
100
AcDbCircle
 10
1276.259999999997
 20
3369.499974519015
 30
0.0
 40
1.999999999999944
100
AcDbArc
 50
90.0
 51
154.5369999999958
  0
LINE
  5
13A
330
1F
100
AcDbEntity
  8
FRAME
  6
Continuous
 62
     1
370
    25
100
AcDbLine
 10
1276.999999999998
 20
3375.499974519013
 30
0.0
 11
1276.999999999998
 21
3371.499974519013
 31
0.0
  0
LINE
  5
13B
330
1F
100
AcDbEntity
  8
FRAME
  6
Continuous
 62
     1
370
    25
100
AcDbLine
 10
1290.0
 20
3488.499974519016
 30
0.0
 11
1290.0
 21
3393.499974519016
 31
0.0
  0
LINE
  5
13C
330
1F
100
AcDbEntity
  8
FRAME
  6
Continuous
 62
     1
370
    25
100
AcDbLine
 10
1290.0
 20
3488.499974519016
 30
0.0
 11
1290.0
 21
3493.499974519016
 31
0.0
  0
LINE
  5
13D
330
1F
100
AcDbEntity
  8
FRAME
  6
Continuous
 62
     1
370
    25
100
AcDbLine
 10
1290.0
 20
3393.499974519015
 30
0.0
 11
1290.0
 21
3395.499974519015
 31
0.0
  0
LINE
  5
13E
330
1F
100
AcDbEntity
  8
FRAME
  6
Continuous
 62
     1
370
    25
100
AcDbLine
 10
1280.0
 20
3395.499974519013
 30
0.0
 11
1290.0
 21
3395.499974519013
 31
0.0
  0
LINE
  5
13F
330
1F
100
AcDbEntity
  8
FRAME
  6
Continuous
 62
     1
370
    25
100
AcDbLine
 10
1275.0
 20
3375.499974519013
 30
0.0
 11
1275.0
 21
3395.499974519013
 31
0.0
  0
LINE
  5
140
330
1F
100
AcDbEntity
  8
FRAME
  6
Continuous
 62
     1
370
    25
100
AcDbLine
 10
1275.0
 20
3395.499974519013
 30
0.0
 11
1280.0
 21
3395.499974519013
 31
0.0
  0
LINE
  5
141
330
1F
100
AcDbEntity
  8
FRAME
  6
Continuous
 62
     1
370
    25
100
AcDbLine
 10
1280.0
 20
3375.499974519013
 30
0.0
 11
1275.0
 21
3375.499974519013
 31
0.0
  0
LINE
  5
142
330
1F
100
AcDbEntity
  8
FRAME
  6
Continuous
 62
     1
370
    25
100
AcDbLine
 10
1276.259999999997
 20
3371.499974519013
 30
0.0
 11
1299.999999999997
 21
3371.499974519013
 31
0.0
  0
LINE
  5
143
330
1F
100
AcDbEntity
  8
FRAME
  6
Continuous
 62
     1
370
    25
100
AcDbLine
 10
1290.0
 20
3393.499974519015
 30
0.0
 11
1300.0
 21
3393.499974519015
 31
0.0
  0
LINE
  5
144
330
1F
100
AcDbEntity
  8
FRAME
  6
Continuous
 62
     1
370
    25
100
AcDbLine
 10
1290.0
 20
3493.499974519016
 30
0.0
 11
1300.0
 21
3493.499974519016
 31
0.0
  0
LINE
  5
145
330
1F
100
AcDbEntity
  8
FRAME
  6
Continuous
 62
     1
370
    25
100
AcDbLine
 10
1290.0
 20
3393.499974519015
 30
0.0
 11
1300.0
 21
3393.499974519015
 31
0.0
  0
LINE
  5
146
330
1F
100
AcDbEntity
  8
FRAME
  6
Continuous
 62
     1
370
    25
100
AcDbLine
 10
1280.0
 20
3375.499974519013
 30
0.0
 11
1300.0
 21
3375.499974519013
 31
0.0
  0
LINE
  5
147
330
1F
100
AcDbEntity
  8
FRAME
  6
Continuous
 62
     1
370
    25
100
AcDbLine
 10
1265.0
 20
3350.499974519013
 30
0.0
 11
1300.0
 21
3350.499974519013
 31
0.0
  0
LINE
  5
148
330
1F
100
AcDbEntity
  8
FRAME
  6
Continuous
 62
     1
370
    25
100
AcDbLine
 10
1300.0
 20
3342.499974519017
 30
0.0
 11
1266.0
 21
3342.499974519017
 31
0.0
  0
LINE
  5
149
330
1F
100
AcDbEntity
  8
NoLayerName_002
  6
CENTER
 62
     1
370
    25
100
AcDbLine
 10
1600.0
 20
3513.499974519016
 30
0.0
 11
1600.0
 21
3334.499974519016
 31
0.0
  0
LINE
  5
14A
330
1F
100
AcDbEntity
  8
NoLayerName_002
  6
CENTER
 62
     1
370
    25
100
AcDbLine
 10
1300.0
 20
3513.499974519016
 30
0.0
 11
1300.0
 21
3334.499974519016
 31
0.0
  0
LINE
  5
14B
330
1F
100
AcDbEntity
  8
NoLayerName_001
  6
Continuous
 62
     7
370
    25
100
AcDbLine
 10
3406.999999999999
 20
2278.999974519015
 30
0.0
 11
3386.999999999999
 21
2278.999974519015
 31
0.0
  0
LINE
  5
14C
330
1F
100
AcDbEntity
  8
NoLayerName_001
  6
Continuous
 62
     7
370
    25
100
AcDbLine
 10
2793.0
 20
2278.999974519015
 30
0.0
 11
2813.0
 21
2278.999974519015
 31
0.0
  0
LINE
  5
14D
330
1F
100
AcDbEntity
  8
FRAME
  6
Continuous
 62
     1
370
    25
100
AcDbLine
 10
3108.0
 20
3434.499974519015
 30
0.0
 11
3092.0
 21
3434.499974519015
 31
0.0
  0
LINE
  5
14E
330
1F
100
AcDbEntity
  8
FRAME
  6
Continuous
 62
     1
370
    25
100
AcDbLine
 10
3108.0
 20
3334.499974519015
 30
0.0
 11
3108.0
 21
3434.499974519015
 31
0.0
  0
LINE
  5
14F
330
1F
100
AcDbEntity
  8
FRAME
  6
Continuous
 62
     1
370
    25
100
AcDbLine
 10
3092.0
 20
3334.499974519015
 30
0.0
 11
3092.0
 21
3434.499974519015
 31
0.0
  0
CIRCLE
  5
150
330
1F
100
AcDbEntity
  8
NoLayerName_001
  6
Continuous
 62
     7
370
    25
100
AcDbCircle
 10
3471.999999999999
 20
3267.999974519015
 30
0.0
 40
15.0
  0
LINE
  5
151
330
1F
100
AcDbEntity
  8
NoLayerName_001
  6
Continuous
 62
     7
370
    25
100
AcDbLine
 10
3511.999999999999
 20
3302.999974519015
 30
0.0
 11
3386.999999999999
 21
3302.999974519015
 31
0.0
  0
LINE
  5
152
330
1F
100
AcDbEntity
  8
FRAME
  6
Continuous
 62
     1
370
    50
100
AcDbLine
 10
3387.0
 20
3306.999974519015
 30
0.0
 11
3387.0
 21
3249.499974519015
 31
0.0
  0
CIRCLE
  5
153
330
1F
100
AcDbEntity
  8
NoLayerName_001
  6
Continuous
 62
     7
370
    25
100
AcDbCircle
 10
2728.0
 20
3267.999974519015
 30
0.0
 40
15.0
  0
LINE
  5
154
330
1F
100
AcDbEntity
  8
NoLayerName_001
  6
Continuous
 62
     7
370
    25
100
AcDbLine
 10
2688.0
 20
3302.999974519015
 30
0.0
 11
2813.0
 21
3302.999974519015
 31
0.0
  0
LINE
  5
155
330
1F
100
AcDbEntity
  8
FRAME
  6
Continuous
 62
     1
370
    50
100
AcDbLine
 10
2813.0
 20
3306.999974519015
 30
0.0
 11
2813.0
 21
3249.499974519015
 31
0.0
  0
LINE
  5
156
330
1F
100
AcDbEntity
  8
FRAME
  6
Continuous
 62
     1
370
    25
100
AcDbLine
 10
2867.999999999996
 20
3338.499974519015
 30
0.0
 11
2867.999999999996
 21
3341.499974519015
 31
0.0
  0
LINE
  5
157
330
1F
100
AcDbEntity
  8
FRAME
  6
Continuous
 62
     1
370
    25
100
AcDbLine
 10
2931.999999999996
 20
3341.499974519017
 30
0.0
 11
2931.999999999996
 21
3338.499974519017
 31
0.0
  0
LINE
  5
158
330
1F
100
AcDbEntity
  8
FRAME
  6
Continuous
 62
     1
370
    25
100
AcDbLine
 10
2947.999999999996
 20
3338.499974519015
 30
0.0
 11
2947.999999999996
 21
3341.499974519015
 31
0.0
  0
LINE
  5
159
330
1F
100
AcDbEntity
  8
FRAME
  6
Continuous
 62
     1
370
    25
100
AcDbLine
 10
3011.999999999996
 20
3341.499974519017
 30
0.0
 11
3011.999999999996
 21
3338.499974519017
 31
0.0
  0
LINE
  5
15A
330
1F
100
AcDbEntity
  8
FRAME
  6
Continuous
 62
     1
370
    25
100
AcDbLine
 10
2865.0
 20
3349.499974519013
 30
0.0
 11
2874.46
 21
3369.359974519013
 31
0.0
  0
LINE
  5
15B
330
1F
100
AcDbEntity
  8
FRAME
  6
Continuous
 62
     1
370
    25
100
AcDbLine
 10
2925.549999999997
 20
3369.359974519012
 30
0.0
 11
2934.999999999997
 21
3349.499974519012
 31
0.0
  0
ARC
  5
15C
330
1F
100
AcDbEntity
  8
FRAME
  6
Continuous
 62
     1
370
    25
100
AcDbCircle
 10
2933.999999999996
 20
3342.499974519015
 30
0.0
 40
1.0
100
AcDbArc
 50
270.0
 51
0.0
  0
ARC
  5
15D
330
1F
100
AcDbEntity
  8
FRAME
  6
Continuous
 62
     1
370
    25
100
AcDbCircle
 10
2865.999999999998
 20
3342.499974519015
 30
0.0
 40
1.0
100
AcDbArc
 50
180.0
 51
270.0
  0
LINE
  5
15E
330
1F
100
AcDbEntity
  8
FRAME
  6
Continuous
 62
     1
370
    25
100
AcDbLine
 10
2935.0
 20
3349.499974519013
 30
0.0
 11
2935.0
 21
3342.499974519013
 31
0.0
  0
LINE
  5
15F
330
1F
100
AcDbEntity
  8
FRAME
  6
Continuous
 62
     1
370
    25
100
AcDbLine
 10
2865.0
 20
3342.499974519015
 30
0.0
 11
2865.0
 21
3349.499974519015
 31
0.0
  0
ARC
  5
160
330
1F
100
AcDbEntity
  8
FRAME
  6
Continuous
 62
     1
370
    25
100
AcDbCircle
 10
2876.269999999999
 20
3368.499974519015
 30
0.0
 40
1.999999999999944
100
AcDbArc
 50
90.0
 51
154.5369999999958
  0
ARC
  5
161
330
1F
100
AcDbEntity
  8
FRAME
  6
Continuous
 62
     1
370
    25
100
AcDbCircle
 10
2923.739999999998
 20
3368.499974519015
 30
0.0
 40
2.0
100
AcDbArc
 50
25.46330000000272
 51
90.0
  0
ARC
  5
162
330
1F
100
AcDbEntity
  8
FRAME
  6
Continuous
 62
     1
370
    25
100
AcDbCircle
 10
3013.999999999996
 20
3342.499974519015
 30
0.0
 40
1.0
100
AcDbArc
 50
270.0
 51
0.0
  0
ARC
  5
163
330
1F
100
AcDbEntity
  8
FRAME
  6
Continuous
 62
     1
370
    25
100
AcDbCircle
 10
2945.999999999998
 20
3342.499974519015
 30
0.0
 40
1.0
100
AcDbArc
 50
180.0
 51
270.0
  0
LINE
  5
164
330
1F
100
AcDbEntity
  8
FRAME
  6
Continuous
 62
     1
370
    25
100
AcDbLine
 10
3015.0
 20
3349.499974519013
 30
0.0
 11
3015.0
 21
3342.499974519013
 31
0.0
  0
LINE
  5
165
330
1F
100
AcDbEntity
  8
FRAME
  6
Continuous
 62
     1
370
    25
100
AcDbLine
 10
2945.0
 20
3342.499974519015
 30
0.0
 11
2945.0
 21
3349.499974519015
 31
0.0
  0
LINE
  5
166
330
1F
100
AcDbEntity
  8
FRAME
  6
Continuous
 62
     1
370
    25
100
AcDbLine
 10
2945.0
 20
3349.499974519013
 30
0.0
 11
2954.46
 21
3369.359974519013
 31
0.0
  0
LINE
  5
167
330
1F
100
AcDbEntity
  8
FRAME
  6
Continuous
 62
     1
370
    25
100
AcDbLine
 10
3005.549999999997
 20
3369.359974519012
 30
0.0
 11
3014.999999999997
 21
3349.499974519012
 31
0.0
  0
ARC
  5
168
330
1F
100
AcDbEntity
  8
FRAME
  6
Continuous
 62
     1
370
    25
100
AcDbCircle
 10
2956.269999999999
 20
3368.499974519015
 30
0.0
 40
1.999999999999944
100
AcDbArc
 50
90.0
 51
154.5369999999958
  0
ARC
  5
169
330
1F
100
AcDbEntity
  8
FRAME
  6
Continuous
 62
     1
370
    25
100
AcDbCircle
 10
3003.739999999998
 20
3368.499974519015
 30
0.0
 40
2.0
100
AcDbArc
 50
25.46330000000272
 51
90.0
  0
LINE
  5
16A
330
1F
100
AcDbEntity
  8
FRAME
  6
Continuous
 62
     1
370
    25
100
AcDbLine
 10
2935.0
 20
3349.499974519013
 30
0.0
 11
2865.0
 21
3349.499974519013
 31
0.0
  0
LINE
  5
16B
330
1F
100
AcDbEntity
  8
FRAME
  6
Continuous
 62
     1
370
    25
100
AcDbLine
 10
2865.999999999998
 20
3341.499974519017
 30
0.0
 11
2933.999999999998
 21
3341.499974519017
 31
0.0
  0
LINE
  5
16C
330
1F
100
AcDbEntity
  8
FRAME
  6
Continuous
 62
     1
370
    25
100
AcDbLine
 10
2900.0
 20
3370.499974519013
 30
0.0
 11
2876.27
 21
3370.499974519013
 31
0.0
  0
LINE
  5
16D
330
1F
100
AcDbEntity
  8
FRAME
  6
Continuous
 62
     1
370
    25
100
AcDbLine
 10
2923.739999999998
 20
3370.499974519013
 30
0.0
 11
2899.999999999998
 21
3370.499974519013
 31
0.0
  0
LINE
  5
16E
330
1F
100
AcDbEntity
  8
FRAME
  6
Continuous
 62
     1
370
    25
100
AcDbLine
 10
2945.999999999998
 20
3341.499974519017
 30
0.0
 11
3013.999999999998
 21
3341.499974519017
 31
0.0
  0
LINE
  5
16F
330
1F
100
AcDbEntity
  8
FRAME
  6
Continuous
 62
     1
370
    25
100
AcDbLine
 10
3015.0
 20
3349.499974519013
 30
0.0
 11
2945.0
 21
3349.499974519013
 31
0.0
  0
LINE
  5
170
330
1F
100
AcDbEntity
  8
FRAME
  6
Continuous
 62
     1
370
    25
100
AcDbLine
 10
2980.0
 20
3370.499974519013
 30
0.0
 11
2956.27
 21
3370.499974519013
 31
0.0
  0
LINE
  5
171
330
1F
100
AcDbEntity
  8
FRAME
  6
Continuous
 62
     1
370
    25
100
AcDbLine
 10
3003.739999999998
 20
3370.499974519013
 30
0.0
 11
2979.999999999998
 21
3370.499974519013
 31
0.0
  0
LINE
  5
172
330
1F
100
AcDbEntity
  8
FRAME
  6
Continuous
 62
     1
370
    25
100
AcDbLine
 10
2876.999999999996
 20
3370.499974519013
 30
0.0
 11
2876.999999999996
 21
3373.499974519013
 31
0.0
  0
LINE
  5
173
330
1F
100
AcDbEntity
  8
FRAME
  6
Continuous
 62
     1
370
    25
100
AcDbLine
 10
2922.999999999996
 20
3373.499974519013
 30
0.0
 11
2922.999999999996
 21
3370.499974519013
 31
0.0
  0
LINE
  5
174
330
1F
100
AcDbEntity
  8
FRAME
  6
Continuous
 62
     1
370
    25
100
AcDbLine
 10
2956.999999999996
 20
3370.499974519013
 30
0.0
 11
2956.999999999996
 21
3373.499974519013
 31
0.0
  0
LINE
  5
175
330
1F
100
AcDbEntity
  8
FRAME
  6
Continuous
 62
     1
370
    25
100
AcDbLine
 10
3002.999999999996
 20
3373.499974519013
 30
0.0
 11
3002.999999999996
 21
3370.499974519013
 31
0.0
  0
LINE
  5
176
330
1F
100
AcDbEntity
  8
FRAME
  6
Continuous
 62
     1
370
    25
100
AcDbLine
 10
2923.199999999997
 20
3370.499974519013
 30
0.0
 11
2923.199999999997
 21
3373.499974519013
 31
0.0
  0
LINE
  5
177
330
1F
100
AcDbEntity
  8
FRAME
  6
Continuous
 62
     1
370
    25
100
AcDbLine
 10
3005.0
 20
3486.499974519016
 30
0.0
 11
3005.0
 21
3393.499974519016
 31
0.0
  0
ARC
  5
178
330
1F
100
AcDbEntity
  8
FRAME
  6
Continuous
 62
     1
370
    25
100
AcDbCircle
 10
3000.0
 20
3486.499974519016
 30
0.0
 40
5.0
100
AcDbArc
 50
0.0
 51
90.0
  0
LINE
  5
179
330
1F
100
AcDbEntity
  8
FRAME
  6
Continuous
 62
     1
370
    25
100
AcDbLine
 10
3000.0
 20
3491.499974519016
 30
0.0
 11
2880.0
 21
3491.499974519016
 31
0.0
  0
ARC
  5
17A
330
1F
100
AcDbEntity
  8
FRAME
  6
Continuous
 62
     1
370
    25
100
AcDbCircle
 10
2880.0
 20
3486.499974519016
 30
0.0
 40
5.0
100
AcDbArc
 50
90.0
 51
180.0
  0
LINE
  5
17B
330
1F
100
AcDbEntity
  8
FRAME
  6
Continuous
 62
     1
370
    25
100
AcDbLine
 10
2875.0
 20
3486.499974519016
 30
0.0
 11
2875.0
 21
3393.499974519016
 31
0.0
  0
CIRCLE
  5
17C
330
1F
100
AcDbEntity
  8
FRAME
  6
Continuous
 62
     1
370
    25
100
AcDbCircle
 10
2900.0
 20
3471.499974519015
 30
0.0
 40
7.000000000000001
  0
CIRCLE
  5
17D
330
1F
100
AcDbEntity
  8
FRAME
  6
Continuous
 62
     1
370
    25
100
AcDbCircle
 10
2940.0
 20
3471.499974519015
 30
0.0
 40
7.000000000000001
  0
CIRCLE
  5
17E
330
1F
100
AcDbEntity
  8
FRAME
  6
Continuous
 62
     1
370
    25
100
AcDbCircle
 10
2980.0
 20
3471.499974519015
 30
0.0
 40
7.000000000000001
  0
CIRCLE
  5
17F
330
1F
100
AcDbEntity
  8
FRAME
  6
Continuous
 62
     1
370
    25
100
AcDbCircle
 10
2980.0
 20
3431.499974519015
 30
0.0
 40
7.000000000000001
  0
CIRCLE
  5
180
330
1F
100
AcDbEntity
  8
FRAME
  6
Continuous
 62
     1
370
    25
100
AcDbCircle
 10
2940.0
 20
3431.499974519015
 30
0.0
 40
7.000000000000001
  0
CIRCLE
  5
181
330
1F
100
AcDbEntity
  8
FRAME
  6
Continuous
 62
     1
370
    25
100
AcDbCircle
 10
2900.0
 20
3431.499974519015
 30
0.0
 40
7.000000000000001
  0
LINE
  5
182
330
1F
100
AcDbEntity
  8
FRAME
  6
Continuous
 62
     1
370
    25
100
AcDbLine
 10
3000.0
 20
3393.499974519013
 30
0.0
 11
2880.0
 21
3393.499974519013
 31
0.0
  0
LINE
  5
183
330
1F
100
AcDbEntity
  8
FRAME
  6
Continuous
 62
     1
370
    25
100
AcDbLine
 10
3000.0
 20
3373.499974519013
 30
0.0
 11
2880.0
 21
3373.499974519013
 31
0.0
  0
LINE
  5
184
330
1F
100
AcDbEntity
  8
FRAME
  6
Continuous
 62
     1
370
    25
100
AcDbLine
 10
2875.0
 20
3393.499974519013
 30
0.0
 11
2875.0
 21
3373.499974519013
 31
0.0
  0
LINE
  5
185
330
1F
100
AcDbEntity
  8
FRAME
  6
Continuous
 62
     1
370
    25
100
AcDbLine
 10
2875.0
 20
3373.499974519013
 30
0.0
 11
2880.0
 21
3373.499974519013
 31
0.0
  0
LINE
  5
186
330
1F
100
AcDbEntity
  8
FRAME
  6
Continuous
 62
     1
370
    25
100
AcDbLine
 10
2880.0
 20
3393.499974519013
 30
0.0
 11
2875.0
 21
3393.499974519013
 31
0.0
  0
LINE
  5
187
330
1F
100
AcDbEntity
  8
FRAME
  6
Continuous
 62
     1
370
    25
100
AcDbLine
 10
3005.0
 20
3373.499974519013
 30
0.0
 11
3005.0
 21
3393.499974519013
 31
0.0
  0
LINE
  5
188
330
1F
100
AcDbEntity
  8
FRAME
  6
Continuous
 62
     1
370
    25
100
AcDbLine
 10
3005.0
 20
3393.499974519013
 30
0.0
 11
3000.0
 21
3393.499974519013
 31
0.0
  0
LINE
  5
189
330
1F
100
AcDbEntity
  8
FRAME
  6
Continuous
 62
     1
370
    25
100
AcDbLine
 10
3000.0
 20
3373.499974519013
 30
0.0
 11
3005.0
 21
3373.499974519013
 31
0.0
  0
LINE
  5
18A
330
1F
100
AcDbEntity
  8
FRAME
  6
Continuous
 62
     3
370
    25
100
AcDbLine
 10
2854.0
 20
2204.999974519015
 30
0.0
 11
2854.0
 21
2135.999974519015
 31
0.0
  0
LINE
  5
18B
330
1F
100
AcDbEntity
  8
FRAME
  6
Continuous
 62
     3
370
    25
100
AcDbLine
 10
2848.0
 20
2204.999974519015
 30
0.0
 11
2848.0
 21
2135.999974519015
 31
0.0
  0
LINE
  5
18C
330
1F
100
AcDbEntity
  8
FRAME
  6
Continuous
 62
     3
370
    25
100
AcDbLine
 10
3346.0
 20
2204.999974519015
 30
0.0
 11
3346.0
 21
2135.999974519015
 31
0.0
  0
LINE
  5
18D
330
1F
100
AcDbEntity
  8
FRAME
  6
Continuous
 62
     3
370
    25
100
AcDbLine
 10
3352.0
 20
2204.999974519015
 30
0.0
 11
3352.0
 21
2135.999974519015
 31
0.0
  0
ARC
  5
18E
330
1F
100
AcDbEntity
  8
FRAME
  6
Continuous
 62
     3
370
    50
100
AcDbCircle
 10
3393.5
 20
2204.999974519015
 30
0.0
 40
15.0
100
AcDbArc
 50
180.0
 51
0.0
  0
ARC
  5
18F
330
1F
100
AcDbEntity
  8
FRAME
  6
Continuous
 62
     3
370
    50
100
AcDbCircle
 10
2806.5
 20
2204.999974519015
 30
0.0
 40
15.0
100
AcDbArc
 50
180.0
 51
0.0
  0
LINE
  5
190
330
1F
100
AcDbEntity
  8
NoLayerName_001
  6
Continuous
 62
     7
370
    25
100
AcDbLine
 10
3399.0
 20
2213.999974519016
 30
0.0
 11
3399.0
 21
2209.499974519015
 31
0.0
  0
LINE
  5
191
330
1F
100
AcDbEntity
  8
NoLayerName_001
  6
Continuous
 62
     7
370
    50
100
AcDbLine
 10
3387.0
 20
2299.499974519015
 30
0.0
 11
3387.0
 21
2213.999974519016
 31
0.0
  0
LINE
  5
192
330
1F
100
AcDbEntity
  8
NoLayerName_001
  6
Continuous
 62
     7
370
    25
100
AcDbLine
 10
3511.999999999999
 20
2213.999974519016
 30
0.0
 11
3399.0
 21
2213.999974519016
 31
0.0
  0
LINE
  5
193
330
1F
100
AcDbEntity
  8
NoLayerName_001
  6
Continuous
 62
     7
370
    25
100
AcDbLine
 10
2801.0
 20
2213.999974519016
 30
0.0
 11
2801.0
 21
2209.499974519015
 31
0.0
  0
LINE
  5
194
330
1F
100
AcDbEntity
  8
NoLayerName_001
  6
Continuous
 62
     7
370
    50
100
AcDbLine
 10
2813.0
 20
2299.499974519015
 30
0.0
 11
2813.0
 21
2213.999974519016
 31
0.0
  0
LINE
  5
195
330
1F
100
AcDbEntity
  8
FRAME
  6
Continuous
 62
     3
370
    50
100
AcDbLine
 10
3500.0
 20
2129.999974519015
 30
0.0
 11
3500.0
 21
2204.999974519014
 31
0.0
  0
LINE
  5
196
330
1F
100
AcDbEntity
  8
FRAME
  6
Continuous
 62
     3
370
    50
100
AcDbLine
 10
2700.0
 20
2129.999974519015
 30
0.0
 11
2700.0
 21
2204.999974519014
 31
0.0
  0
LINE
  5
197
330
1F
100
AcDbEntity
  8
FRAME
  6
Continuous
 62
     3
370
    50
100
AcDbLine
 10
2700.0
 20
2129.999974519015
 30
0.0
 11
3500.0
 21
2129.999974519015
 31
0.0
  0
LINE
  5
198
330
1F
100
AcDbEntity
  8
FRAME
  6
Continuous
 62
     3
370
    25
100
AcDbLine
 10
2700.0
 20
2135.999974519015
 30
0.0
 11
3500.0
 21
2135.999974519015
 31
0.0
  0
LINE
  5
199
330
1F
100
AcDbEntity
  8
NoLayerName_001
  6
Continuous
 62
     7
370
    25
100
AcDbLine
 10
2688.0
 20
2213.999974519016
 30
0.0
 11
2801.0
 21
2213.999974519016
 31
0.0
  0
LINE
  5
19A
330
1F
100
AcDbEntity
  8
FRAME
  6
Continuous
 62
     3
370
    25
100
AcDbLine
 10
3100.0
 20
2209.499974519015
 30
0.0
 11
3399.0
 21
2209.499974519015
 31
0.0
  0
LINE
  5
19B
330
1F
100
AcDbEntity
  8
FRAME
  6
Continuous
 62
     3
370
    25
100
AcDbLine
 10
2801.0
 20
2213.999974519016
 30
0.0
 11
3399.0
 21
2213.999974519016
 31
0.0
  0
LINE
  5
19C
330
1F
100
AcDbEntity
  8
FRAME
  6
Continuous
 62
     3
370
    25
100
AcDbLine
 10
3100.0
 20
2209.499974519015
 30
0.0
 11
2801.0
 21
2209.499974519015
 31
0.0
  0
LINE
  5
19D
330
1F
100
AcDbEntity
  8
NoLayerName_002
  6
CENTER
 62
     1
370
    25
100
AcDbLine
 10
2750.0
 20
2155.999974519015
 30
0.0
 11
2750.0
 21
2109.999974519015
 31
0.0
  0
LINE
  5
19E
330
1F
100
AcDbEntity
  8
NoLayerName_002
  6
CENTER
 62
     1
370
    25
100
AcDbLine
 10
3450.0
 20
2155.999974519015
 30
0.0
 11
3450.0
 21
2109.999974519015
 31
0.0
  0
LINE
  5
19F
330
1F
100
AcDbEntity
  8
NoLayerName_002
  6
CENTER
 62
     1
370
    25
100
AcDbLine
 10
2940.0
 20
3511.499974519016
 30
0.0
 11
2940.0
 21
3334.499974519015
 31
0.0
  0
LINE
  5
1A0
330
1F
100
AcDbEntity
  8
FRAME
  6
CENTER
 62
     1
370
    25
100
AcDbLine
 10
3100.0
 20
3511.499974519016
 30
0.0
 11
3100.0
 21
2109.999974519015
 31
0.0
  0
LINE
  5
1A1
330
1F
100
AcDbEntity
  8
FRAME
  6
CENTER
 62
     1
370
    25
100
AcDbLine
 10
1450.0
 20
4175.000940246624
 30
0.0
 11
1450.0
 21
3975.799974519015
 31
0.0
  0
LINE
  5
1A2
330
1F
100
AcDbEntity
  8
FRAME
  6
CENTER
 62
     1
370
    25
100
AcDbLine
 10
1450.0
 20
3513.499974519016
 30
0.0
 11
1450.0
 21
2109.999974519015
 31
0.0
  0
LINE
  5
1A3
330
1F
100
AcDbEntity
  8
NoLayerName_001
  6
CENTER
 62
     1
370
    25
100
AcDbLine
 10
1270.0
 20
4663.749974519014
 30
0.0
 11
1270.0
 21
4653.749974519014
 31
0.0
  0
LINE
  5
1A4
330
1F
100
AcDbEntity
  8
NoLayerName_001
  6
CENTER
 62
     1
370
    25
100
AcDbLine
 10
1211.25
 20
4604.999974519014
 30
0.0
 11
1221.25
 21
4604.999974519014
 31
0.0
  0
LINE
  5
1A5
330
1F
100
AcDbEntity
  8
NoLayerName_001
  6
CENTER
 62
     1
370
    25
100
AcDbLine
 10
1269.999997913837
 20
4546.249974519014
 30
0.0
 11
1269.999997913837
 21
4556.249974519014
 31
0.0
  0
LINE
  5
1A6
330
1F
100
AcDbEntity
  8
NoLayerName_001
  6
CENTER
 62
     1
370
    25
100
AcDbLine
 10
1328.75
 20
4604.999972432852
 30
0.0
 11
1318.75
 21
4604.999972432852
 31
0.0
  0
LINE
  5
1A7
330
1F
100
AcDbEntity
  8
NoLayerName_001
  6
CENTER
 62
     1
370
    25
100
AcDbLine
 10
1391.25
 20
4604.999974519014
 30
0.0
 11
1401.25
 21
4604.999974519014
 31
0.0
  0
LINE
  5
1A8
330
1F
100
AcDbEntity
  8
NoLayerName_001
  6
CENTER
 62
     1
370
    25
100
AcDbLine
 10
1508.75
 20
4604.999972432852
 30
0.0
 11
1498.75
 21
4604.999972432852
 31
0.0
  0
LINE
  5
1A9
330
1F
100
AcDbEntity
  8
NoLayerName_001
  6
CENTER
 62
     1
370
    25
100
AcDbLine
 10
1571.25
 20
4604.999974519014
 30
0.0
 11
1581.25
 21
4604.999974519014
 31
0.0
  0
LINE
  5
1AA
330
1F
100
AcDbEntity
  8
NoLayerName_001
  6
CENTER
 62
     1
370
    25
100
AcDbLine
 10
1688.75
 20
4604.999972432852
 30
0.0
 11
1678.75
 21
4604.999972432852
 31
0.0
  0
LINE
  5
1AB
330
1F
100
AcDbEntity
  8
NoLayerName_001
  6
CENTER
 62
     1
370
    25
100
AcDbLine
 10
1630.0
 20
4663.749974519014
 30
0.0
 11
1630.0
 21
4653.749974519014
 31
0.0
  0
LINE
  5
1AC
330
1F
100
AcDbEntity
  8
NoLayerName_001
  6
CENTER
 62
     1
370
    25
100
AcDbLine
 10
1629.999997913837
 20
4546.249974519014
 30
0.0
 11
1629.999997913837
 21
4556.249974519014
 31
0.0
  0
LWPOLYLINE
  5
1AD
330
1F
100
AcDbEntity
  8
NoLayerName_001
  6
Continuous
 62
     3
370
    25
100
AcDbPolyline
 90
        7
 70
     0
 43
0.0
 10
1288.906921552019
 20
4266.219578769511
 10
1288.906921552019
 20
4237.730077240913
 10
1291.764099243818
 20
4232.015477716692
 10
1297.394958534912
 20
4229.326024631768
 10
1302.605041465088
 20
4229.326024631768
 10
1308.403869503679
 20
4232.267674978559
 10
1312.185729798887
 20
4237.393895605297
  0
LWPOLYLINE
  5
1AE
330
1F
100
AcDbEntity
  8
NoLayerName_001
  6
Continuous
 62
     3
370
    25
100
AcDbPolyline
 90
        5
 70
     0
 43
0.0
 10
1312.269958313257
 20
4266.639988919496
 10
1312.269958313257
 20
4233.359960118532
 10
1313.362365523541
 20
4231.175145697964
 10
1316.051818608466
 20
4229.662206267383
 10
1320.421813660535
 20
4229.662206267383
  0
LWPOLYLINE
  5
1AF
330
1F
100
AcDbEntity
  8
NoLayerName_001
  6
Continuous
 62
     3
370
    25
100
AcDbPolyline
 90
        6
 70
     0
 43
0.0
 10
1575.610840177374
 20
4262.573094448848
 10
1588.036987453148
 20
4229.326024631768
 10
1598.0
 20
4256.640477349751
 10
1608.914184407678
 20
4229.493993379265
 10
1621.340209613141
 20
4262.685399134674
 10
1628.425536655999
 20
4258.793797630164
  0
LWPOLYLINE
  5
1B0
330
1F
100
AcDbEntity
  8
NoLayerName_001
  6
Continuous
 62
     3
370
    25
100
AcDbPolyline
 90
        4
 70
     0
 43
0.0
 10
1436.348999226853
 20
4266.098485021315
 10
1450.0
 20
4229.326024631768
 10
1464.881469504811
 20
4266.160008457899
 10
1472.23400845775
 20
4262.060155003366
  0
LINE
  5
1B1
330
1F
100
AcDbEntity
  8
NoLayerName_001
  6
Continuous
 62
     7
370
    25
100
AcDbLine
 10
1454.5
 20
3302.999974519015
 30
0.0
 11
1454.5
 21
2213.999974519015
 31
0.0
  0
LINE
  5
1B2
330
1F
100
AcDbEntity
  8
NoLayerName_001
  6
Continuous
 62
     7
370
    25
100
AcDbLine
 10
1445.5
 20
3302.999974519015
 30
0.0
 11
1445.5
 21
2213.999974519015
 31
0.0
  0
LINE
  5
1B3
330
1F
100
AcDbEntity
  8
NoLayerName_001
  6
Continuous
 62
     7
370
    25
100
AcDbLine
 10
1454.5
 20
3302.999974519015
 30
0.0
 11
1445.5
 21
3302.999974519015
 31
0.0
  0
LINE
  5
1B4
330
1F
100
AcDbEntity
  8
NoLayerName_001
  6
Continuous
 62
     7
370
    25
100
AcDbLine
 10
1454.5
 20
4761.999974519013
 30
0.0
 11
1454.5
 21
4739.999974519014
 31
0.0
  0
LINE
  5
1B5
330
1F
100
AcDbEntity
  8
NoLayerName_001
  6
Continuous
 62
     7
370
    25
100
AcDbLine
 10
1445.5
 20
4761.999974519013
 30
0.0
 11
1445.5
 21
4739.999974519014
 31
0.0
  0
LINE
  5
1B6
330
1F
100
AcDbEntity
  8
NoLayerName_001
  6
Continuous
 62
     7
370
    25
100
AcDbLine
 10
1445.5
 20
4761.999974519013
 30
0.0
 11
1454.5
 21
4761.999974519013
 31
0.0
  0
LINE
  5
1B7
330
1F
100
AcDbEntity
  8
NoLayerName_001
  6
Continuous
 62
     7
370
    25
100
AcDbLine
 10
1454.5
 20
4057.999974519015
 30
0.0
 11
1454.5
 21
4079.999974519014
 31
0.0
  0
LINE
  5
1B8
330
1F
100
AcDbEntity
  8
NoLayerName_001
  6
Continuous
 62
     7
370
    25
100
AcDbLine
 10
1445.5
 20
4057.999974519015
 30
0.0
 11
1445.5
 21
4079.999974519014
 31
0.0
  0
LINE
  5
1B9
330
1F
100
AcDbEntity
  8
NoLayerName_001
  6
Continuous
 62
     7
370
    25
100
AcDbLine
 10
1445.5
 20
4057.999974519015
 30
0.0
 11
1454.5
 21
4057.999974519015
 31
0.0
  0
LINE
  5
1BA
330
1F
100
AcDbEntity
  8
FRAME
  6
Continuous
 62
     1
370
    25
100
AcDbLine
 10
3393.5
 20
2209.499974519015
 30
0.0
 11
3393.5
 21
2204.999974519015
 31
0.0
  0
LINE
  5
1BB
330
1F
100
AcDbEntity
  8
FRAME
  6
Continuous
 62
     1
370
    25
100
AcDbLine
 10
2806.5
 20
2209.499974519015
 30
0.0
 11
2806.5
 21
2204.999974519015
 31
0.0
  0
LINE
  5
1BC
330
1F
100
AcDbEntity
  8
FRAME
  6
Continuous
 62
     3
370
    50
100
AcDbLine
 10
3408.5
 20
2204.999974519015
 30
0.0
 11
3500.0
 21
2204.999974519015
 31
0.0
  0
LINE
  5
1BD
330
1F
100
AcDbEntity
  8
FRAME
  6
Continuous
 62
     3
370
    50
100
AcDbLine
 10
2700.0
 20
2204.999974519015
 30
0.0
 11
2791.5
 21
2204.999974519015
 31
0.0
  0
LINE
  5
1BE
330
1F
100
AcDbEntity
  8
FRAME
  6
Continuous
 62
     3
370
    25
100
AcDbLine
 10
3393.5
 20
2204.999974519015
 30
0.0
 11
2806.5
 21
2204.999974519015
 31
0.0
  0
LINE
  5
1BF
330
1F
100
AcDbEntity
  8
NoLayerName_001
  6
Continuous
 62
     7
370
    25
100
AcDbLine
 10
982.5000000000009
 20
3334.499974519015
 30
0.0
 11
1062.500000000001
 21
3334.499974519015
 31
0.0
  0
LINE
  5
1C0
330
1F
100
AcDbEntity
  8
FRAME
  6
Continuous
 62
     1
370
    50
100
AcDbLine
 10
2687.8
 20
3249.499974519015
 30
0.0
 11
2687.8
 21
2299.499974519015
 31
0.0
  0
LINE
  5
1C1
330
1F
100
AcDbEntity
  8
FRAME
  6
Continuous
 62
     1
370
    50
100
AcDbLine
 10
3512.2
 20
3249.499974519015
 30
0.0
 11
3512.2
 21
2299.499974519015
 31
0.0
  0
LINE
  5
1C2
330
1F
100
AcDbEntity
  8
NoLayerName_001
  6
Continuous
 62
     7
370
    50
100
AcDbLine
 10
2067.5
 20
3334.499974519015
 30
0.0
 11
2067.5
 21
3306.999974519015
 31
0.0
  0
CIRCLE
  5
1C3
330
1F
100
AcDbEntity
  8
FRAME
  6
DOTSX
 62
     1
370
    25
100
AcDbCircle
 10
1967.5
 20
3384.499974519015
 30
0.0
 40
15.0
  0
LINE
  5
1C4
330
1F
100
AcDbEntity
  8
FRAME
  6
Continuous
 62
     1
370
    25
100
AcDbLine
 10
1917.5
 20
3434.499974519015
 30
0.0
 11
2017.5
 21
3434.499974519015
 31
0.0
  0
LINE
  5
1C5
330
1F
100
AcDbEntity
  8
FRAME
  6
Continuous
 62
     1
370
    25
100
AcDbLine
 10
2017.5
 20
3434.499974519015
 30
0.0
 11
2017.5
 21
3334.499974519015
 31
0.0
  0
LINE
  5
1C6
330
1F
100
AcDbEntity
  8
FRAME
  6
Continuous
 62
     1
370
    25
100
AcDbLine
 10
1917.5
 20
3334.499974519015
 30
0.0
 11
1917.5
 21
3434.499974519015
 31
0.0
  0
LINE
  5
1C7
330
1F
100
AcDbEntity
  8
NoLayerName_001
  6
Continuous
 62
     7
370
    25
100
AcDbLine
 10
1902.500000000002
 20
3340.499974519015
 30
0.0
 11
1902.500000000002
 21
3334.499974519015
 31
0.0
  0
LINE
  5
1C8
330
1F
100
AcDbEntity
  8
NoLayerName_001
  6
Continuous
 62
     7
370
    25
100
AcDbLine
 10
1802.500000000002
 20
3340.499974519015
 30
0.0
 11
1802.500000000002
 21
3334.499974519015
 31
0.0
  0
LINE
  5
1C9
330
1F
100
AcDbEntity
  8
NoLayerName_001
  6
Continuous
 62
     7
370
    25
100
AcDbLine
 10
2036.5
 20
2213.999974519015
 30
0.0
 11
2036.5
 21
2209.499974519015
 31
0.0
  0
LINE
  5
1CA
330
1F
100
AcDbEntity
  8
NoLayerName_001
  6
Continuous
 62
     7
370
    50
100
AcDbLine
 10
2024.5
 20
2299.499974519015
 30
0.0
 11
2024.5
 21
2213.999974519015
 31
0.0
  0
LINE
  5
1CB
330
1F
100
AcDbEntity
  8
NoLayerName_001
  6
Continuous
 62
     7
370
    50
100
AcDbLine
 10
1945.0
 20
3302.999974519015
 30
0.0
 11
1933.0
 21
3302.999974519015
 31
0.0
  0
LINE
  5
1CC
330
1F
100
AcDbEntity
  8
NoLayerName_001
  6
Continuous
 62
     7
370
    50
100
AcDbLine
 10
1933.0
 20
3302.999974519015
 30
0.0
 11
1933.0
 21
2213.999974519015
 31
0.0
  0
LINE
  5
1CD
330
1F
100
AcDbEntity
  8
NoLayerName_001
  6
Continuous
 62
     7
370
    50
100
AcDbLine
 10
1945.0
 20
3302.999974519015
 30
0.0
 11
1945.0
 21
2213.999974519015
 31
0.0
  0
LINE
  5
1CE
330
1F
100
AcDbEntity
  8
FRAME
  6
Continuous
 62
     1
370
    50
100
AcDbLine
 10
2085.7
 20
3249.499974519015
 30
0.0
 11
2085.7
 21
2299.499974519015
 31
0.0
  0
LINE
  5
1CF
330
1F
100
AcDbEntity
  8
FRAME
  6
Continuous
 62
     1
370
    25
100
AcDbLine
 10
2031.0
 20
2209.499974519015
 30
0.0
 11
2031.0
 21
2204.999974519015
 31
0.0
  0
LINE
  5
1D0
330
1F
100
AcDbEntity
  8
FRAME
  6
Continuous
 62
     1
370
    25
100
AcDbLine
 10
1230.0
 20
3338.499974519015
 30
0.0
 11
1300.0
 21
3338.499974519015
 31
0.0
  0
LINE
  5
1D1
330
1F
100
AcDbEntity
  8
FRAME
  6
Continuous
 62
     1
370
    25
100
AcDbLine
 10
1230.0
 20
3334.499974519015
 30
0.0
 11
1230.0
 21
3338.499974519015
 31
0.0
  0
LINE
  5
1D2
330
1F
100
AcDbEntity
  8
FRAME
  6
Continuous
 62
     1
370
    25
100
AcDbLine
 10
1230.0
 20
3338.499974519015
 30
0.0
 11
1665.0
 21
3338.499974519015
 31
0.0
  0
LINE
  5
1D3
330
1F
100
AcDbEntity
  8
NoLayerName_001
  6
Continuous
 62
     7
370
    50
100
AcDbLine
 10
832.5
 20
3306.999974519015
 30
0.0
 11
832.5
 21
3334.499974519015
 31
0.0
  0
LINE
  5
1D4
330
1F
100
AcDbEntity
  8
NoLayerName_001
  6
Continuous
 62
     7
370
    50
100
AcDbLine
 10
839.0
 20
3306.999974519015
 30
0.0
 11
832.5
 21
3306.999974519015
 31
0.0
  0
LINE
  5
1D5
330
1F
100
AcDbEntity
  8
NoLayerName_001
  6
Continuous
 62
     7
370
    25
100
AcDbLine
 10
863.5
 20
2213.999974519015
 30
0.0
 11
863.5
 21
2209.499974519015
 31
0.0
  0
LINE
  5
1D6
330
1F
100
AcDbEntity
  8
NoLayerName_001
  6
Continuous
 62
     7
370
    50
100
AcDbLine
 10
875.5
 20
2299.499974519015
 30
0.0
 11
875.5
 21
2213.999974519015
 31
0.0
  0
LINE
  5
1D7
330
1F
100
AcDbEntity
  8
NoLayerName_001
  6
Continuous
 62
     7
370
    50
100
AcDbLine
 10
955.0
 20
3302.999974519015
 30
0.0
 11
967.0
 21
3302.999974519015
 31
0.0
  0
LINE
  5
1D8
330
1F
100
AcDbEntity
  8
NoLayerName_001
  6
Continuous
 62
     7
370
    50
100
AcDbLine
 10
967.0
 20
3302.999974519015
 30
0.0
 11
967.0
 21
2213.999974519015
 31
0.0
  0
LINE
  5
1D9
330
1F
100
AcDbEntity
  8
NoLayerName_001
  6
Continuous
 62
     7
370
    50
100
AcDbLine
 10
955.0
 20
3302.999974519015
 30
0.0
 11
955.0
 21
2213.999974519015
 31
0.0
  0
CIRCLE
  5
1DA
330
1F
100
AcDbEntity
  8
FRAME
  6
DOTSX
 62
     1
370
    25
100
AcDbCircle
 10
932.5
 20
3384.499974519015
 30
0.0
 40
15.0
  0
LINE
  5
1DB
330
1F
100
AcDbEntity
  8
FRAME
  6
Continuous
 62
     1
370
    25
100
AcDbLine
 10
982.5
 20
3434.499974519015
 30
0.0
 11
882.5
 21
3434.499974519015
 31
0.0
  0
LINE
  5
1DC
330
1F
100
AcDbEntity
  8
FRAME
  6
Continuous
 62
     1
370
    25
100
AcDbLine
 10
882.5
 20
3434.499974519015
 30
0.0
 11
882.5
 21
3334.499974519015
 31
0.0
  0
LINE
  5
1DD
330
1F
100
AcDbEntity
  8
FRAME
  6
Continuous
 62
     1
370
    50
100
AcDbLine
 10
814.3000000000002
 20
3249.499974519015
 30
0.0
 11
814.3000000000002
 21
2299.499974519015
 31
0.0
  0
LINE
  5
1DE
330
1F
100
AcDbEntity
  8
FRAME
  6
Continuous
 62
     1
370
    25
100
AcDbLine
 10
869.0
 20
2209.499974519015
 30
0.0
 11
869.0
 21
2204.999974519015
 31
0.0
  0
LINE
  5
1DF
330
1F
100
AcDbEntity
  8
NoLayerName_001
  6
Continuous
 62
     7
370
    25
100
AcDbLine
 10
920.3499999999992
 20
2202.799974519015
 30
0.0
 11
920.3499999999992
 21
2204.999974519015
 31
0.0
  0
LINE
  5
1E0
330
1F
100
AcDbEntity
  8
NoLayerName_001
  6
Continuous
 62
     7
370
    25
100
AcDbLine
 10
937.6499999999994
 20
2202.799974519014
 30
0.0
 11
937.6499999999994
 21
2204.999974519014
 31
0.0
  0
ARC
  5
1E1
330
1F
100
AcDbEntity
  8
NoLayerName_001
  6
Continuous
 62
     7
370
    25
100
AcDbCircle
 10
903.05
 20
2202.799974519015
 30
0.0
 40
17.3
100
AcDbArc
 50
270.0
 51
0.0
  0
ARC
  5
1E2
330
1F
100
AcDbEntity
  8
NoLayerName_001
  6
Continuous
 62
     7
370
    25
100
AcDbCircle
 10
903.05
 20
2202.799974519014
 30
0.0
 40
34.6
100
AcDbArc
 50
270.0
 51
0.0
  0
LINE
  5
1E3
330
1F
100
AcDbEntity
  8
NoLayerName_001
  6
Continuous
 62
     7
370
    25
100
AcDbLine
 10
812.7526403356665
 20
2151.84989822507
 30
0.0
 11
812.7526402980046
 21
2201.84989822507
 31
0.0
  0
LINE
  5
1E4
330
1F
100
AcDbEntity
  8
NoLayerName_001
  6
Continuous
 62
     7
370
    25
100
AcDbLine
 10
898.3039222154265
 20
2151.849898225071
 30
0.0
 11
898.3039222154265
 21
2201.84989822507
 31
0.0
  0
LINE
  5
1E5
330
1F
100
AcDbEntity
  8
NoLayerName_001
  6
Continuous
 62
     7
370
    25
100
AcDbLine
 10
812.7526403356662
 20
2151.849898225071
 30
0.0
 11
898.3039222154265
 21
2201.84989822507
 31
0.0
  0
LINE
  5
1E6
330
1F
100
AcDbEntity
  8
NoLayerName_001
  6
Continuous
 62
     7
370
    25
100
AcDbLine
 10
898.3039222154265
 20
2151.849898225071
 30
0.0
 11
812.7526402980044
 21
2201.84989822507
 31
0.0
  0
LINE
  5
1E7
330
1F
100
AcDbEntity
  8
NoLayerName_001
  6
Continuous
 62
     7
370
    25
100
AcDbLine
 10
903.05
 20
2185.499974519015
 30
0.0
 11
898.3039222154265
 21
2185.499974519015
 31
0.0
  0
LINE
  5
1E8
330
1F
100
AcDbEntity
  8
NoLayerName_001
  6
Continuous
 62
     7
370
    25
100
AcDbLine
 10
903.05
 20
2168.199974519015
 30
0.0
 11
898.3039222154265
 21
2168.199974519015
 31
0.0
  0
LINE
  5
1E9
330
1F
100
AcDbEntity
  8
FRAME
  6
Continuous
 62
     3
370
    25
100
AcDbLine
 10
863.5
 20
2213.999974519015
 30
0.0
 11
2036.5
 21
2213.999974519015
 31
0.0
  0
LINE
  5
1EA
330
1F
100
AcDbEntity
  8
FRAME
  6
Continuous
 62
     3
370
    25
100
AcDbLine
 10
863.5
 20
2209.499974519015
 30
0.0
 11
2036.5
 21
2209.499974519015
 31
0.0
  0
LINE
  5
1EB
330
1F
100
AcDbEntity
  8
NoLayerName_001
  6
PHANTOM
 62
     7
370
    25
100
AcDbLine
 10
2085.7
 20
2299.499974519015
 30
0.0
 11
814.3000000000002
 21
2299.499974519015
 31
0.0
  0
LINE
  5
1EC
330
1F
100
AcDbEntity
  8
NoLayerName_001
  6
PHANTOM
 62
     7
370
    25
100
AcDbLine
 10
814.3000000000002
 20
3249.499974519015
 30
0.0
 11
2085.7
 21
3249.499974519015
 31
0.0
  0
LINE
  5
1ED
330
1F
100
AcDbEntity
  8
FRAME
  6
Continuous
 62
     3
370
    25
100
AcDbLine
 10
2031.0
 20
2204.999974519015
 30
0.0
 11
869.0
 21
2204.999974519015
 31
0.0
  0
LINE
  5
1EE
330
1F
100
AcDbEntity
  8
FRAME
  6
Continuous
 62
     3
370
    25
100
AcDbLine
 10
1816.0
 20
2184.999974519015
 30
0.0
 11
1836.0
 21
2204.999974519014
 31
0.0
  0
LINE
  5
1EF
330
1F
100
AcDbEntity
  8
FRAME
  6
Continuous
 62
     3
370
    25
100
AcDbLine
 10
1881.0
 20
2204.999974519015
 30
0.0
 11
1881.0
 21
2135.999974519015
 31
0.0
  0
LINE
  5
1F0
330
1F
100
AcDbEntity
  8
FRAME
  6
Continuous
 62
     3
370
    25
100
AcDbLine
 10
1836.0
 20
2135.999974519015
 30
0.0
 11
1816.0
 21
2155.999974519015
 31
0.0
  0
LINE
  5
1F1
330
1F
100
AcDbEntity
  8
FRAME
  6
Continuous
 62
     3
370
    25
100
AcDbLine
 10
1810.0
 20
2144.999974519015
 30
0.0
 11
1810.0
 21
2134.999974519015
 31
0.0
  0
LINE
  5
1F2
330
1F
100
AcDbEntity
  8
FRAME
  6
Continuous
 62
     3
370
    25
100
AcDbLine
 10
1885.0
 20
2135.999974519015
 30
0.0
 11
1825.0
 21
2135.999974519015
 31
0.0
  0
LINE
  5
1F3
330
1F
100
AcDbEntity
  8
FRAME
  6
Continuous
 62
     3
370
    25
100
AcDbLine
 10
1885.0
 20
2129.999974519015
 30
0.0
 11
1825.0
 21
2129.999974519015
 31
0.0
  0
LINE
  5
1F4
330
1F
100
AcDbEntity
  8
FRAME
  6
Continuous
 62
     3
370
    25
100
AcDbLine
 10
1885.0
 20
2129.999974519015
 30
0.0
 11
1885.0
 21
2135.999974519015
 31
0.0
  0
ARC
  5
1F5
330
1F
100
AcDbEntity
  8
FRAME
  6
Continuous
 62
     3
370
    25
100
AcDbCircle
 10
1825.0
 20
2144.999974519015
 30
0.0
 40
15.0
100
AcDbArc
 50
180.0
 51
270.0
  0
ARC
  5
1F6
330
1F
100
AcDbEntity
  8
FRAME
  6
Continuous
 62
     3
370
    25
100
AcDbCircle
 10
1825.0
 20
2144.999974519015
 30
0.0
 40
9.0
100
AcDbArc
 50
180.0
 51
270.0
  0
LINE
  5
1F7
330
1F
100
AcDbEntity
  8
FRAME
  6
Continuous
 62
     3
370
    25
100
AcDbLine
 10
1816.0
 20
2204.999974519015
 30
0.0
 11
1810.0
 21
2204.999974519015
 31
0.0
  0
LINE
  5
1F8
330
1F
100
AcDbEntity
  8
FRAME
  6
Continuous
 62
     3
370
    25
100
AcDbLine
 10
1810.0
 20
2144.999974519015
 30
0.0
 11
1810.0
 21
2204.999974519014
 31
0.0
  0
LINE
  5
1F9
330
1F
100
AcDbEntity
  8
FRAME
  6
Continuous
 62
     3
370
    25
100
AcDbLine
 10
1816.0
 20
2144.999974519015
 30
0.0
 11
1816.0
 21
2204.999974519014
 31
0.0
  0
LINE
  5
1FA
330
1F
100
AcDbEntity
  8
FRAME
  6
Continuous
 62
     3
370
    25
100
AcDbLine
 10
1810.0
 20
2184.999974519015
 30
0.0
 11
1790.0
 21
2204.999974519014
 31
0.0
  0
LINE
  5
1FB
330
1F
100
AcDbEntity
  8
NoLayerName_002
  6
CENTER
 62
     1
370
    25
100
AcDbLine
 10
1850.0
 20
2155.999974519015
 30
0.0
 11
1850.0
 21
2109.999974519015
 31
0.0
  0
LINE
  5
1FC
330
1F
100
AcDbEntity
  8
FRAME
  6
Continuous
 62
     3
370
    25
100
AcDbLine
 10
1084.0
 20
2155.999974519015
 30
0.0
 11
1064.002
 21
2135.999974519015
 31
0.0
  0
LINE
  5
1FD
330
1F
100
AcDbEntity
  8
FRAME
  6
Continuous
 62
     3
370
    25
100
AcDbLine
 10
1064.002
 20
2204.999974519015
 30
0.0
 11
1084.0
 21
2184.999974519015
 31
0.0
  0
LINE
  5
1FE
330
1F
100
AcDbEntity
  8
FRAME
  6
Continuous
 62
     3
370
    25
100
AcDbLine
 10
1019.002
 20
2204.999974519015
 30
0.0
 11
1019.002
 21
2135.999974519015
 31
0.0
  0
LINE
  5
1FF
330
1F
100
AcDbEntity
  8
FRAME
  6
Continuous
 62
     3
370
    25
100
AcDbLine
 10
1090.0
 20
2144.999974519015
 30
0.0
 11
1090.0
 21
2134.999974519015
 31
0.0
  0
LINE
  5
200
330
1F
100
AcDbEntity
  8
FRAME
  6
Continuous
 62
     3
370
    25
100
AcDbLine
 10
1015.002
 20
2135.999974519015
 30
0.0
 11
1075.0
 21
2135.999974519015
 31
0.0
  0
LINE
  5
201
330
1F
100
AcDbEntity
  8
FRAME
  6
Continuous
 62
     3
370
    25
100
AcDbLine
 10
1015.002
 20
2129.999974519015
 30
0.0
 11
1015.002
 21
2135.999974519015
 31
0.0
  0
LINE
  5
202
330
1F
100
AcDbEntity
  8
FRAME
  6
Continuous
 62
     3
370
    25
100
AcDbLine
 10
1015.002
 20
2129.999974519015
 30
0.0
 11
1075.0
 21
2129.999974519015
 31
0.0
  0
ARC
  5
203
330
1F
100
AcDbEntity
  8
FRAME
  6
Continuous
 62
     3
370
    25
100
AcDbCircle
 10
1075.0
 20
2144.999974519015
 30
0.0
 40
9.0
100
AcDbArc
 50
270.0
 51
0.0
  0
ARC
  5
204
330
1F
100
AcDbEntity
  8
FRAME
  6
Continuous
 62
     3
370
    25
100
AcDbCircle
 10
1075.0
 20
2144.999974519015
 30
0.0
 40
15.0
100
AcDbArc
 50
270.0
 51
0.0
  0
LINE
  5
205
330
1F
100
AcDbEntity
  8
FRAME
  6
Continuous
 62
     3
370
    25
100
AcDbLine
 10
1084.0
 20
2144.999974519015
 30
0.0
 11
1084.0
 21
2204.999974519014
 31
0.0
  0
LINE
  5
206
330
1F
100
AcDbEntity
  8
FRAME
  6
Continuous
 62
     3
370
    25
100
AcDbLine
 10
1090.0
 20
2144.999974519015
 30
0.0
 11
1090.0
 21
2204.999974519014
 31
0.0
  0
LINE
  5
207
330
1F
100
AcDbEntity
  8
FRAME
  6
Continuous
 62
     3
370
    25
100
AcDbLine
 10
1084.0
 20
2204.999974519015
 30
0.0
 11
1090.0
 21
2204.999974519015
 31
0.0
  0
LINE
  5
208
330
1F
100
AcDbEntity
  8
FRAME
  6
Continuous
 62
     3
370
    25
100
AcDbLine
 10
1120.0
 20
2180.999974519015
 30
0.0
 11
1090.0
 21
2180.999974519015
 31
0.0
  0
LINE
  5
209
330
1F
100
AcDbEntity
  8
FRAME
  6
Continuous
 62
     3
370
    25
100
AcDbLine
 10
1120.0
 20
2199.999974519015
 30
0.0
 11
1090.0
 21
2199.999974519015
 31
0.0
  0
CIRCLE
  5
20A
330
1F
100
AcDbEntity
  8
FRAME
  6
Continuous
 62
     3
370
    25
100
AcDbCircle
 10
1108.5
 20
2190.499974519015
 30
0.0
 40
4.0
  0
LINE
  5
20B
330
1F
100
AcDbEntity
  8
FRAME
  6
Continuous
 62
     3
370
    25
100
AcDbLine
 10
1120.0
 20
2199.999974519015
 30
0.0
 11
1120.0
 21
2180.999974519015
 31
0.0
  0
LINE
  5
20C
330
1F
100
AcDbEntity
  8
NoLayerName_002
  6
CENTER
 62
     1
370
    25
100
AcDbLine
 10
1050.002
 20
2155.999974519015
 30
0.0
 11
1050.002
 21
2109.999974519015
 31
0.0
  0
LINE
  5
20D
330
1F
100
AcDbEntity
  8
FRAME
  6
Continuous
 62
     3
370
    25
100
AcDbLine
 10
1090.0
 20
2134.999974519015
 30
0.0
 11
1810.0
 21
2134.999974519015
 31
0.0
  0
LINE
  5
20E
330
1F
100
AcDbEntity
  8
NoLayerName_001
  6
Continuous
 62
     7
370
    50
100
AcDbLine
 10
2024.5
 20
3306.999974519015
 30
0.0
 11
2024.5
 21
3249.499974519015
 31
0.0
  0
LINE
  5
20F
330
1F
100
AcDbEntity
  8
FRAME
  6
PHANTOM
 62
     1
370
    25
100
AcDbLine
 10
1471.3
 20
3249.499974519015
 30
0.0
 11
1471.3
 21
2299.499974519015
 31
0.0
  0
LINE
  5
210
330
1F
100
AcDbEntity
  8
FRAME
  6
PHANTOM
 62
     1
370
    25
100
AcDbLine
 10
1428.7
 20
3249.499974519015
 30
0.0
 11
1428.7
 21
2299.499974519015
 31
0.0
  0
LINE
  5
211
330
1F
100
AcDbEntity
  8
FRAME
  6
Continuous
 62
     1
370
    50
100
AcDbLine
 10
3430.0
 20
3334.499974519015
 30
0.0
 11
3430.0
 21
3306.999974519015
 31
0.0
  0
LINE
  5
212
330
1F
100
AcDbEntity
  8
FRAME
  6
Continuous
 62
     1
370
    50
100
AcDbLine
 10
2770.0
 20
3334.499974519015
 30
0.0
 11
2770.0
 21
3306.999974519015
 31
0.0
  0
LINE
  5
213
330
1F
100
AcDbEntity
  8
FRAME
  6
Continuous
 62
     3
370
    50
100
AcDbLine
 10
3430.0
 20
3334.499974519015
 30
0.0
 11
2770.0
 21
3334.499974519015
 31
0.0
  0
LINE
  5
214
330
1F
100
AcDbEntity
  8
FRAME
  6
Continuous
 62
     3
370
    50
100
AcDbLine
 10
3430.0
 20
3306.999974519015
 30
0.0
 11
2770.0
 21
3306.999974519015
 31
0.0
  0
LINE
  5
215
330
1F
100
AcDbEntity
  8
NoLayerName_001
  6
Continuous
 62
     7
370
    25
100
AcDbLine
 10
1802.5
 20
4549.999974519014
 30
0.0
 11
1802.5
 21
4609.999974519014
 31
0.0
  0
LINE
  5
216
330
1F
100
AcDbEntity
  8
NoLayerName_001
  6
Continuous
 62
     7
370
    25
100
AcDbLine
 10
1882.5
 20
4629.999974519014
 30
0.0
 11
1822.5
 21
4629.999974519014
 31
0.0
  0
LINE
  5
217
330
1F
100
AcDbEntity
  8
NoLayerName_001
  6
Continuous
 62
     7
370
    25
100
AcDbLine
 10
1902.5
 20
4609.999974519014
 30
0.0
 11
1902.5
 21
4549.999974519014
 31
0.0
  0
LINE
  5
218
330
1F
100
AcDbEntity
  8
NoLayerName_001
  6
Continuous
 62
     7
370
    25
100
AcDbLine
 10
1882.5
 20
4529.999974519014
 30
0.0
 11
1822.5
 21
4529.999974519014
 31
0.0
  0
ARC
  5
219
330
1F
100
AcDbEntity
  8
NoLayerName_001
  6
Continuous
 62
     7
370
    25
100
AcDbCircle
 10
1822.5
 20
4609.999974519014
 30
0.0
 40
20.0
100
AcDbArc
 50
90.0
 51
180.0
  0
ARC
  5
21A
330
1F
100
AcDbEntity
  8
NoLayerName_001
  6
Continuous
 62
     7
370
    25
100
AcDbCircle
 10
1822.5
 20
4549.999974519014
 30
0.0
 40
20.0
100
AcDbArc
 50
180.0
 51
270.0
  0
ARC
  5
21B
330
1F
100
AcDbEntity
  8
NoLayerName_001
  6
Continuous
 62
     7
370
    25
100
AcDbCircle
 10
1882.5
 20
4549.999974519014
 30
0.0
 40
20.0
100
AcDbArc
 50
270.0
 51
0.0
  0
ARC
  5
21C
330
1F
100
AcDbEntity
  8
NoLayerName_001
  6
Continuous
 62
     7
370
    25
100
AcDbCircle
 10
1882.5
 20
4609.999974519014
 30
0.0
 40
20.0
100
AcDbArc
 50
0.0
 51
90.0
  0
CIRCLE
  5
21D
330
1F
100
AcDbEntity
  8
NoLayerName_001
  6
Continuous
 62
     7
370
    25
100
AcDbCircle
 10
1852.5
 20
4579.999974519014
 30
0.0
 40
37.5
  0
LINE
  5
21E
330
1F
100
AcDbEntity
  8
NoLayerName_001
  6
Continuous
 62
     7
370
    50
100
AcDbLine
 10
2017.5
 20
4417.999974519014
 30
0.0
 11
2017.5
 21
4401.999974519014
 31
0.0
  0
LINE
  5
21F
330
1F
100
AcDbEntity
  8
NoLayerName_001
  6
Continuous
 62
     7
370
    50
100
AcDbLine
 10
2017.5
 20
4417.999974519014
 30
0.0
 11
1917.5
 21
4417.999974519014
 31
0.0
  0
LINE
  5
220
330
1F
100
AcDbEntity
  8
NoLayerName_001
  6
Continuous
 62
     7
370
    50
100
AcDbLine
 10
1917.5
 20
4417.999974519014
 30
0.0
 11
1917.5
 21
4401.999974519014
 31
0.0
  0
LINE
  5
221
330
1F
100
AcDbEntity
  8
NoLayerName_001
  6
Continuous
 62
     7
370
    50
100
AcDbLine
 10
2017.5
 20
4401.999974519014
 30
0.0
 11
1917.5
 21
4401.999974519014
 31
0.0
  0
LINE
  5
222
330
1F
100
AcDbEntity
  8
NoLayerName_001
  6
Continuous
 62
     7
370
    50
100
AcDbLine
 10
2067.5
 20
4739.999974519014
 30
0.0
 11
2067.5
 21
4079.999974519014
 31
0.0
  0
LINE
  5
223
330
1F
100
AcDbEntity
  8
NoLayerName_001
  6
Continuous
 62
     7
370
    50
100
AcDbLine
 10
1945.0
 20
4821.999974519013
 30
0.0
 11
1933.0
 21
4821.999974519013
 31
0.0
  0
LINE
  5
224
330
1F
100
AcDbEntity
  8
NoLayerName_001
  6
Continuous
 62
     7
370
    50
100
AcDbLine
 10
1933.0
 20
4821.999974519013
 30
0.0
 11
1933.0
 21
4739.999974519014
 31
0.0
  0
LINE
  5
225
330
1F
100
AcDbEntity
  8
NoLayerName_001
  6
Continuous
 62
     7
370
    50
100
AcDbLine
 10
1945.0
 20
4739.999974519014
 30
0.0
 11
1945.0
 21
4821.999974519013
 31
0.0
  0
LINE
  5
226
330
1F
100
AcDbEntity
  8
NoLayerName_001
  6
Continuous
 62
     7
370
    50
100
AcDbLine
 10
1945.0
 20
3997.999974519015
 30
0.0
 11
1933.0
 21
3997.999974519015
 31
0.0
  0
LINE
  5
227
330
1F
100
AcDbEntity
  8
NoLayerName_001
  6
Continuous
 62
     7
370
    50
100
AcDbLine
 10
1933.0
 20
3997.999974519015
 30
0.0
 11
1933.0
 21
4079.999974519014
 31
0.0
  0
LINE
  5
228
330
1F
100
AcDbEntity
  8
NoLayerName_001
  6
Continuous
 62
     7
370
    50
100
AcDbLine
 10
1945.0
 20
4079.999974519014
 30
0.0
 11
1945.0
 21
3997.999974519015
 31
0.0
  0
LINE
  5
229
330
1F
100
AcDbEntity
  8
NoLayerName_001
  6
PHANTOM
 62
     7
370
    25
100
AcDbLine
 10
2085.660038985764
 20
4605.702297875228
 30
0.0
 11
2085.700000000002
 21
4460.159974519013
 31
0.0
  0
ARC
  5
22A
330
1F
100
AcDbEntity
  8
NoLayerName_001
  6
PHANTOM
 62
     7
370
    25
100
AcDbCircle
 10
1980.708491359141
 20
4739.376566384943
 30
0.0
 40
3.7
100
AcDbArc
 50
63.30089002947184
 51
163.6699820301423
  0
LINE
  5
22B
330
1F
100
AcDbEntity
  8
NoLayerName_001
  6
PHANTOM
 62
     7
370
    25
100
AcDbLine
 10
1977.035603652173
 20
4739.999974519014
 30
0.0
 11
1977.157756005565
 21
4740.416892511155
 31
0.0
  0
LINE
  5
22C
330
1F
100
AcDbEntity
  8
NoLayerName_001
  6
PHANTOM
 62
     7
370
    25
100
AcDbLine
 10
1982.370920306767
 20
4742.682066346234
 30
0.0
 11
1987.703872697734
 21
4739.999974519014
 31
0.0
  0
LINE
  5
22D
330
1F
100
AcDbEntity
  8
NoLayerName_001
  6
PHANTOM
 62
     7
370
    25
100
AcDbLine
 10
2067.5
 20
4669.589844849473
 30
0.0
 11
2082.596697448696
 21
4647.275858890287
 31
0.0
  0
LINE
  5
22E
330
1F
100
AcDbEntity
  8
NoLayerName_001
  6
PHANTOM
 62
     7
370
    25
100
AcDbLine
 10
2082.596697448696
 20
4647.275858890287
 30
0.0
 11
2085.660038985764
 21
4605.702297875226
 31
0.0
  0
ARC
  5
22F
330
1F
100
AcDbEntity
  8
NoLayerName_001
  6
PHANTOM
 62
     7
370
    25
100
AcDbCircle
 10
2082.000000000002
 20
4460.159974519013
 30
0.0
 40
3.7
100
AcDbArc
 50
270.0000179698566
 51
0.0157314886117984
  0
LINE
  5
230
330
1F
100
AcDbEntity
  8
NoLayerName_001
  6
PHANTOM
 62
     7
370
    25
100
AcDbLine
 10
2067.5
 20
4456.459974519014
 30
0.0
 11
2082.000000000002
 21
4456.459974519014
 31
0.0
  0
LINE
  5
231
330
1F
100
AcDbEntity
  8
NoLayerName_001
  6
PHANTOM
 62
     7
370
    25
100
AcDbLine
 10
2085.660038985764
 20
4214.2976511628
 30
0.0
 11
2085.700000000002
 21
4359.839974519015
 31
0.0
  0
LINE
  5
232
330
1F
100
AcDbEntity
  8
NoLayerName_001
  6
PHANTOM
 62
     7
370
    25
100
AcDbLine
 10
1977.035603652173
 20
4079.999974519014
 30
0.0
 11
1977.157756005565
 21
4079.583056526873
 31
0.0
  0
LINE
  5
233
330
1F
100
AcDbEntity
  8
NoLayerName_001
  6
PHANTOM
 62
     7
370
    25
100
AcDbLine
 10
2067.5
 20
4150.410104188556
 30
0.0
 11
2082.596697448696
 21
4172.724090147742
 31
0.0
  0
LINE
  5
234
330
1F
100
AcDbEntity
  8
NoLayerName_001
  6
PHANTOM
 62
     7
370
    25
100
AcDbLine
 10
2082.596697448696
 20
4172.724090147742
 30
0.0
 11
2085.660038985764
 21
4214.297651162803
 31
0.0
  0
ARC
  5
235
330
1F
100
AcDbEntity
  8
NoLayerName_001
  6
PHANTOM
 62
     7
370
    25
100
AcDbCircle
 10
2082.000000000002
 20
4359.839974519015
 30
0.0
 40
3.7
100
AcDbArc
 50
359.9842685113882
 51
89.99998203014346
  0
LINE
  5
236
330
1F
100
AcDbEntity
  8
NoLayerName_001
  6
PHANTOM
 62
     7
370
    25
100
AcDbLine
 10
2067.5
 20
4363.539974519014
 30
0.0
 11
2082.000000000002
 21
4363.539974519014
 31
0.0
  0
CIRCLE
  5
237
330
1F
100
AcDbEntity
  8
NoLayerName_001
  6
Continuous
 62
     7
370
    50
100
AcDbCircle
 10
1857.500000000001
 20
4179.999974519014
 30
0.0
 40
28.25
  0
CIRCLE
  5
238
330
1F
100
AcDbEntity
  8
NoLayerName_001
  6
Continuous
 62
     7
370
    50
100
AcDbCircle
 10
1017.500000000001
 20
4329.999974519014
 30
0.0
 40
17.0
  0
LINE
  5
239
330
1F
100
AcDbEntity
  8
NoLayerName_001
  6
Continuous
 62
     7
370
    50
100
AcDbLine
 10
882.5
 20
4417.999974519014
 30
0.0
 11
882.5
 21
4401.999974519014
 31
0.0
  0
LINE
  5
23A
330
1F
100
AcDbEntity
  8
NoLayerName_001
  6
Continuous
 62
     7
370
    50
100
AcDbLine
 10
882.5
 20
4417.999974519014
 30
0.0
 11
982.5
 21
4417.999974519014
 31
0.0
  0
LINE
  5
23B
330
1F
100
AcDbEntity
  8
NoLayerName_001
  6
Continuous
 62
     7
370
    50
100
AcDbLine
 10
982.5
 20
4417.999974519014
 30
0.0
 11
982.5
 21
4401.999974519014
 31
0.0
  0
LINE
  5
23C
330
1F
100
AcDbEntity
  8
NoLayerName_001
  6
Continuous
 62
     7
370
    50
100
AcDbLine
 10
882.5
 20
4401.999974519014
 30
0.0
 11
982.5
 21
4401.999974519014
 31
0.0
  0
LINE
  5
23D
330
1F
100
AcDbEntity
  8
NoLayerName_001
  6
Continuous
 62
     7
370
    50
100
AcDbLine
 10
832.5
 20
4739.999974519014
 30
0.0
 11
832.5
 21
4079.999974519014
 31
0.0
  0
LINE
  5
23E
330
1F
100
AcDbEntity
  8
NoLayerName_001
  6
Continuous
 62
     7
370
    50
100
AcDbLine
 10
955.0
 20
4821.999974519013
 30
0.0
 11
967.0
 21
4821.999974519013
 31
0.0
  0
LINE
  5
23F
330
1F
100
AcDbEntity
  8
NoLayerName_001
  6
Continuous
 62
     7
370
    50
100
AcDbLine
 10
967.0
 20
4821.999974519013
 30
0.0
 11
967.0
 21
4739.999974519014
 31
0.0
  0
LINE
  5
240
330
1F
100
AcDbEntity
  8
NoLayerName_001
  6
Continuous
 62
     7
370
    50
100
AcDbLine
 10
955.0
 20
4739.999974519014
 30
0.0
 11
955.0
 21
4821.999974519013
 31
0.0
  0
LINE
  5
241
330
1F
100
AcDbEntity
  8
NoLayerName_001
  6
Continuous
 62
     7
370
    50
100
AcDbLine
 10
955.0
 20
3997.999974519015
 30
0.0
 11
967.0
 21
3997.999974519015
 31
0.0
  0
LINE
  5
242
330
1F
100
AcDbEntity
  8
NoLayerName_001
  6
Continuous
 62
     7
370
    50
100
AcDbLine
 10
967.0
 20
3997.999974519015
 30
0.0
 11
967.0
 21
4079.999974519014
 31
0.0
  0
LINE
  5
243
330
1F
100
AcDbEntity
  8
NoLayerName_001
  6
Continuous
 62
     7
370
    50
100
AcDbLine
 10
955.0
 20
4079.999974519014
 30
0.0
 11
955.0
 21
3997.999974519015
 31
0.0
  0
LINE
  5
244
330
1F
100
AcDbEntity
  8
NoLayerName_001
  6
PHANTOM
 62
     7
370
    25
100
AcDbLine
 10
814.3399610142355
 20
4605.702297875228
 30
0.0
 11
814.2999999999982
 21
4460.159974519013
 31
0.0
  0
ARC
  5
245
330
1F
100
AcDbEntity
  8
NoLayerName_001
  6
PHANTOM
 62
     7
370
    25
100
AcDbCircle
 10
919.2915086408589
 20
4739.376566384943
 30
0.0
 40
3.7
100
AcDbArc
 50
16.33001796985771
 51
116.6991099705282
  0
LINE
  5
246
330
1F
100
AcDbEntity
  8
NoLayerName_001
  6
PHANTOM
 62
     7
370
    25
100
AcDbLine
 10
917.6290796932333
 20
4742.682066346234
 30
0.0
 11
912.2961273022656
 21
4739.999974519014
 31
0.0
  0
LINE
  5
247
330
1F
100
AcDbEntity
  8
NoLayerName_001
  6
PHANTOM
 62
     7
370
    25
100
AcDbLine
 10
832.5
 20
4669.589844849473
 30
0.0
 11
817.4033025513036
 21
4647.275858890287
 31
0.0
  0
LINE
  5
248
330
1F
100
AcDbEntity
  8
NoLayerName_001
  6
PHANTOM
 62
     7
370
    25
100
AcDbLine
 10
817.4033025513036
 20
4647.275858890287
 30
0.0
 11
814.3399610142355
 21
4605.702297875226
 31
0.0
  0
ARC
  5
249
330
1F
100
AcDbEntity
  8
NoLayerName_001
  6
PHANTOM
 62
     7
370
    25
100
AcDbCircle
 10
817.9999999999982
 20
4460.159974519013
 30
0.0
 40
3.7
100
AcDbArc
 50
179.9842685113882
 51
269.9999820301435
  0
LINE
  5
24A
330
1F
100
AcDbEntity
  8
NoLayerName_001
  6
PHANTOM
 62
     7
370
    25
100
AcDbLine
 10
832.5
 20
4456.459974519014
 30
0.0
 11
817.9999999999982
 21
4456.459974519014
 31
0.0
  0
LINE
  5
24B
330
1F
100
AcDbEntity
  8
NoLayerName_001
  6
PHANTOM
 62
     7
370
    25
100
AcDbLine
 10
814.3399610142355
 20
4214.2976511628
 30
0.0
 11
814.2999999999982
 21
4359.839974519015
 31
0.0
  0
LINE
  5
24C
330
1F
100
AcDbEntity
  8
NoLayerName_001
  6
PHANTOM
 62
     7
370
    25
100
AcDbLine
 10
832.5
 20
4150.410104188556
 30
0.0
 11
817.4033025513036
 21
4172.724090147742
 31
0.0
  0
LINE
  5
24D
330
1F
100
AcDbEntity
  8
NoLayerName_001
  6
PHANTOM
 62
     7
370
    25
100
AcDbLine
 10
817.4033025513036
 20
4172.724090147742
 30
0.0
 11
814.3399610142355
 21
4214.297651162803
 31
0.0
  0
ARC
  5
24E
330
1F
100
AcDbEntity
  8
NoLayerName_001
  6
PHANTOM
 62
     7
370
    25
100
AcDbCircle
 10
817.9999999999982
 20
4359.839974519015
 30
0.0
 40
3.7
100
AcDbArc
 50
90.0000179698565
 51
180.0157314886118
  0
LINE
  5
24F
330
1F
100
AcDbEntity
  8
NoLayerName_001
  6
PHANTOM
 62
     7
370
    25
100
AcDbLine
 10
832.5
 20
4363.539974519014
 30
0.0
 11
817.9999999999982
 21
4363.539974519014
 31
0.0
  0
LINE
  5
250
330
1F
100
AcDbEntity
  8
NoLayerName_001
  6
PHANTOM
 62
     7
370
    25
100
AcDbLine
 10
922.964396347827
 20
4739.999974519014
 30
0.0
 11
922.8422439944349
 21
4740.416892511155
 31
0.0
  0
LINE
  5
251
330
1F
100
AcDbEntity
  8
NoLayerName_001
  6
Continuous
 62
     7
370
    25
100
AcDbLine
 10
849.7525244157932
 20
4039.245407697202
 30
0.0
 11
814.3971853298352
 21
4074.600746729898
 31
0.0
  0
LINE
  5
252
330
1F
100
AcDbEntity
  8
NoLayerName_001
  6
Continuous
 62
     7
370
    25
100
AcDbLine
 10
849.752524415793
 20
4039.245407697202
 30
0.0
 11
860.4412989731227
 21
4079.999974519014
 31
0.0
  0
LINE
  5
253
330
1F
100
AcDbEntity
  8
NoLayerName_001
  6
Continuous
 62
     7
370
    25
100
AcDbLine
 10
834.9835667120561
 20
4079.999974519014
 30
0.0
 11
814.3971853298351
 21
4074.600746729898
 31
0.0
  0
CIRCLE
  5
254
330
1F
100
AcDbEntity
  8
NoLayerName_001
  6
Continuous
 62
     7
370
    25
100
AcDbCircle
 10
1017.500000000001
 20
4229.999974519014
 30
0.0
 40
42.0
  0
CIRCLE
  5
255
330
1F
100
AcDbEntity
  8
NoLayerName_001
  6
Continuous
 62
     7
370
    25
100
AcDbCircle
 10
1017.500000000001
 20
4229.999974519014
 30
0.0
 40
23.0
  0
CIRCLE
  5
256
330
1F
100
AcDbEntity
  8
NoLayerName_001
  6
Continuous
 62
     7
370
    25
100
AcDbCircle
 10
1017.500000000001
 20
4229.999974519014
 30
0.0
 40
9.0
  0
LINE
  5
257
330
1F
100
AcDbEntity
  8
NoLayerName_001
  6
Continuous
 62
     7
370
    50
100
AcDbLine
 10
2067.5
 20
4739.999974519014
 30
0.0
 11
832.5
 21
4739.999974519014
 31
0.0
  0
LINE
  5
258
330
1F
100
AcDbEntity
  8
FRAME
  6
CENTER
 62
     1
370
    25
100
AcDbLine
 10
2121.700000000002
 20
4409.999974519014
 30
0.0
 11
778.2999999999984
 21
4409.999974519014
 31
0.0
  0
LINE
  5
259
330
1F
100
AcDbEntity
  8
FRAME
  6
PHANTOM
 62
     1
370
    25
100
AcDbLine
 10
1892.5
 20
4822.199974519014
 30
0.0
 11
1450.0
 21
4822.199974519014
 31
0.0
  0
LINE
  5
25A
330
1F
100
AcDbEntity
  8
NoLayerName_001
  6
PHANTOM
 62
     7
370
    25
100
AcDbLine
 10
1471.299999999999
 20
4739.999974519014
 30
0.0
 11
1471.299999999999
 21
4822.199974519014
 31
0.0
  0
LINE
  5
25B
330
1F
100
AcDbEntity
  8
NoLayerName_001
  6
PHANTOM
 62
     7
370
    25
100
AcDbLine
 10
1913.700000000001
 20
4739.999974519014
 30
0.0
 11
1913.700000000001
 21
4744.998765204527
 31
0.0
  0
LINE
  5
25C
330
1F
100
AcDbEntity
  8
NoLayerName_001
  6
PHANTOM
 62
     7
370
    25
100
AcDbLine
 10
1892.5
 20
4822.199974519014
 30
0.0
 11
1913.700000000001
 21
4744.998765204527
 31
0.0
  0
LINE
  5
25D
330
1F
100
AcDbEntity
  8
FRAME
  6
PHANTOM
 62
     1
370
    25
100
AcDbLine
 10
1007.5
 20
4822.199974519014
 30
0.0
 11
1450.0
 21
4822.199974519014
 31
0.0
  0
LINE
  5
25E
330
1F
100
AcDbEntity
  8
NoLayerName_001
  6
PHANTOM
 62
     7
370
    25
100
AcDbLine
 10
1428.700000000001
 20
4739.999974519014
 30
0.0
 11
1428.700000000001
 21
4822.199974519014
 31
0.0
  0
LINE
  5
25F
330
1F
100
AcDbEntity
  8
NoLayerName_001
  6
PHANTOM
 62
     7
370
    25
100
AcDbLine
 10
986.2999999999995
 20
4739.999974519014
 30
0.0
 11
986.2999999999995
 21
4744.998765204527
 31
0.0
  0
LINE
  5
260
330
1F
100
AcDbEntity
  8
NoLayerName_001
  6
PHANTOM
 62
     7
370
    25
100
AcDbLine
 10
1007.5
 20
4822.199974519014
 30
0.0
 11
986.2999999999995
 21
4744.998765204527
 31
0.0
  0
LINE
  5
261
330
1F
100
AcDbEntity
  8
FRAME
  6
PHANTOM
 62
     1
370
    25
100
AcDbLine
 10
1892.5
 20
3997.799974519015
 30
0.0
 11
1450.0
 21
3997.799974519015
 31
0.0
  0
LINE
  5
262
330
1F
100
AcDbEntity
  8
NoLayerName_001
  6
PHANTOM
 62
     7
370
    25
100
AcDbLine
 10
1471.299999999999
 20
4079.999974519014
 30
0.0
 11
1471.299999999999
 21
3997.799974519015
 31
0.0
  0
LINE
  5
263
330
1F
100
AcDbEntity
  8
NoLayerName_001
  6
PHANTOM
 62
     7
370
    25
100
AcDbLine
 10
1913.700000000001
 20
4079.999974519014
 30
0.0
 11
1913.700000000001
 21
4075.001183833501
 31
0.0
  0
LINE
  5
264
330
1F
100
AcDbEntity
  8
NoLayerName_001
  6
PHANTOM
 62
     7
370
    25
100
AcDbLine
 10
1892.5
 20
3997.799974519015
 30
0.0
 11
1913.700000000001
 21
4075.001183833501
 31
0.0
  0
LINE
  5
265
330
1F
100
AcDbEntity
  8
FRAME
  6
PHANTOM
 62
     1
370
    25
100
AcDbLine
 10
1007.5
 20
3997.799974519015
 30
0.0
 11
1450.0
 21
3997.799974519015
 31
0.0
  0
LINE
  5
266
330
1F
100
AcDbEntity
  8
NoLayerName_001
  6
PHANTOM
 62
     7
370
    25
100
AcDbLine
 10
1428.700000000001
 20
4079.999974519014
 30
0.0
 11
1428.700000000001
 21
3997.799974519015
 31
0.0
  0
LINE
  5
267
330
1F
100
AcDbEntity
  8
NoLayerName_001
  6
PHANTOM
 62
     7
370
    25
100
AcDbLine
 10
986.2999999999995
 20
4079.999974519014
 30
0.0
 11
986.2999999999995
 21
4075.001183833501
 31
0.0
  0
LINE
  5
268
330
1F
100
AcDbEntity
  8
NoLayerName_001
  6
PHANTOM
 62
     7
370
    25
100
AcDbLine
 10
1007.5
 20
3997.799974519015
 30
0.0
 11
986.2999999999995
 21
4075.001183833501
 31
0.0
  0
LINE
  5
269
330
1F
100
AcDbEntity
  8
NoLayerName_001
  6
Continuous
 62
     7
370
    25
100
AcDbLine
 10
1219.999976495005
 20
4118.999789122518
 30
0.0
 11
1229.999986711561
 21
4108.999778063024
 31
0.0
  0
LINE
  5
26A
330
1F
100
AcDbEntity
  8
NoLayerName_001
  6
Continuous
 62
     7
370
    25
100
AcDbLine
 10
1229.999998807909
 20
4108.999974668026
 30
0.0
 11
1229.999998807909
 21
4066.000097304581
 31
0.0
  0
LINE
  5
26B
330
1F
100
AcDbEntity
  8
NoLayerName_001
  6
Continuous
 62
     7
370
    25
100
AcDbLine
 10
1155.000007884575
 20
4118.999785460801
 30
0.0
 11
1144.999781876165
 21
4108.999558609436
 31
0.0
  0
LINE
  5
26C
330
1F
100
AcDbEntity
  8
NoLayerName_001
  6
Continuous
 62
     7
370
    25
100
AcDbLine
 10
1145.000001192095
 20
4108.999974668026
 30
0.0
 11
1145.000001192095
 21
4066.000097304581
 31
0.0
  0
LINE
  5
26D
330
1F
100
AcDbEntity
  8
NoLayerName_001
  6
Continuous
 62
     7
370
    25
100
AcDbLine
 10
1155.000001043083
 20
4118.999974519014
 30
0.0
 11
1219.999998956921
 21
4118.999974519014
 31
0.0
  0
LINE
  5
26E
330
1F
100
AcDbEntity
  8
NoLayerName_001
  6
Continuous
 62
     7
370
    25
100
AcDbLine
 10
1145.000001192095
 20
4066.000097304581
 30
0.0
 11
1229.999998807909
 21
4066.000097304581
 31
0.0
  0
LINE
  5
26F
330
1F
100
AcDbEntity
  8
NoLayerName_001
  6
Continuous
 62
     7
370
    25
100
AcDbLine
 10
1147.500000000002
 20
4061.000097304581
 30
0.0
 11
1227.500000000002
 21
4061.000097304581
 31
0.0
  0
LINE
  5
270
330
1F
100
AcDbEntity
  8
NoLayerName_001
  6
Continuous
 62
     7
370
    50
100
AcDbLine
 10
1145.000001192095
 20
4079.999974519014
 30
0.0
 11
832.5
 21
4079.999974519014
 31
0.0
  0
LINE
  5
271
330
1F
100
AcDbEntity
  8
NoLayerName_001
  6
Continuous
 62
     7
370
    50
100
AcDbLine
 10
1229.999998807909
 20
4079.999974519014
 30
0.0
 11
2067.5
 21
4079.999974519014
 31
0.0
  0
LINE
  5
272
330
1F
100
AcDbEntity
  8
NoLayerName_001
  6
Continuous
 62
     7
370
    25
100
AcDbLine
 10
1145.000001192095
 20
3357.099974519014
 30
0.0
 11
1145.000001192095
 21
3262.099950683118
 31
0.0
  0
LINE
  5
273
330
1F
100
AcDbEntity
  8
NoLayerName_001
  6
Continuous
 62
     7
370
    25
100
AcDbLine
 10
1147.500000000002
 20
3344.599950683118
 30
0.0
 11
1147.500000000002
 21
3264.599950683118
 31
0.0
  0
LINE
  5
274
330
1F
100
AcDbEntity
  8
NoLayerName_001
  6
Continuous
 62
     7
370
    25
100
AcDbLine
 10
1229.999998807909
 20
3357.099974519014
 30
0.0
 11
1229.999998807909
 21
3262.099950683118
 31
0.0
  0
LINE
  5
275
330
1F
100
AcDbEntity
  8
NoLayerName_001
  6
Continuous
 62
     7
370
    25
100
AcDbLine
 10
1227.500000000002
 20
3264.599950683118
 30
0.0
 11
1227.500000000002
 21
3344.599950683118
 31
0.0
  0
LINE
  5
276
330
1F
100
AcDbEntity
  8
NoLayerName_001
  6
Continuous
 62
     7
370
    25
100
AcDbLine
 10
1145.000001192095
 20
3357.099974519014
 30
0.0
 11
1229.999998807909
 21
3357.099974519014
 31
0.0
  0
LINE
  5
277
330
1F
100
AcDbEntity
  8
NoLayerName_001
  6
Continuous
 62
     7
370
    25
100
AcDbLine
 10
1145.000001192095
 20
3262.099950683118
 30
0.0
 11
1229.999998807909
 21
3262.099950683118
 31
0.0
  0
LINE
  5
278
330
1F
100
AcDbEntity
  8
NoLayerName_001
  6
Continuous
 62
     7
370
    25
100
AcDbLine
 10
1147.500000000002
 20
3264.599950683118
 30
0.0
 11
1227.500000000002
 21
3264.599950683118
 31
0.0
  0
LINE
  5
279
330
1F
100
AcDbEntity
  8
NoLayerName_001
  6
Continuous
 62
     7
370
    25
100
AcDbLine
 10
1227.500000000002
 20
3344.599950683118
 30
0.0
 11
1147.500000000002
 21
3344.599950683118
 31
0.0
  0
LINE
  5
27A
330
1F
100
AcDbEntity
  8
FRAME
  6
Continuous
 62
     3
370
    50
100
AcDbLine
 10
1229.999998807909
 20
3334.499974519015
 30
0.0
 11
2067.5
 21
3334.499974519015
 31
0.0
  0
LINE
  5
27B
330
1F
100
AcDbEntity
  8
NoLayerName_001
  6
Continuous
 62
     7
370
    50
100
AcDbLine
 10
1229.999998807909
 20
3306.999974519015
 30
0.0
 11
2067.5
 21
3306.999974519015
 31
0.0
  0
LINE
  5
27C
330
1F
100
AcDbEntity
  8
FRAME
  6
Continuous
 62
     3
370
    50
100
AcDbLine
 10
1145.000001192095
 20
3334.499974519015
 30
0.0
 11
832.5
 21
3334.499974519015
 31
0.0
  0
LINE
  5
27D
330
1F
100
AcDbEntity
  8
NoLayerName_001
  6
Continuous
 62
     7
370
    50
100
AcDbLine
 10
839.0
 20
3306.999974519015
 30
0.0
 11
1145.000001192095
 21
3306.999974519015
 31
0.0
  0
LINE
  5
27E
330
1F
100
AcDbEntity
  8
FRAME
  6
Continuous
 62
     1
370
    50
100
AcDbLine
 10
875.5
 20
3306.999974519015
 30
0.0
 11
875.5
 21
3249.499974519015
 31
0.0
  0
LINE
  5
27F
330
1F
100
AcDbEntity
  8
NoLayerName_001
  6
Continuous
 62
     7
370
    25
100
AcDbLine
 10
1056.500000000001
 20
3407.999974519015
 30
0.0
 11
978.5000000000009
 21
3407.999974519015
 31
0.0
  0
LINE
  5
280
330
1F
100
AcDbEntity
  8
NoLayerName_001
  6
Continuous
 62
     7
370
    25
100
AcDbLine
 10
1059.500000000001
 20
3404.999974519015
 30
0.0
 11
1059.500000000001
 21
3400.499974519015
 31
0.0
  0
LINE
  5
281
330
1F
100
AcDbEntity
  8
NoLayerName_001
  6
Continuous
 62
     7
370
    25
100
AcDbLine
 10
975.5000000000009
 20
3404.999974519015
 30
0.0
 11
975.5000000000009
 21
3400.499974519015
 31
0.0
  0
ARC
  5
282
330
1F
100
AcDbEntity
  8
NoLayerName_001
  6
Continuous
 62
     7
370
    25
100
AcDbCircle
 10
978.5000000000009
 20
3404.999974519015
 30
0.0
 40
3.0
100
AcDbArc
 50
90.0
 51
180.0
  0
ARC
  5
283
330
1F
100
AcDbEntity
  8
NoLayerName_001
  6
Continuous
 62
     7
370
    25
100
AcDbCircle
 10
1056.500000000001
 20
3404.999974519015
 30
0.0
 40
3.0
100
AcDbArc
 50
0.0
 51
90.0
  0
LINE
  5
284
330
1F
100
AcDbEntity
  8
NoLayerName_001
  6
Continuous
 62
     7
370
    25
100
AcDbLine
 10
1014.500000000001
 20
3471.499974519015
 30
0.0
 11
1008.571796769725
 21
3467.499974519015
 31
0.0
  0
LINE
  5
285
330
1F
100
AcDbEntity
  8
NoLayerName_001
  6
Continuous
 62
     7
370
    25
100
AcDbLine
 10
1020.500000000001
 20
3471.499974519015
 30
0.0
 11
1026.428203230276
 21
3467.499974519015
 31
0.0
  0
LINE
  5
286
330
1F
100
AcDbEntity
  8
NoLayerName_001
  6
Continuous
 62
     7
370
    25
100
AcDbLine
 10
1008.571796769726
 20
3467.499974519015
 30
0.0
 11
1026.428203230277
 21
3467.499974519015
 31
0.0
  0
LINE
  5
287
330
1F
100
AcDbEntity
  8
NoLayerName_001
  6
Continuous
 62
     7
370
    25
100
AcDbLine
 10
1020.500000000001
 20
3471.499974519015
 30
0.0
 11
1014.500000000001
 21
3471.499974519015
 31
0.0
  0
LINE
  5
288
330
1F
100
AcDbEntity
  8
NoLayerName_001
  6
Continuous
 62
     7
370
    25
100
AcDbLine
 10
991.5000000000009
 20
3399.499974519015
 30
0.0
 11
1043.500000000001
 21
3399.499974519015
 31
0.0
  0
LINE
  5
289
330
1F
100
AcDbEntity
  8
NoLayerName_001
  6
Continuous
 62
     7
370
    25
100
AcDbLine
 10
975.5000000000009
 20
3400.499974519015
 30
0.0
 11
1059.500000000001
 21
3400.499974519015
 31
0.0
  0
LINE
  5
28A
330
1F
100
AcDbEntity
  8
NoLayerName_001
  6
Continuous
 62
     7
370
    25
100
AcDbLine
 10
977.5000000000009
 20
3399.499974519015
 30
0.0
 11
977.5000000000009
 21
3334.499974519015
 31
0.0
  0
LINE
  5
28B
330
1F
100
AcDbEntity
  8
NoLayerName_001
  6
Continuous
 62
     7
370
    25
100
AcDbLine
 10
1057.500000000001
 20
3334.499974519015
 30
0.0
 11
1057.500000000001
 21
3399.499974519015
 31
0.0
  0
LINE
  5
28C
330
1F
100
AcDbEntity
  8
NoLayerName_001
  6
Continuous
 62
     7
370
    25
100
AcDbLine
 10
1057.500000000001
 20
3399.499974519015
 30
0.0
 11
977.5000000000009
 21
3399.499974519015
 31
0.0
  0
ARC
  5
28D
330
1F
100
AcDbEntity
  8
NoLayerName_001
  6
Continuous
 62
     7
370
    25
100
AcDbCircle
 10
995.5000000000009
 20
3463.899943124042
 30
0.0
 40
1.0
100
AcDbArc
 50
105.0
 51
180.0
  0
LINE
  5
28E
330
1F
100
AcDbEntity
  8
NoLayerName_001
  6
Continuous
 62
     7
370
    25
100
AcDbLine
 10
995.2411809548985
 20
3464.865868950331
 30
0.0
 11
1008.571796769726
 21
3467.499974519015
 31
0.0
  0
LINE
  5
28F
330
1F
100
AcDbEntity
  8
NoLayerName_001
  6
Continuous
 62
     7
370
    25
100
AcDbLine
 10
994.5000000000009
 20
3463.899943124042
 30
0.0
 11
994.5000000000009
 21
3407.999974519015
 31
0.0
  0
LINE
  5
290
330
1F
100
AcDbEntity
  8
NoLayerName_001
  6
Continuous
 62
     7
370
    25
100
AcDbLine
 10
1040.500000000001
 20
3463.899943124042
 30
0.0
 11
1040.500000000001
 21
3463.499974519015
 31
0.0
  0
ARC
  5
291
330
1F
100
AcDbEntity
  8
NoLayerName_001
  6
Continuous
 62
     7
370
    25
100
AcDbCircle
 10
1039.500000000001
 20
3463.899943124042
 30
0.0
 40
1.0
100
AcDbArc
 50
0.0
 51
75.0
  0
LINE
  5
292
330
1F
100
AcDbEntity
  8
NoLayerName_001
  6
Continuous
 62
     7
370
    25
100
AcDbLine
 10
1039.758819045103
 20
3464.865868950331
 30
0.0
 11
1026.428203230276
 21
3467.499974519015
 31
0.0
  0
LINE
  5
293
330
1F
100
AcDbEntity
  8
NoLayerName_001
  6
Continuous
 62
     7
370
    25
100
AcDbLine
 10
1040.500000000001
 20
3463.499974519015
 30
0.0
 11
994.5000000000009
 21
3463.499974519015
 31
0.0
  0
LINE
  5
294
330
1F
100
AcDbEntity
  8
NoLayerName_001
  6
Continuous
 62
     7
370
    25
100
AcDbLine
 10
1040.500000000001
 20
3407.999974519015
 30
0.0
 11
1040.500000000001
 21
3463.499974519015
 31
0.0
  0
LINE
  5
295
330
1F
100
AcDbEntity
  8
FRAME
  6
Continuous
 62
     1
370
    25
100
AcDbLine
 10
982.5
 20
3407.999974519015
 30
0.0
 11
982.5
 21
3434.499974519015
 31
0.0
  0
LINE
  5
296
330
1F
100
AcDbEntity
  8
FRAME
  6
Continuous
 62
     1
370
    25
100
AcDbLine
 10
3032.5
 20
3334.499974519015
 30
0.0
 11
3032.5
 21
3338.499974519015
 31
0.0
  0
LINE
  5
297
330
1F
100
AcDbEntity
  8
FRAME
  6
Continuous
 62
     1
370
    25
100
AcDbLine
 10
2847.5
 20
3334.499974519015
 30
0.0
 11
2847.5
 21
3338.499974519015
 31
0.0
  0
LINE
  5
298
330
1F
100
AcDbEntity
  8
FRAME
  6
Continuous
 62
     1
370
    25
100
AcDbLine
 10
2847.5
 20
3338.499974519015
 30
0.0
 11
3032.5
 21
3338.499974519015
 31
0.0
  0
DIMENSION
  5
299
102
{ACAD_XDICTIONARY
360
29A
102
}
330
1F
100
AcDbEntity
  8
NoLayerName_001
  6
Continuous
 62
     7
370
    25
100
AcDbDimension
  2
*D4
 10
3450.0
 20
1989.999974519015
 30
0.0
 11
3100.0
 21
1989.999974519015
 31
0.0
 70
   160
  1
\W0.8000;<>
 71
     5
 42
700.0
  3
Standard
100
AcDbAlignedDimension
 13
2750.0
 23
2109.999974519015
 33
0.0
 14
3450.0
 24
2109.999974519015
 34
0.0
100
AcDbRotatedDimension
1001
ACAD
1000
DSTYLE
1002
{
1070
   347
1005
16
1070
   372
1070
    25
1070
   346
1005
16
1070
   371
1070
    25
1070
   345
1005
16
1070
   178
1070
     0
1070
   177
1070
     0
1070
   176
1070
     0
1070
    47
1040
0.0
1070
    48
1040
0.0
1070
    78
1070
     8
1070
   271
1070
     1
1070
    41
1040
30.0
1070
   342
1005
29B
1070
    42
1040
10.0
1070
    44
1040
20.0
1070
   147
1040
20.0
1070
   140
1040
64.0
1002
}
1001
ACAD_DSTYLE_DIM_LINETYPE
1070
   380
1005
16
1001
ACAD_DSTYLE_DIM_EXT1_LINETYPE
1070
   381
1005
16
1001
ACAD_DSTYLE_DIM_EXT2_LINETYPE
1070
   382
1005
16
  0
DIMENSION
  5
2AD
102
{ACAD_XDICTIONARY
360
2AE
102
}
330
1F
100
AcDbEntity
  8
NoLayerName_001
  6
Continuous
 62
     7
370
    25
100
AcDbDimension
  2
*D5
 10
2700.0
 20
1889.999974519015
 30
0.0
 11
3100.0
 21
1889.999974519015
 31
0.0
 70
   160
  1
\W0.8000;<>
 71
     5
 42
800.0
  3
Standard
100
AcDbAlignedDimension
 13
3500.0
 23
2129.999974519015
 33
0.0
 14
2700.0
 24
2129.999974519015
 34
0.0
 50
180.0
100
AcDbRotatedDimension
1001
ACAD
1000
DSTYLE
1002
{
1070
   347
1005
16
1070
   372
1070
    25
1070
   346
1005
16
1070
   371
1070
    25
1070
   345
1005
16
1070
   178
1070
     0
1070
   177
1070
     0
1070
   176
1070
     0
1070
    47
1040
0.0
1070
    48
1040
0.0
1070
    78
1070
     8
1070
   271
1070
     1
1070
    41
1040
30.0
1070
   342
1005
29B
1070
    42
1040
10.0
1070
    44
1040
20.0
1070
   147
1040
20.0
1070
   140
1040
64.0
1002
}
1001
ACAD_DSTYLE_DIM_LINETYPE
1070
   380
1005
16
1001
ACAD_DSTYLE_DIM_EXT1_LINETYPE
1070
   381
1005
16
1001
ACAD_DSTYLE_DIM_EXT2_LINETYPE
1070
   382
1005
16
  0
DIMENSION
  5
2BB
102
{ACAD_XDICTIONARY
360
2BC
102
}
330
1F
100
AcDbEntity
  8
NoLayerName_001
  6
Continuous
 62
     7
370
    25
100
AcDbDimension
  2
*D6
 10
3674.2
 20
2129.999974519015
 30
0.0
 11
3674.2
 21
2811.74997312025
 31
0.0
 70
   160
  1
\W0.8000;１３６４
 71
     5
 42
1363.5
  3
Standard
100
AcDbAlignedDimension
 13
3306.0
 23
3493.499974519015
 33
0.0
 14
3500.0
 24
2129.999974519015
 34
0.0
 50
-90.0
100
AcDbRotatedDimension
1001
ACAD
1000
DSTYLE
1002
{
1070
   347
1005
16
1070
   372
1070
    25
1070
   346
1005
16
1070
   371
1070
    25
1070
   345
1005
16
1070
   178
1070
     0
1070
   177
1070
     0
1070
   176
1070
     0
1070
    47
1040
0.0
1070
    48
1040
0.0
1070
    78
1070
     8
1070
   271
1070
     1
1070
    41
1040
30.0
1070
   342
1005
29B
1070
    42
1040
10.0
1070
    44
1040
20.0
1070
   147
1040
20.0
1070
   140
1040
64.0
1002
}
1001
ACAD_DSTYLE_DIM_LINETYPE
1070
   380
1005
16
1001
ACAD_DSTYLE_DIM_EXT1_LINETYPE
1070
   381
1005
16
1001
ACAD_DSTYLE_DIM_EXT2_LINETYPE
1070
   382
1005
16
  0
DIMENSION
  5
2C9
102
{ACAD_XDICTIONARY
360
2CA
102
}
330
1F
100
AcDbEntity
  8
NoLayerName_001
  6
Continuous
 62
     7
370
    25
100
AcDbDimension
  2
*D7
 10
3574.2
 20
3334.499974519015
 30
0.0
 11
3574.2
 21
3413.99997312025
 31
0.0
 70
   160
  1
\W0.8000;\T0.7500;<>
 71
     5
 42
159.0
  3
Standard
100
AcDbAlignedDimension
 13
3306.0
 23
3493.499974519015
 33
0.0
 14
3427.5
 24
3334.499974519015
 34
0.0
 50
-90.0
100
AcDbRotatedDimension
1001
ACAD
1000
DSTYLE
1002
{
1070
   347
1005
16
1070
   372
1070
    25
1070
   346
1005
16
1070
   371
1070
    25
1070
   345
1005
16
1070
   178
1070
     0
1070
   177
1070
     0
1070
   176
1070
     0
1070
    47
1040
0.0
1070
    48
1040
0.0
1070
    78
1070
     8
1070
   271
1070
     1
1070
    41
1040
30.0
1070
   342
1005
29B
1070
    42
1040
10.0
1070
    44
1040
20.0
1070
   147
1040
20.0
1070
   140
1040
64.0
1002
}
1001
ACAD_DSTYLE_DIM_LINETYPE
1070
   380
1005
16
1001
ACAD_DSTYLE_DIM_EXT1_LINETYPE
1070
   381
1005
16
1001
ACAD_DSTYLE_DIM_EXT2_LINETYPE
1070
   382
1005
16
  0
DIMENSION
  5
2D7
102
{ACAD_XDICTIONARY
360
2D8
102
}
330
1F
100
AcDbEntity
  8
NoLayerName_001
  6
Continuous
 62
     7
370
    25
100
AcDbDimension
  2
*D8
 10
3295.0
 20
3601.499974519016
 30
0.0
 11
3197.5
 21
3601.499974519016
 31
0.0
 70
   160
  1
\W0.8000;\T0.7500;<>
 71
     5
 42
195.0
  3
Standard
100
AcDbAlignedDimension
 13
3100.0
 23
3511.499974519016
 33
0.0
 14
3295.0
 24
3511.499974519016
 34
0.0
100
AcDbRotatedDimension
1001
ACAD
1000
DSTYLE
1002
{
1070
   347
1005
16
1070
   372
1070
    25
1070
   346
1005
16
1070
   371
1070
    25
1070
   345
1005
16
1070
   178
1070
     0
1070
   177
1070
     0
1070
   176
1070
     0
1070
    47
1040
0.0
1070
    48
1040
0.0
1070
    78
1070
     8
1070
   271
1070
     1
1070
    41
1040
30.0
1070
   342
1005
29B
1070
    42
1040
10.0
1070
    44
1040
20.0
1070
   147
1040
20.0
1070
   140
1040
64.0
1002
}
1001
ACAD_DSTYLE_DIM_LINETYPE
1070
   380
1005
16
1001
ACAD_DSTYLE_DIM_EXT1_LINETYPE
1070
   381
1005
16
1001
ACAD_DSTYLE_DIM_EXT2_LINETYPE
1070
   382
1005
16
  0
DIMENSION
  5
2E5
102
{ACAD_XDICTIONARY
360
2E6
102
}
330
1F
100
AcDbEntity
  8
NoLayerName_001
  6
Continuous
 62
     7
370
    25
100
AcDbDimension
  2
*D9
 10
3100.0
 20
3601.499974519016
 30
0.0
 11
3020.0
 21
3601.499974519016
 31
0.0
 70
   160
  1
\W0.8000;\T0.7500;<>
 71
     5
 42
160.0
  3
Standard
100
AcDbAlignedDimension
 13
2940.0
 23
3512.499974519016
 33
0.0
 14
3100.0
 24
3511.499974519016
 34
0.0
100
AcDbRotatedDimension
1001
ACAD
1000
DSTYLE
1002
{
1070
   347
1005
16
1070
   372
1070
    25
1070
   346
1005
16
1070
   371
1070
    25
1070
   345
1005
16
1070
   178
1070
     0
1070
   177
1070
     0
1070
   176
1070
     0
1070
    47
1040
0.0
1070
    48
1040
0.0
1070
    78
1070
     8
1070
   271
1070
     1
1070
    41
1040
30.0
1070
   342
1005
29B
1070
    42
1040
10.0
1070
    44
1040
20.0
1070
   147
1040
20.0
1070
   140
1040
64.0
1002
}
1001
ACAD_DSTYLE_DIM_LINETYPE
1070
   380
1005
16
1001
ACAD_DSTYLE_DIM_EXT1_LINETYPE
1070
   381
1005
16
1001
ACAD_DSTYLE_DIM_EXT2_LINETYPE
1070
   382
1005
16
  0
DIMENSION
  5
2F3
102
{ACAD_XDICTIONARY
360
2F4
102
}
330
1F
100
AcDbEntity
  8
NoLayerName_001
  6
Continuous
 62
     7
370
    25
100
AcDbDimension
  2
*D10
 10
2625.8
 20
3334.499974519015
 30
0.0
 11
2625.8
 21
3412.999973120251
 31
0.0
 70
   160
  1
\W0.8000;\T0.7500;<>
 71
     5
 42
157.0000000000009
  3
Standard
100
AcDbAlignedDimension
 13
2880.0
 23
3491.499974519016
 33
0.0
 14
2775.0
 24
3334.499974519015
 34
0.0
 50
-90.0
100
AcDbRotatedDimension
1001
ACAD
1000
DSTYLE
1002
{
1070
   347
1005
16
1070
   372
1070
    25
1070
   346
1005
16
1070
   371
1070
    25
1070
   345
1005
16
1070
   178
1070
     0
1070
   177
1070
     0
1070
   176
1070
     0
1070
    47
1040
0.0
1070
    48
1040
0.0
1070
    78
1070
     8
1070
   271
1070
     1
1070
    41
1040
30.0
1070
   342
1005
29B
1070
    42
1040
10.0
1070
    44
1040
20.0
1070
   147
1040
20.0
1070
   140
1040
64.0
1002
}
1001
ACAD_DSTYLE_DIM_LINETYPE
1070
   380
1005
16
1001
ACAD_DSTYLE_DIM_EXT1_LINETYPE
1070
   381
1005
16
1001
ACAD_DSTYLE_DIM_EXT2_LINETYPE
1070
   382
1005
16
  0
MTEXT
  5
301
102
{ACAD_REACTORS
330
302
102
}
330
1F
100
AcDbEntity
  8
NoLayerName_001
  6
Continuous
 62
     7
370
    25
100
AcDbMText
 10
3595.048924046167
 20
2029.432683812194
 30
0.0
 40
64.0
 41
0.0
 71
     7
 72
     5
  1
\A1;\W0.6667;\T0.7500;４－φ１９
 73
     1
 44
0.7875
1001
ACAD
1000
ACAD_MTEXT_DEFINED_HEIGHT_BEGIN
1070
    46
1040
64.0
1000
ACAD_MTEXT_DEFINED_HEIGHT_END
  0
LEADER
  5
302
330
1F
100
AcDbEntity
  8
NoLayerName_001
  6
Continuous
 62
     7
370
    25
100
AcDbLeader
  3
Standard
 73
     0
 74
     0
 75
     1
 40
64.0
 41
134.1019428571429
 76
     3
 10
3450.0
 20
2129.999974519015
 30
0.0
 10
3564.423924046167
 20
2028.807683812194
 30
0.0
 10
3594.423924046167
 20
2028.807683812194
 30
0.0
340
301
1001
ACAD
1000
DSTYLE
1002
{
1070
   140
1040
64.0
1070
    41
1040
30.0
1070
   341
1005
29B
1002
}
  0
DIMENSION
  5
303
102
{ACAD_XDICTIONARY
360
304
102
}
330
1F
100
AcDbEntity
  8
NoLayerName_001
  6
Continuous
 62
     7
370
    25
100
AcDbDimension
  2
*D11
 10
1450.0
 20
3875.799974519015
 30
0.0
 11
1525.0
 21
3875.799974519015
 31
0.0
 70
   160
  1
\W0.8000;\T0.7500;<>
 71
     5
 42
150.0
  3
Standard
100
AcDbAlignedDimension
 13
1600.0
 23
4154.999974519014
 33
0.0
 14
1450.0
 24
3975.799974519014
 34
0.0
 50
180.0
100
AcDbRotatedDimension
1001
ACAD
1000
DSTYLE
1002
{
1070
   347
1005
16
1070
   372
1070
    25
1070
   346
1005
16
1070
   371
1070
    25
1070
   345
1005
16
1070
   178
1070
     0
1070
   177
1070
     0
1070
   176
1070
     0
1070
    47
1040
0.0
1070
    48
1040
0.0
1070
    78
1070
     8
1070
   271
1070
     1
1070
    41
1040
30.0
1070
   342
1005
29B
1070
    42
1040
10.0
1070
    44
1040
20.0
1070
   147
1040
20.0
1070
   140
1040
64.0
1002
}
1001
ACAD_DSTYLE_DIM_LINETYPE
1070
   380
1005
16
1001
ACAD_DSTYLE_DIM_EXT1_LINETYPE
1070
   381
1005
16
1001
ACAD_DSTYLE_DIM_EXT2_LINETYPE
1070
   382
1005
16
  0
DIMENSION
  5
311
102
{ACAD_XDICTIONARY
360
312
102
}
330
1F
100
AcDbEntity
  8
NoLayerName_001
  6
Continuous
 62
     7
370
    25
100
AcDbDimension
  2
*D12
 10
1300.0
 20
3875.799974519015
 30
0.0
 11
1375.0
 21
3875.799974519015
 31
0.0
 70
   160
  1
\W0.8000;\T0.7500;<>
 71
     5
 42
150.0
  3
Standard
100
AcDbAlignedDimension
 13
1450.0
 23
3975.799974519014
 33
0.0
 14
1300.0
 24
4154.999974519014
 34
0.0
 50
180.0
100
AcDbRotatedDimension
1001
ACAD
1000
DSTYLE
1002
{
1070
   347
1005
16
1070
   372
1070
    25
1070
   346
1005
16
1070
   371
1070
    25
1070
   345
1005
16
1070
   178
1070
     0
1070
   177
1070
     0
1070
   176
1070
     0
1070
    47
1040
0.0
1070
    48
1040
0.0
1070
    78
1070
     8
1070
   271
1070
     1
1070
    41
1040
30.0
1070
   342
1005
29B
1070
    42
1040
10.0
1070
    44
1040
20.0
1070
   147
1040
20.0
1070
   140
1040
64.0
1002
}
1001
ACAD_DSTYLE_DIM_LINETYPE
1070
   380
1005
16
1001
ACAD_DSTYLE_DIM_EXT1_LINETYPE
1070
   381
1005
16
1001
ACAD_DSTYLE_DIM_EXT2_LINETYPE
1070
   382
1005
16
  0
DIMENSION
  5
31F
102
{ACAD_XDICTIONARY
360
320
102
}
330
1F
100
AcDbEntity
  8
NoLayerName_001
  6
Continuous
 62
     7
370
    25
100
AcDbDimension
  2
*D13
 10
1450.0
 20
4884.199974519014
 30
0.0
 11
1540.0
 21
4884.199974519014
 31
0.0
 70
   160
  1
\W0.8000;\T0.7500;<>
 71
     5
 42
180.0
  3
Standard
100
AcDbAlignedDimension
 13
1630.0
 23
4688.749974519014
 33
0.0
 14
1450.0
 24
4849.723475250239
 34
0.0
 50
180.0
100
AcDbRotatedDimension
1001
ACAD
1000
DSTYLE
1002
{
1070
   347
1005
16
1070
   372
1070
    25
1070
   346
1005
16
1070
   371
1070
    25
1070
   345
1005
16
1070
   178
1070
     0
1070
   177
1070
     0
1070
   176
1070
     0
1070
    47
1040
0.0
1070
    48
1040
0.0
1070
    78
1070
     8
1070
   271
1070
     1
1070
    41
1040
30.0
1070
   342
1005
29B
1070
    42
1040
10.0
1070
    44
1040
20.0
1070
   147
1040
20.0
1070
   140
1040
64.0
1002
}
1001
ACAD_DSTYLE_DIM_LINETYPE
1070
   380
1005
16
1001
ACAD_DSTYLE_DIM_EXT1_LINETYPE
1070
   381
1005
16
1001
ACAD_DSTYLE_DIM_EXT2_LINETYPE
1070
   382
1005
16
  0
DIMENSION
  5
32D
102
{ACAD_XDICTIONARY
360
32E
102
}
330
1F
100
AcDbEntity
  8
NoLayerName_001
  6
Continuous
 62
     7
370
    25
100
AcDbDimension
  2
*D14
 10
1450.0
 20
4884.199974519014
 30
0.0
 11
1360.0
 21
4884.199974519014
 31
0.0
 70
   160
  1
\W0.8000;\T0.7500;<>
 71
     5
 42
180.0
  3
Standard
100
AcDbAlignedDimension
 13
1270.0
 23
4688.749974519014
 33
0.0
 14
1450.0
 24
4849.723475250239
 34
0.0
100
AcDbRotatedDimension
1001
ACAD
1000
DSTYLE
1002
{
1070
   347
1005
16
1070
   372
1070
    25
1070
   346
1005
16
1070
   371
1070
    25
1070
   345
1005
16
1070
   178
1070
     0
1070
   177
1070
     0
1070
   176
1070
     0
1070
    47
1040
0.0
1070
    48
1040
0.0
1070
    78
1070
     8
1070
   271
1070
     1
1070
    41
1040
30.0
1070
   342
1005
29B
1070
    42
1040
10.0
1070
    44
1040
20.0
1070
   147
1040
20.0
1070
   140
1040
64.0
1002
}
1001
ACAD_DSTYLE_DIM_LINETYPE
1070
   380
1005
16
1001
ACAD_DSTYLE_DIM_EXT1_LINETYPE
1070
   381
1005
16
1001
ACAD_DSTYLE_DIM_EXT2_LINETYPE
1070
   382
1005
16
  0
MTEXT
  5
33B
330
1F
100
AcDbEntity
  8
NoLayerName_001
 62
     7
370
    25
100
AcDbMText
 10
1269.999996870756
 20
4569.999974519014
 30
0.0
 40
64.0
 41
0.0
 71
     8
 72
     5
  1
\A1;\W0.6510;Ｕ
 73
     1
 44
1.0
1001
ACAD
1000
ACAD_MTEXT_DEFINED_HEIGHT_BEGIN
1070
    46
1040
64.0
1000
ACAD_MTEXT_DEFINED_HEIGHT_END
  0
MTEXT
  5
33C
330
1F
100
AcDbEntity
  8
NoLayerName_001
 62
     7
370
    25
100
AcDbMText
 10
1450.0
 20
4569.999974519014
 30
0.0
 40
64.0
 41
0.0
 71
     8
 72
     5
  1
\A1;\W0.6510;Ｖ
 73
     1
 44
1.0
1001
ACAD
1000
ACAD_MTEXT_DEFINED_HEIGHT_BEGIN
1070
    46
1040
64.0
1000
ACAD_MTEXT_DEFINED_HEIGHT_END
  0
MTEXT
  5
33D
330
1F
100
AcDbEntity
  8
NoLayerName_001
 62
     7
370
    25
100
AcDbMText
 10
1630.0
 20
4569.999974519014
 30
0.0
 40
64.0
 41
0.0
 71
     8
 72
     5
  1
\A1;\W0.6510;Ｗ
 73
     1
 44
1.0
1001
ACAD
1000
ACAD_MTEXT_DEFINED_HEIGHT_BEGIN
1070
    46
1040
64.0
1000
ACAD_MTEXT_DEFINED_HEIGHT_END
  0
DIMENSION
  5
33E
102
{ACAD_XDICTIONARY
360
33F
102
}
330
1F
100
AcDbEntity
  8
NoLayerName_001
  6
Continuous
 62
     7
370
    25
100
AcDbDimension
  2
*D15
 10
1015.002
 20
1889.999974519015
 30
0.0
 11
1450.001
 21
1889.999974519015
 31
0.0
 70
   160
  1
\W0.8000;<>
 71
     5
 42
869.998
  3
Standard
100
AcDbAlignedDimension
 13
1885.0
 23
2129.999974519015
 33
0.0
 14
1015.002
 24
2129.999974519015
 34
0.0
 50
180.0
100
AcDbRotatedDimension
1001
ACAD
1000
DSTYLE
1002
{
1070
   347
1005
16
1070
   372
1070
    25
1070
   346
1005
16
1070
   371
1070
    25
1070
   345
1005
16
1070
   178
1070
     0
1070
   177
1070
     0
1070
   176
1070
     0
1070
    47
1040
0.0
1070
    48
1040
0.0
1070
    78
1070
     8
1070
   271
1070
     1
1070
    41
1040
30.0
1070
   342
1005
29B
1070
    42
1040
10.0
1070
    44
1040
20.0
1070
   147
1040
20.0
1070
   140
1040
64.0
1002
}
1001
ACAD_DSTYLE_DIM_LINETYPE
1070
   380
1005
16
1001
ACAD_DSTYLE_DIM_EXT1_LINETYPE
1070
   381
1005
16
1001
ACAD_DSTYLE_DIM_EXT2_LINETYPE
1070
   382
1005
16
  0
DIMENSION
  5
34C
102
{ACAD_XDICTIONARY
360
34D
102
}
330
1F
100
AcDbEntity
  8
NoLayerName_001
  6
Continuous
 62
     7
370
    25
100
AcDbDimension
  2
*D16
 10
1050.002
 20
1989.999974519015
 30
0.0
 11
1450.001
 21
1989.999974519015
 31
0.0
 70
   160
  1
\W0.8000;<>
 71
     5
 42
799.998
  3
Standard
100
AcDbAlignedDimension
 13
1850.0
 23
2109.999974519015
 33
0.0
 14
1050.002
 24
2109.999974519015
 34
0.0
 50
180.0
100
AcDbRotatedDimension
1001
ACAD
1000
DSTYLE
1002
{
1070
   347
1005
16
1070
   372
1070
    25
1070
   346
1005
16
1070
   371
1070
    25
1070
   345
1005
16
1070
   178
1070
     0
1070
   177
1070
     0
1070
   176
1070
     0
1070
    47
1040
0.0
1070
    48
1040
0.0
1070
    78
1070
     8
1070
   271
1070
     1
1070
    41
1040
30.0
1070
   342
1005
29B
1070
    42
1040
10.0
1070
    44
1040
20.0
1070
   147
1040
20.0
1070
   140
1040
64.0
1002
}
1001
ACAD_DSTYLE_DIM_LINETYPE
1070
   380
1005
16
1001
ACAD_DSTYLE_DIM_EXT1_LINETYPE
1070
   381
1005
16
1001
ACAD_DSTYLE_DIM_EXT2_LINETYPE
1070
   382
1005
16
  0
DIMENSION
  5
35A
102
{ACAD_XDICTIONARY
360
35B
102
}
330
1F
100
AcDbEntity
  8
NoLayerName_001
  6
Continuous
 62
     7
370
    25
100
AcDbDimension
  2
*D17
 10
2085.660038985764
 20
5013.064732841508
 30
0.0
 11
1450.0
 21
5013.064732841508
 31
0.0
 70
   160
  1
\W0.8000;１２７５
 71
     5
 42
1271.320077971529
  3
Standard
100
AcDbAlignedDimension
 13
814.3399610142355
 23
4605.702297875228
 33
0.0
 14
2085.660038985764
 24
4605.702297875228
 34
0.0
100
AcDbRotatedDimension
1001
ACAD
1000
DSTYLE
1002
{
1070
   347
1005
16
1070
   372
1070
    25
1070
   346
1005
16
1070
   371
1070
    25
1070
   345
1005
16
1070
   178
1070
     0
1070
   177
1070
     0
1070
   176
1070
     0
1070
    47
1040
0.0
1070
    48
1040
0.0
1070
    78
1070
     8
1070
   271
1070
     1
1070
    41
1040
30.0
1070
   342
1005
29B
1070
    42
1040
10.0
1070
    44
1040
20.0
1070
   147
1040
20.0
1070
   140
1040
64.0
1002
}
1001
ACAD_DSTYLE_DIM_LINETYPE
1070
   380
1005
16
1001
ACAD_DSTYLE_DIM_EXT1_LINETYPE
1070
   381
1005
16
1001
ACAD_DSTYLE_DIM_EXT2_LINETYPE
1070
   382
1005
16
  0
DIMENSION
  5
368
102
{ACAD_XDICTIONARY
360
369
102
}
330
1F
100
AcDbEntity
  8
NoLayerName_001
  6
Continuous
 62
     7
370
    25
100
AcDbDimension
  2
*D18
 10
687.1948604293277
 20
4822.199974519014
 30
0.0
 11
687.1948604293277
 21
4409.99997312025
 31
0.0
 70
   160
  1
\W0.8000;８３０
 71
     5
 42
824.3999999999996
  3
Standard
100
AcDbAlignedDimension
 13
1007.5
 23
3997.799974519015
 33
0.0
 14
1007.5
 24
4822.199974519014
 34
0.0
 50
90.0
100
AcDbRotatedDimension
1001
ACAD
1000
DSTYLE
1002
{
1070
   347
1005
16
1070
   372
1070
    25
1070
   346
1005
16
1070
   371
1070
    25
1070
   345
1005
16
1070
   178
1070
     0
1070
   177
1070
     0
1070
   176
1070
     0
1070
    47
1040
0.0
1070
    48
1040
0.0
1070
    78
1070
     8
1070
   271
1070
     1
1070
    41
1040
30.0
1070
   342
1005
29B
1070
    42
1040
10.0
1070
    44
1040
20.0
1070
   147
1040
20.0
1070
   140
1040
64.0
1002
}
1001
ACAD_DSTYLE_DIM_LINETYPE
1070
   380
1005
16
1001
ACAD_DSTYLE_DIM_EXT1_LINETYPE
1070
   381
1005
16
1001
ACAD_DSTYLE_DIM_EXT2_LINETYPE
1070
   382
1005
16
  0
LINE
  5
376
330
1F
100
AcDbEntity
  8
FRAME
  6
PHANTOM
 62
     1
370
    25
100
AcDbLine
 10
2688.0
 20
3249.499974519015
 30
0.0
 11
2687.8
 21
3249.499974519015
 31
0.0
  0
LINE
  5
377
330
1F
100
AcDbEntity
  8
FRAME
  6
PHANTOM
 62
     1
370
    25
100
AcDbLine
 10
3512.2
 20
3249.499974519015
 30
0.0
 11
3511.999999999999
 21
3249.499974519015
 31
0.0
  0
LINE
  5
378
330
1F
100
AcDbEntity
  8
FRAME
  6
PHANTOM
 62
     1
370
    25
100
AcDbLine
 10
3406.999999999999
 20
3249.499974519015
 30
0.0
 11
2793.0
 21
3249.499974519015
 31
0.0
  0
LINE
  5
379
330
1F
100
AcDbEntity
  8
FRAME
  6
PHANTOM
 62
     1
370
    25
100
AcDbLine
 10
3511.999999999999
 20
2299.499974519015
 30
0.0
 11
3512.2
 21
2299.499974519015
 31
0.0
  0
LINE
  5
37A
330
1F
100
AcDbEntity
  8
FRAME
  6
Continuous
 62
     7
370
    25
100
AcDbLine
 10
2688.0
 20
3302.999974519015
 30
0.0
 11
2688.0
 21
2213.999974519016
 31
0.0
  0
LINE
  5
37B
330
1F
100
AcDbEntity
  8
FRAME
  6
Continuous
 62
     7
370
    25
100
AcDbLine
 10
2793.0
 20
3262.999974519015
 30
0.0
 11
2793.0
 21
2278.999974519015
 31
0.0
  0
LINE
  5
37C
330
1F
100
AcDbEntity
  8
FRAME
  6
PHANTOM
 62
     1
370
    25
100
AcDbLine
 10
2687.8
 20
2299.499974519015
 30
0.0
 11
2688.0
 21
2299.499974519015
 31
0.0
  0
LINE
  5
37D
330
1F
100
AcDbEntity
  8
FRAME
  6
PHANTOM
 62
     1
370
    25
100
AcDbLine
 10
2793.0
 20
2299.499974519015
 30
0.0
 11
3406.999999999999
 21
2299.499974519015
 31
0.0
  0
LINE
  5
37E
330
1F
100
AcDbEntity
  8
FRAME
  6
Continuous
 62
     7
370
    25
100
AcDbLine
 10
3512.0
 20
3302.999974519015
 30
0.0
 11
3512.0
 21
2213.999974519016
 31
0.0
  0
LINE
  5
37F
330
1F
100
AcDbEntity
  8
FRAME
  6
Continuous
 62
     7
370
    25
100
AcDbLine
 10
3407.0
 20
3262.999974519015
 30
0.0
 11
3407.0
 21
2278.999974519015
 31
0.0
  0
INSERT
  5
380
330
1F
100
AcDbEntity
  8
NoLayerName_001
100
AcDbBlockReference
  2
JZB_0001
 10
3252.5
 20
3334.5
 30
0.0
  0
INSERT
  5
381
330
1F
100
AcDbEntity
  8
NoLayerName_001
100
AcDbBlockReference
  2
JZB_0002
 10
1802.5
 20
3340.5
 30
0.0
  0
POINT
  5
382
330
1F
100
AcDbEntity
  8
NoLayerName_001
  6
Continuous
 62
     7
 60
     1
370
    50
100
AcDbPoint
 10
0.0
 20
0.0
 30
0.0
  0
ENDSEC
  0
SECTION
  2
OBJECTS
  0
DICTIONARY
  5
C
330
0
100
AcDbDictionary
281
     1
  3
ACAD_GROUP
350
D
  3
ACAD_LAYOUT
350
1A
  3
ACAD_MATERIAL
350
43
  3
ACAD_MLEADERSTYLE
350
385
  3
ACAD_MLINESTYLE
350
17
  3
ACAD_PLOTSETTINGS
350
19
  3
ACAD_PLOTSTYLENAME
350
E
  3
ACAD_SCALELIST
350
47
  3
ACAD_VISUALSTYLE
350
2A
  3
AcDbVariableDictionary
350
383
  3
DWGPROPS
350
38C
  0
DICTIONARY
  5
29A
330
299
100
AcDbDictionary
280
     1
281
     1
  0
DICTIONARY
  5
2AE
330
2AD
100
AcDbDictionary
280
     1
281
     1
  0
DICTIONARY
  5
2BC
330
2BB
100
AcDbDictionary
280
     1
281
     1
  0
DICTIONARY
  5
2CA
330
2C9
100
AcDbDictionary
280
     1
281
     1
  0
DICTIONARY
  5
2D8
330
2D7
100
AcDbDictionary
280
     1
281
     1
  0
DICTIONARY
  5
2E6
330
2E5
100
AcDbDictionary
280
     1
281
     1
  0
DICTIONARY
  5
2F4
330
2F3
100
AcDbDictionary
280
     1
281
     1
  0
DICTIONARY
  5
304
330
303
100
AcDbDictionary
280
     1
281
     1
  0
DICTIONARY
  5
312
330
311
100
AcDbDictionary
280
     1
281
     1
  0
DICTIONARY
  5
320
330
31F
100
AcDbDictionary
280
     1
281
     1
  0
DICTIONARY
  5
32E
330
32D
100
AcDbDictionary
280
     1
281
     1
  0
DICTIONARY
  5
33F
330
33E
100
AcDbDictionary
280
     1
281
     1
  0
DICTIONARY
  5
34D
330
34C
100
AcDbDictionary
280
     1
281
     1
  0
DICTIONARY
  5
35B
330
35A
100
AcDbDictionary
280
     1
281
     1
  0
DICTIONARY
  5
369
330
368
100
AcDbDictionary
280
     1
281
     1
  0
DICTIONARY
  5
D
102
{ACAD_REACTORS
330
C
102
}
330
C
100
AcDbDictionary
281
     1
  0
DICTIONARY
  5
1A
102
{ACAD_REACTORS
330
C
102
}
330
C
100
AcDbDictionary
281
     1
  3
Layout1
350
1E
  3
Model
350
22
  0
DICTIONARY
  5
43
102
{ACAD_REACTORS
330
C
102
}
330
C
100
AcDbDictionary
281
     1
  3
ByBlock
350
45
  3
ByLayer
350
44
  3
Global
350
46
  0
DICTIONARY
  5
385
102
{ACAD_REACTORS
330
C
102
}
330
C
100
AcDbDictionary
281
     1
  0
DICTIONARY
  5
17
102
{ACAD_REACTORS
330
C
102
}
330
C
100
AcDbDictionary
281
     1
  3
Standard
350
18
  0
DICTIONARY
  5
19
102
{ACAD_REACTORS
330
C
102
}
330
C
100
AcDbDictionary
281
     1
  0
ACDBDICTIONARYWDFLT
  5
E
102
{ACAD_REACTORS
330
C
102
}
330
C
100
AcDbDictionary
281
     1
  3
Normal
350
F
100
AcDbDictionaryWithDefault
340
F
  0
DICTIONARY
  5
47
102
{ACAD_REACTORS
330
C
102
}
330
C
100
AcDbDictionary
281
     1
  3
A0
350
48
  3
A1
350
49
  3
A2
350
4A
  3
A3
350
4B
  3
A4
350
4C
  3
A5
350
4D
  3
A6
350
4E
  3
A7
350
4F
  3
A8
350
50
  3
A9
350
51
  3
B0
350
52
  3
B1
350
53
  3
B2
350
54
  3
B3
350
55
  3
B4
350
56
  3
B5
350
57
  3
B6
350
58
  3
B7
350
59
  3
B8
350
5A
  3
B9
350
5B
  3
C0
350
5C
  3
C1
350
5D
  3
C2
350
5E
  3
C3
350
5F
  3
C4
350
60
  3
C5
350
61
  3
C6
350
62
  3
C7
350
63
  3
C8
350
64
  3
C9
350
65
  3
D0
350
66
  3
D1
350
67
  3
D2
350
68
  0
DICTIONARY
  5
2A
102
{ACAD_REACTORS
330
C
102
}
330
C
100
AcDbDictionary
281
     1
  3
2dWireframe
350
2F
  3
Basic
350
32
  3
Brighten
350
36
  3
ColorChange
350
3A
  3
Conceptual
350
34
  3
Dim
350
35
  3
EdgeColorOff
350
3D
  3
Facepattern
350
39
  3
Flat
350
2B
  3
FlatWithEdges
350
2C
  3
Gouraud
350
2D
  3
GouraudWithEdges
350
2E
  3
Hidden
350
31
  3
JitterOff
350
3B
  3
Linepattern
350
38
  3
OverhangOff
350
3C
  3
Realistic
350
33
  3
Shaded
350
42
  3
Shaded with edges
350
41
  3
Shades of Gray
350
3E
  3
Sketchy
350
3F
  3
Thicken
350
37
  3
Wireframe
350
30
  3
X-Ray
350
40
  0
DICTIONARY
  5
383
102
{ACAD_REACTORS
330
C
102
}
330
C
100
AcDbDictionary
281
     1
  3
CANNOSCALE
350
390
  3
DIMASSOC
350
38A
  3
HIDETEXT
350
38B
  3
MSLTSCALE
350
391
  3
PSOLHEIGHT
350
387
  3
PSOLWIDTH
350
386
  0
XRECORD
  5
38C
102
{ACAD_REACTORS
330
C
102
}
330
C
100
AcDbXrecord
280
     1
  1
DWGPROPS COOKIE
  2

  3

  4

  6
File was created by TR2_DExp
  7

  8

  9

300
=
301
=
302
=
303
=
304
=
305
=
306
=
307
=
308
=
309
=
 40
0.0
 41
2455188.375
 42
2455188.375
  1

 90
        0
  0
LAYOUT
  5
1E
102
{ACAD_REACTORS
330
1A
102
}
330
1A
100
AcDbPlotSettings
  1

  2
none_device
  4

  6

 40
0.0
 41
0.0
 42
0.0
 43
0.0
 44
0.0
 45
0.0
 46
0.0
 47
0.0
 48
0.0
 49
0.0
140
0.0
141
0.0
142
1.0
143
1.0
 70
   688
 72
     1
 73
     0
 74
     5
  7

 75
    16
147
1.0
148
0.0
149
0.0
100
AcDbLayout
  1
Layout1
 70
     0
 71
     1
 10
0.0
 20
0.0
 11
420.0
 21
297.0
 12
0.0
 22
0.0
 32
0.0
 14
1.000000000000000E+20
 24
1.000000000000000E+20
 34
1.000000000000000E+20
 15
-1.000000000000000E+20
 25
-1.000000000000000E+20
 35
-1.000000000000000E+20
146
0.0
 13
0.0
 23
0.0
 33
0.0
 16
1.0
 26
0.0
 36
0.0
 17
0.0
 27
1.0
 37
0.0
 76
     0
330
1B
  0
LAYOUT
  5
22
102
{ACAD_REACTORS
330
1A
102
}
330
1A
100
AcDbPlotSettings
  1

  2
none_device
  4
Letter_(8.50_x_11.00_Inches)
  6

 40
6.35
 41
6.35
 42
6.35000508
 43
6.35000508
 44
215.9
 45
279.4
 46
0.0
 47
0.0
 48
0.0
 49
0.0
140
0.0
141
0.0
142
1.0
143
1.0
 70
  1712
 72
     1
 73
     0
 74
     0
  7

 75
     0
147
1.0
148
0.0
149
0.0
100
AcDbLayout
  1
Model
 70
     1
 71
     0
 10
603.1948604293275
 20
1869.999974519015
 11
3694.2
 21
5097.064732841508
 12
0.0
 22
0.0
 32
0.0
 14
603.1948604293275
 24
1869.999974519015
 34
0.0
 15
3694.2
 25
5097.064732841508
 35
0.0
146
0.0
 13
0.0
 23
0.0
 33
0.0
 16
1.0
 26
0.0
 36
0.0
 17
0.0
 27
1.0
 37
0.0
 76
     0
330
1F
331
29
  0
MATERIAL
  5
45
102
{ACAD_REACTORS
330
43
102
}
102
{ACAD_XDICTIONARY
360
3C4
102
}
330
43
100
AcDbMaterial
  1
ByBlock
  0
MATERIAL
  5
44
102
{ACAD_REACTORS
330
43
102
}
102
{ACAD_XDICTIONARY
360
3C2
102
}
330
43
100
AcDbMaterial
  1
ByLayer
  0
MATERIAL
  5
46
102
{ACAD_REACTORS
330
43
102
}
102
{ACAD_XDICTIONARY
360
3C6
102
}
330
43
100
AcDbMaterial
  1
Global
  0
MLINESTYLE
  5
18
102
{ACAD_REACTORS
330
17
102
}
330
17
100
AcDbMlineStyle
  2
Standard
 70
     0
  3

 62
   256
 51
90.0
 52
90.0
 71
     2
 49
0.5
 62
   256
  6
BYLAYER
 49
-0.5
 62
   256
  6
BYLAYER
  0
ACDBPLACEHOLDER
  5
F
102
{ACAD_REACTORS
330
E
102
}
330
E
  0
SCALE
  5
48
102
{ACAD_REACTORS
330
47
102
}
330
47
100
AcDbScale
 70
     0
300
1:1
140
1.0
141
1.0
290
     1
  0
SCALE
  5
49
102
{ACAD_REACTORS
330
47
102
}
330
47
100
AcDbScale
 70
     0
300
1:2
140
1.0
141
2.0
290
     0
  0
SCALE
  5
4A
102
{ACAD_REACTORS
330
47
102
}
330
47
100
AcDbScale
 70
     0
300
1:4
140
1.0
141
4.0
290
     0
  0
SCALE
  5
4B
102
{ACAD_REACTORS
330
47
102
}
330
47
100
AcDbScale
 70
     0
300
1:5
140
1.0
141
5.0
290
     0
  0
SCALE
  5
4C
102
{ACAD_REACTORS
330
47
102
}
330
47
100
AcDbScale
 70
     0
300
1:8
140
1.0
141
8.0
290
     0
  0
SCALE
  5
4D
102
{ACAD_REACTORS
330
47
102
}
330
47
100
AcDbScale
 70
     0
300
1:10
140
1.0
141
10.0
290
     0
  0
SCALE
  5
4E
102
{ACAD_REACTORS
330
47
102
}
330
47
100
AcDbScale
 70
     0
300
1:16
140
1.0
141
16.0
290
     0
  0
SCALE
  5
4F
102
{ACAD_REACTORS
330
47
102
}
330
47
100
AcDbScale
 70
     0
300
1:20
140
1.0
141
20.0
290
     0
  0
SCALE
  5
50
102
{ACAD_REACTORS
330
47
102
}
330
47
100
AcDbScale
 70
     0
300
1:30
140
1.0
141
30.0
290
     0
  0
SCALE
  5
51
102
{ACAD_REACTORS
330
47
102
}
330
47
100
AcDbScale
 70
     0
300
1:40
140
1.0
141
40.0
290
     0
  0
SCALE
  5
52
102
{ACAD_REACTORS
330
47
102
}
330
47
100
AcDbScale
 70
     0
300
1:50
140
1.0
141
50.0
290
     0
  0
SCALE
  5
53
102
{ACAD_REACTORS
330
47
102
}
330
47
100
AcDbScale
 70
     0
300
1:100
140
1.0
141
100.0
290
     0
  0
SCALE
  5
54
102
{ACAD_REACTORS
330
47
102
}
330
47
100
AcDbScale
 70
     0
300
2:1
140
2.0
141
1.0
290
     0
  0
SCALE
  5
55
102
{ACAD_REACTORS
330
47
102
}
330
47
100
AcDbScale
 70
     0
300
4:1
140
4.0
141
1.0
290
     0
  0
SCALE
  5
56
102
{ACAD_REACTORS
330
47
102
}
330
47
100
AcDbScale
 70
     0
300
8:1
140
8.0
141
1.0
290
     0
  0
SCALE
  5
57
102
{ACAD_REACTORS
330
47
102
}
330
47
100
AcDbScale
 70
     0
300
10:1
140
10.0
141
1.0
290
     0
  0
SCALE
  5
58
102
{ACAD_REACTORS
330
47
102
}
330
47
100
AcDbScale
 70
     0
300
100:1
140
100.0
141
1.0
290
     0
  0
SCALE
  5
59
102
{ACAD_REACTORS
330
47
102
}
330
47
100
AcDbScale
 70
     0
300
1/128" = 1'-0"
140
0.0078125
141
12.0
290
     0
  0
SCALE
  5
5A
102
{ACAD_REACTORS
330
47
102
}
330
47
100
AcDbScale
 70
     0
300
1/64" = 1'-0"
140
0.015625
141
12.0
290
     0
  0
SCALE
  5
5B
102
{ACAD_REACTORS
330
47
102
}
330
47
100
AcDbScale
 70
     0
300
1/32" = 1'-0"
140
0.03125
141
12.0
290
     0
  0
SCALE
  5
5C
102
{ACAD_REACTORS
330
47
102
}
330
47
100
AcDbScale
 70
     0
300
1/16" = 1'-0"
140
0.0625
141
12.0
290
     0
  0
SCALE
  5
5D
102
{ACAD_REACTORS
330
47
102
}
330
47
100
AcDbScale
 70
     0
300
3/32" = 1'-0"
140
0.09375
141
12.0
290
     0
  0
SCALE
  5
5E
102
{ACAD_REACTORS
330
47
102
}
330
47
100
AcDbScale
 70
     0
300
1/8" = 1'-0"
140
0.125
141
12.0
290
     0
  0
SCALE
  5
5F
102
{ACAD_REACTORS
330
47
102
}
330
47
100
AcDbScale
 70
     0
300
3/16" = 1'-0"
140
0.1875
141
12.0
290
     0
  0
SCALE
  5
60
102
{ACAD_REACTORS
330
47
102
}
330
47
100
AcDbScale
 70
     0
300
1/4" = 1'-0"
140
0.25
141
12.0
290
     0
  0
SCALE
  5
61
102
{ACAD_REACTORS
330
47
102
}
330
47
100
AcDbScale
 70
     0
300
3/8" = 1'-0"
140
0.375
141
12.0
290
     0
  0
SCALE
  5
62
102
{ACAD_REACTORS
330
47
102
}
330
47
100
AcDbScale
 70
     0
300
1/2" = 1'-0"
140
0.5
141
12.0
290
     0
  0
SCALE
  5
63
102
{ACAD_REACTORS
330
47
102
}
330
47
100
AcDbScale
 70
     0
300
3/4" = 1'-0"
140
0.75
141
12.0
290
     0
  0
SCALE
  5
64
102
{ACAD_REACTORS
330
47
102
}
330
47
100
AcDbScale
 70
     0
300
1" = 1'-0"
140
1.0
141
12.0
290
     0
  0
SCALE
  5
65
102
{ACAD_REACTORS
330
47
102
}
330
47
100
AcDbScale
 70
     0
300
1-1/2" = 1'-0"
140
1.5
141
12.0
290
     0
  0
SCALE
  5
66
102
{ACAD_REACTORS
330
47
102
}
330
47
100
AcDbScale
 70
     0
300
3" = 1'-0"
140
3.0
141
12.0
290
     0
  0
SCALE
  5
67
102
{ACAD_REACTORS
330
47
102
}
330
47
100
AcDbScale
 70
     0
300
6" = 1'-0"
140
6.0
141
12.0
290
     0
  0
SCALE
  5
68
102
{ACAD_REACTORS
330
47
102
}
330
47
100
AcDbScale
 70
     0
300
1'-0" = 1'-0"
140
12.0
141
12.0
290
     0
  0
VISUALSTYLE
  5
2F
102
{ACAD_REACTORS
330
2A
102
}
102
{ACAD_XDICTIONARY
360
39A
102
}
330
2A
100
AcDbVisualStyle
  2
2dWireframe
 70
     4
 71
     0
 72
     2
 73
     0
 90
        0
 40
0.6
 41
30.0
 62
     5
 63
     7
 74
     1
 91
        4
 64
     7
 65
   257
 75
     1
175
     1
 42
1.0
 92
        0
 66
   257
 43
1.0
 76
     1
 77
     6
 78
     2
 67
     7
 79
     5
170
     0
171
     0
290
     0
174
     0
 93
        1
 44
0.0
173
     0
291
     0
 45
0.0
1001
ACAD
1000
AcDbSavedByObjectVersion
1070
     0
  0
VISUALSTYLE
  5
32
102
{ACAD_REACTORS
330
2A
102
}
102
{ACAD_XDICTIONARY
360
3A0
102
}
330
2A
100
AcDbVisualStyle
  2
Basic
 70
     7
 71
     1
 72
     0
 73
     1
 90
        0
 40
0.6
 41
30.0
 62
     5
 63
     7
 74
     0
 91
        4
 64
     7
 65
   257
 75
     1
175
     1
 42
1.0
 92
        8
 66
     7
 43
1.0
 76
     1
 77
     6
 78
     2
 67
     7
 79
     5
170
     0
171
     0
290
     0
174
     0
 93
        1
 44
0.0
173
     0
291
     1
 45
0.0
1001
ACAD
1000
AcDbSavedByObjectVersion
1070
     0
  0
VISUALSTYLE
  5
36
102
{ACAD_REACTORS
330
2A
102
}
102
{ACAD_XDICTIONARY
360
3A8
102
}
330
2A
100
AcDbVisualStyle
  2
Brighten
 70
    12
 71
     2
 72
     2
 73
     0
 90
        0
 40
0.6
 41
30.0
 62
     5
 63
     7
 74
     1
 91
        4
 64
     7
 65
   257
 75
     1
175
     1
 42
1.0
 92
        8
 66
     7
 43
1.0
 76
     1
 77
     6
 78
     2
 67
     7
 79
     5
170
     0
171
     0
290
     0
174
     0
 93
        1
 44
50.0
173
     0
291
     1
 45
0.0
1001
ACAD
1000
AcDbSavedByObjectVersion
1070
     0
  0
VISUALSTYLE
  5
3A
102
{ACAD_REACTORS
330
2A
102
}
102
{ACAD_XDICTIONARY
360
3B0
102
}
330
2A
100
AcDbVisualStyle
  2
ColorChange
 70
    16
 71
     2
 72
     2
 73
     3
 90
        0
 40
0.6
 41
30.0
 62
     5
 63
     8
 74
     1
 91
        4
 64
     7
 65
   257
 75
     1
175
     1
 42
1.0
 92
        8
 66
     8
 43
1.0
 76
     1
 77
     6
 78
     2
 67
     7
 79
     5
170
     0
171
     0
290
     0
174
     0
 93
        1
 44
0.0
173
     0
291
     1
 45
0.0
1001
ACAD
1000
AcDbSavedByObjectVersion
1070
     0
  0
VISUALSTYLE
  5
34
102
{ACAD_REACTORS
330
2A
102
}
102
{ACAD_XDICTIONARY
360
3A4
102
}
330
2A
100
AcDbVisualStyle
  2
Conceptual
 70
     9
 71
     3
 72
     2
 73
     0
 90
        0
 40
0.6
 41
30.0
 62
     5
 63
     7
 74
     2
 91
        2
 64
     7
 65
   257
 75
     1
175
     1
 42
179.0
 92
        8
 66
     7
 43
1.0
 76
     1
 77
     6
 78
     2
 67
     7
 79
     3
170
     0
171
     0
290
     0
174
     0
 93
        1
 44
0.0
173
     0
291
     0
 45
0.0
1001
ACAD
1000
AcDbSavedByObjectVersion
1070
     0
  0
VISUALSTYLE
  5
35
102
{ACAD_REACTORS
330
2A
102
}
102
{ACAD_XDICTIONARY
360
3A6
102
}
330
2A
100
AcDbVisualStyle
  2
Dim
 70
    11
 71
     2
 72
     2
 73
     0
 90
        0
 40
0.6
 41
30.0
 62
     5
 63
     7
 74
     1
 91
        4
 64
     7
 65
   257
 75
     1
175
     1
 42
1.0
 92
        8
 66
     7
 43
1.0
 76
     1
 77
     6
 78
     2
 67
     7
 79
     5
170
     0
171
     0
290
     0
174
     0
 93
        1
 44
-50.0
173
     0
291
     1
 45
0.0
1001
ACAD
1000
AcDbSavedByObjectVersion
1070
     0
  0
VISUALSTYLE
  5
3D
102
{ACAD_REACTORS
330
2A
102
}
102
{ACAD_XDICTIONARY
360
3B6
102
}
330
2A
100
AcDbVisualStyle
  2
EdgeColorOff
 70
    22
 71
     2
 72
     2
 73
     0
 90
        0
 40
0.6
 41
30.0
 62
     5
 63
     7
 74
     1
 91
        4
 64
     7
 65
   257
 75
     1
175
     1
 42
1.0
 92
        8
 66
     7
 43
1.0
 76
     1
 77
     6
 78
     2
 67
     7
 79
     5
170
     0
171
     0
290
     0
174
     0
 93
        1
 44
0.0
173
     0
291
     1
 45
0.0
1001
ACAD
1000
AcDbSavedByObjectVersion
1070
     0
  0
VISUALSTYLE
  5
39
102
{ACAD_REACTORS
330
2A
102
}
102
{ACAD_XDICTIONARY
360
3AE
102
}
330
2A
100
AcDbVisualStyle
  2
Facepattern
 70
    15
 71
     2
 72
     2
 73
     0
 90
        0
 40
0.6
 41
30.0
 62
     5
 63
     7
 74
     1
 91
        4
 64
     7
 65
   257
 75
     1
175
     1
 42
1.0
 92
        8
 66
     7
 43
1.0
 76
     1
 77
     6
 78
     2
 67
     7
 79
     5
170
     0
171
     0
290
     0
174
     0
 93
        1
 44
0.0
173
     0
291
     1
 45
0.0
1001
ACAD
1000
AcDbSavedByObjectVersion
1070
     0
  0
VISUALSTYLE
  5
2B
102
{ACAD_REACTORS
330
2A
102
}
102
{ACAD_XDICTIONARY
360
392
102
}
330
2A
100
AcDbVisualStyle
  2
Flat
 70
     0
 71
     2
 72
     1
 73
     1
 90
        2
 40
0.6
 41
30.0
 62
     5
 63
     7
 74
     0
 91
        0
 64
     7
 65
   257
 75
     1
175
     1
 42
1.0
 92
        8
 66
     7
 43
1.0
 76
     1
 77
     6
 78
     2
 67
     7
 79
     5
170
     0
171
     0
290
     0
174
     0
 93
       13
 44
0.0
173
     0
291
     1
 45
0.0
1001
ACAD
1000
AcDbSavedByObjectVersion
1070
     0
  0
VISUALSTYLE
  5
2C
102
{ACAD_REACTORS
330
2A
102
}
102
{ACAD_XDICTIONARY
360
394
102
}
330
2A
100
AcDbVisualStyle
  2
FlatWithEdges
 70
     1
 71
     2
 72
     1
 73
     1
 90
        2
 40
0.6
 41
30.0
 62
     5
 63
     7
 74
     1
 91
        0
 64
     7
 65
   257
 75
     1
175
     1
 42
1.0
 92
        0
 66
   257
 43
1.0
 76
     1
 77
     6
 78
     2
 67
     7
 79
     5
170
     0
171
     0
290
     0
174
     0
 93
       13
 44
0.0
173
     0
291
     1
 45
0.0
1001
ACAD
1000
AcDbSavedByObjectVersion
1070
     0
  0
VISUALSTYLE
  5
2D
102
{ACAD_REACTORS
330
2A
102
}
102
{ACAD_XDICTIONARY
360
396
102
}
330
2A
100
AcDbVisualStyle
  2
Gouraud
 70
     2
 71
     2
 72
     2
 73
     1
 90
        2
 40
0.6
 41
30.0
 62
     5
 63
     7
 74
     0
 91
        0
 64
     7
 65
   257
 75
     1
175
     1
 42
1.0
 92
        0
 66
     7
 43
1.0
 76
     1
 77
     6
 78
     2
 67
     7
 79
     5
170
     0
171
     0
290
     0
174
     0
 93
       13
 44
0.0
173
     0
291
     1
 45
0.0
1001
ACAD
1000
AcDbSavedByObjectVersion
1070
     0
  0
VISUALSTYLE
  5
2E
102
{ACAD_REACTORS
330
2A
102
}
102
{ACAD_XDICTIONARY
360
398
102
}
330
2A
100
AcDbVisualStyle
  2
GouraudWithEdges
 70
     3
 71
     2
 72
     2
 73
     1
 90
        2
 40
0.6
 41
30.0
 62
     5
 63
     7
 74
     1
 91
        0
 64
     7
 65
   257
 75
     1
175
     1
 42
1.0
 92
        0
 66
   257
 43
1.0
 76
     1
 77
     6
 78
     2
 67
     7
 79
     5
170
     0
171
     0
290
     0
174
     0
 93
       13
 44
0.0
173
     0
291
     1
 45
0.0
1001
ACAD
1000
AcDbSavedByObjectVersion
1070
     0
  0
VISUALSTYLE
  5
31
102
{ACAD_REACTORS
330
2A
102
}
102
{ACAD_XDICTIONARY
360
39E
102
}
330
2A
100
AcDbVisualStyle
  2
Hidden
 70
     6
 71
     1
 72
     2
 73
     2
 90
        0
 40
0.6
 41
30.0
 62
     5
 63
     7
 74
     2
 91
        2
 64
     7
 65
   257
 75
     2
175
     1
 42
40.0
 92
        0
 66
   257
 43
1.0
 76
     1
 77
     6
 78
     2
 67
     7
 79
     3
170
     0
171
     0
290
     0
174
     0
 93
        1
 44
0.0
173
     0
291
     0
 45
0.0
1001
ACAD
1000
AcDbSavedByObjectVersion
1070
     0
  0
VISUALSTYLE
  5
3B
102
{ACAD_REACTORS
330
2A
102
}
102
{ACAD_XDICTIONARY
360
3B2
102
}
330
2A
100
AcDbVisualStyle
  2
JitterOff
 70
    20
 71
     2
 72
     2
 73
     0
 90
        0
 40
0.6
 41
30.0
 62
     5
 63
     7
 74
     1
 91
        4
 64
     7
 65
   257
 75
     1
175
     1
 42
1.0
 92
       10
 66
     7
 43
1.0
 76
     1
 77
     6
 78
     2
 67
     7
 79
     5
170
     0
171
     0
290
     0
174
     0
 93
        1
 44
0.0
173
     0
291
     1
 45
0.0
1001
ACAD
1000
AcDbSavedByObjectVersion
1070
     0
  0
VISUALSTYLE
  5
38
102
{ACAD_REACTORS
330
2A
102
}
102
{ACAD_XDICTIONARY
360
3AC
102
}
330
2A
100
AcDbVisualStyle
  2
Linepattern
 70
    14
 71
     2
 72
     2
 73
     0
 90
        0
 40
0.6
 41
30.0
 62
     5
 63
     7
 74
     1
 91
        4
 64
     7
 65
   257
 75
     7
175
     7
 42
1.0
 92
        8
 66
     7
 43
1.0
 76
     1
 77
     6
 78
     2
 67
     7
 79
     5
170
     0
171
     0
290
     0
174
     0
 93
        1
 44
0.0
173
     0
291
     1
 45
0.0
1001
ACAD
1000
AcDbSavedByObjectVersion
1070
     0
  0
VISUALSTYLE
  5
3C
102
{ACAD_REACTORS
330
2A
102
}
102
{ACAD_XDICTIONARY
360
3B4
102
}
330
2A
100
AcDbVisualStyle
  2
OverhangOff
 70
    21
 71
     2
 72
     2
 73
     0
 90
        0
 40
0.6
 41
30.0
 62
     5
 63
     7
 74
     1
 91
        4
 64
     7
 65
   257
 75
     1
175
     1
 42
1.0
 92
        9
 66
     7
 43
1.0
 76
     1
 77
     6
 78
     2
 67
     7
 79
     5
170
     0
171
     0
290
     0
174
     0
 93
        1
 44
0.0
173
     0
291
     1
 45
0.0
1001
ACAD
1000
AcDbSavedByObjectVersion
1070
     0
  0
VISUALSTYLE
  5
33
102
{ACAD_REACTORS
330
2A
102
}
102
{ACAD_XDICTIONARY
360
3A2
102
}
330
2A
100
AcDbVisualStyle
  2
Realistic
 70
     8
 71
     2
 72
     3
 73
     0
 90
        2
 40
0.6
 41
30.0
 62
     5
 63
     7
 74
     0
 91
        0
 64
     7
 65
   257
 75
     1
175
     1
 42
1.0
 92
        8
 66
   257
 43
1.0
 76
     1
 77
     6
 78
     2
 67
     7
 79
     3
170
     0
171
     0
290
     0
174
     0
 93
       13
 44
0.0
173
     0
291
     0
 45
0.0
1001
ACAD
1000
AcDbSavedByObjectVersion
1070
     0
  0
VISUALSTYLE
  5
42
102
{ACAD_REACTORS
330
2A
102
}
102
{ACAD_XDICTIONARY
360
3C0
102
}
330
2A
100
AcDbVisualStyle
  2
Shaded
 70
    27
 71
     2
 72
     2
 73
     1
 90
        2
 40
0.6
 41
30.0
 62
     5
 63
     7
 74
     0
 91
        4
 64
     7
 65
   257
 75
     1
175
     1
 42
1.0
 92
        8
 66
   257
 43
1.0
 76
     1
 77
     6
 78
     2
 67
     8
 79
     3
170
     0
171
     0
290
     0
174
     0
 93
        5
 44
0.0
173
     0
291
     0
 45
0.0
1001
ACAD
1000
AcDbSavedByObjectVersion
1070
     0
  0
VISUALSTYLE
  5
41
102
{ACAD_REACTORS
330
2A
102
}
102
{ACAD_XDICTIONARY
360
3BE
102
}
330
2A
100
AcDbVisualStyle
  2
Shaded with edges
 70
    26
 71
     2
 72
     2
 73
     1
 90
        2
 40
0.6
 41
30.0
 62
     5
 63
     7
 74
     1
 91
       10
 64
     7
 65
   257
 75
     2
175
     1
 42
1.0
 92
        8
 66
   257
 43
1.0
 76
     1
 77
     6
 78
     2
 67
     7
 79
     3
170
     0
171
     0
290
     0
174
     0
 93
        5
 44
0.0
173
     0
291
     0
 45
0.0
1001
ACAD
1000
AcDbSavedByObjectVersion
1070
     0
  0
VISUALSTYLE
  5
3E
102
{ACAD_REACTORS
330
2A
102
}
102
{ACAD_XDICTIONARY
360
3B8
102
}
330
2A
100
AcDbVisualStyle
  2
Shades of Gray
 70
    23
 71
     2
 72
     2
 73
     3
 90
        0
 40
0.6
 41
30.0
 62
     5
 63
     7
 74
     2
 91
        2
 64
     7
 65
     7
 75
     1
175
     1
 42
40.0
 92
        8
 66
     7
 43
1.0
 76
     1
 77
     6
 78
     2
 67
     7
 79
     3
170
     0
171
     0
290
     0
174
     0
 93
        1
 44
0.0
173
     0
291
     0
 45
0.0
1001
ACAD
1000
AcDbSavedByObjectVersion
1070
     0
  0
VISUALSTYLE
  5
3F
102
{ACAD_REACTORS
330
2A
102
}
102
{ACAD_XDICTIONARY
360
3BA
102
}
330
2A
100
AcDbVisualStyle
  2
Sketchy
 70
    24
 71
     1
 72
     2
 73
     2
 90
        0
 40
0.6
 41
30.0
 62
     5
 63
     7
 74
     2
 91
        2
 64
     7
 65
     7
 75
     1
175
     1
 42
40.0
 92
       11
 66
     7
 43
1.0
 76
     1
 77
     6
 78
     2
 67
     7
 79
     6
170
     0
171
     0
290
     0
174
     0
 93
        1
 44
0.0
173
     0
291
     0
 45
0.0
1001
ACAD
1000
AcDbSavedByObjectVersion
1070
     0
  0
VISUALSTYLE
  5
37
102
{ACAD_REACTORS
330
2A
102
}
102
{ACAD_XDICTIONARY
360
3AA
102
}
330
2A
100
AcDbVisualStyle
  2
Thicken
 70
    13
 71
     2
 72
     2
 73
     0
 90
        0
 40
0.6
 41
30.0
 62
     5
 63
     7
 74
     1
 91
        4
 64
     7
 65
   257
 75
     1
175
     1
 42
1.0
 92
       12
 66
     7
 43
1.0
 76
     1
 77
     6
 78
     2
 67
     7
 79
     5
170
     0
171
     0
290
     0
174
     0
 93
        1
 44
0.0
173
     0
291
     1
 45
0.0
1001
ACAD
1000
AcDbSavedByObjectVersion
1070
     0
  0
VISUALSTYLE
  5
30
102
{ACAD_REACTORS
330
2A
102
}
102
{ACAD_XDICTIONARY
360
39C
102
}
330
2A
100
AcDbVisualStyle
  2
Wireframe
 70
     5
 71
     0
 72
     2
 73
     0
 90
        0
 40
0.6
 41
30.0
 62
     5
 63
     7
 74
     1
 91
        4
 64
     7
 65
   257
 75
     1
175
     1
 42
1.0
 92
        0
 66
   257
 43
1.0
 76
     1
 77
     6
 78
     2
 67
     7
 79
     3
170
     0
171
     0
290
     0
174
     0
 93
        1
 44
0.0
173
     0
291
     0
 45
0.0
1001
ACAD
1000
AcDbSavedByObjectVersion
1070
     0
  0
VISUALSTYLE
  5
40
102
{ACAD_REACTORS
330
2A
102
}
102
{ACAD_XDICTIONARY
360
3BC
102
}
330
2A
100
AcDbVisualStyle
  2
X-Ray
 70
    25
 71
     2
 72
     2
 73
     1
 90
        1
 40
0.5
 41
30.0
 62
     5
 63
     7
 74
     1
 91
        0
 64
     7
 65
   257
 75
     1
175
     1
 42
1.0
 92
        8
 66
     7
 43
1.0
 76
     1
 77
     6
 78
     2
 67
     7
 79
     3
170
     0
171
     0
290
     0
174
     0
 93
       13
 44
0.0
173
     0
291
     0
 45
0.0
1001
ACAD
1000
AcDbSavedByObjectVersion
1070
     0
  0
DICTIONARYVAR
  5
390
102
{ACAD_REACTORS
330
383
102
}
330
383
100
DictionaryVariables
280
     0
  1
1:1
  0
DICTIONARYVAR
  5
38A
102
{ACAD_REACTORS
330
383
102
}
330
383
100
DictionaryVariables
280
     0
  1
2
  0
DICTIONARYVAR
  5
38B
102
{ACAD_REACTORS
330
383
102
}
330
383
100
DictionaryVariables
280
     0
  1
1
  0
DICTIONARYVAR
  5
391
102
{ACAD_REACTORS
330
383
102
}
330
383
100
DictionaryVariables
280
     0
  1
1
  0
DICTIONARYVAR
  5
387
102
{ACAD_REACTORS
330
383
102
}
330
383
100
DictionaryVariables
280
     0
  1
80.000000
  0
DICTIONARYVAR
  5
386
102
{ACAD_REACTORS
330
383
102
}
330
383
100
DictionaryVariables
280
     0
  1
5.000000
  0
DICTIONARY
  5
3C4
330
45
100
AcDbDictionary
280
     1
281
     1
  3
ACAD_XREC_ROUNDTRIP
360
3C5
  0
DICTIONARY
  5
3C2
330
44
100
AcDbDictionary
280
     1
281
     1
  3
ACAD_XREC_ROUNDTRIP
360
3C3
  0
DICTIONARY
  5
3C6
330
46
100
AcDbDictionary
280
     1
281
     1
  3
ACAD_XREC_ROUNDTRIP
360
3C7
  0
DICTIONARY
  5
39A
330
2F
100
AcDbDictionary
280
     1
281
     1
  3
ACAD_XREC_ROUNDTRIP
360
39B
  0
DICTIONARY
  5
3A0
330
32
100
AcDbDictionary
280
     1
281
     1
  3
ACAD_XREC_ROUNDTRIP
360
3A1
  0
DICTIONARY
  5
3A8
330
36
100
AcDbDictionary
280
     1
281
     1
  3
ACAD_XREC_ROUNDTRIP
360
3A9
  0
DICTIONARY
  5
3B0
330
3A
100
AcDbDictionary
280
     1
281
     1
  3
ACAD_XREC_ROUNDTRIP
360
3B1
  0
DICTIONARY
  5
3A4
330
34
100
AcDbDictionary
280
     1
281
     1
  3
ACAD_XREC_ROUNDTRIP
360
3A5
  0
DICTIONARY
  5
3A6
330
35
100
AcDbDictionary
280
     1
281
     1
  3
ACAD_XREC_ROUNDTRIP
360
3A7
  0
DICTIONARY
  5
3B6
330
3D
100
AcDbDictionary
280
     1
281
     1
  3
ACAD_XREC_ROUNDTRIP
360
3B7
  0
DICTIONARY
  5
3AE
330
39
100
AcDbDictionary
280
     1
281
     1
  3
ACAD_XREC_ROUNDTRIP
360
3AF
  0
DICTIONARY
  5
392
330
2B
100
AcDbDictionary
280
     1
281
     1
  3
ACAD_XREC_ROUNDTRIP
360
393
  0
DICTIONARY
  5
394
330
2C
100
AcDbDictionary
280
     1
281
     1
  3
ACAD_XREC_ROUNDTRIP
360
395
  0
DICTIONARY
  5
396
330
2D
100
AcDbDictionary
280
     1
281
     1
  3
ACAD_XREC_ROUNDTRIP
360
397
  0
DICTIONARY
  5
398
330
2E
100
AcDbDictionary
280
     1
281
     1
  3
ACAD_XREC_ROUNDTRIP
360
399
  0
DICTIONARY
  5
39E
330
31
100
AcDbDictionary
280
     1
281
     1
  3
ACAD_XREC_ROUNDTRIP
360
39F
  0
DICTIONARY
  5
3B2
330
3B
100
AcDbDictionary
280
     1
281
     1
  3
ACAD_XREC_ROUNDTRIP
360
3B3
  0
DICTIONARY
  5
3AC
330
38
100
AcDbDictionary
280
     1
281
     1
  3
ACAD_XREC_ROUNDTRIP
360
3AD
  0
DICTIONARY
  5
3B4
330
3C
100
AcDbDictionary
280
     1
281
     1
  3
ACAD_XREC_ROUNDTRIP
360
3B5
  0
DICTIONARY
  5
3A2
330
33
100
AcDbDictionary
280
     1
281
     1
  3
ACAD_XREC_ROUNDTRIP
360
3A3
  0
DICTIONARY
  5
3C0
330
42
100
AcDbDictionary
280
     1
281
     1
  3
ACAD_XREC_ROUNDTRIP
360
3C1
  0
DICTIONARY
  5
3BE
330
41
100
AcDbDictionary
280
     1
281
     1
  3
ACAD_XREC_ROUNDTRIP
360
3BF
  0
DICTIONARY
  5
3B8
330
3E
100
AcDbDictionary
280
     1
281
     1
  3
ACAD_XREC_ROUNDTRIP
360
3B9
  0
DICTIONARY
  5
3BA
330
3F
100
AcDbDictionary
280
     1
281
     1
  3
ACAD_XREC_ROUNDTRIP
360
3BB
  0
DICTIONARY
  5
3AA
330
37
100
AcDbDictionary
280
     1
281
     1
  3
ACAD_XREC_ROUNDTRIP
360
3AB
  0
DICTIONARY
  5
39C
330
30
100
AcDbDictionary
280
     1
281
     1
  3
ACAD_XREC_ROUNDTRIP
360
39D
  0
DICTIONARY
  5
3BC
330
40
100
AcDbDictionary
280
     1
281
     1
  3
ACAD_XREC_ROUNDTRIP
360
3BD
  0
XRECORD
  5
3C5
102
{ACAD_REACTORS
330
3C4
102
}
330
3C4
100
AcDbXrecord
280
     1
102
MATERIAL
148
0.0
149
0.0
149
0.0
 93
        0
 94
      127
282
     0
 72
     1
 77
     1
171
     1
175
     1
179
     1
273
     0
  0
XRECORD
  5
3C3
102
{ACAD_REACTORS
330
3C2
102
}
330
3C2
100
AcDbXrecord
280
     1
102
MATERIAL
148
0.0
149
0.0
149
0.0
 93
        0
 94
      127
282
     0
 72
     1
 77
     1
171
     1
175
     1
179
     1
273
     0
  0
XRECORD
  5
3C7
102
{ACAD_REACTORS
330
3C6
102
}
330
3C6
100
AcDbXrecord
280
     1
102
MATERIAL
148
0.0
149
0.0
149
0.0
 93
        0
 94
      127
282
     0
 72
     1
 77
     1
171
     1
175
     1
179
     1
273
     0
  0
XRECORD
  5
39B
102
{ACAD_REACTORS
330
39A
102
}
330
39A
100
AcDbXrecord
280
     1
102
RTVSPropertyOp0
 70
     1
102
RTVSPropertyOp1
 70
     1
102
RTVSPropertyOp2
 70
     1
102
RTVSPropertyOp3
 70
     1
102
RTVSPropertyOp4
 70
     1
102
RTVSPropertyOp5
 70
     1
102
RTVSPropertyOp6
 70
     1
102
RTVSPropertyOp7
 70
     1
102
RTVSPropertyOp8
 70
     1
102
RTVSPropertyOp9
 70
     1
102
RTVSPropertyOp10
 70
     1
102
RTVSPropertyOp11
 70
     1
102
RTVSPropertyOp12
 70
     1
102
RTVSPropertyOp13
 70
     1
102
RTVSPropertyOp14
 70
     1
102
RTVSPropertyOp15
 70
     1
102
RTVSPropertyOp16
 70
     1
102
RTVSPropertyOp17
 70
     1
102
RTVSPropertyOp18
 70
     1
102
RTVSPropertyOp19
 70
     1
102
RTVSPropertyOp20
 70
     1
102
RTVSPropertyOp21
 70
     1
102
RTVSPropertyOp22
 70
     1
102
RTVSPropertyOp23
 70
     1
102
RTVSPropertyOp24
 70
     1
102
RTVSPropertyOp25
 70
     1
102
RTVSPropertyOp26
 70
     1
102
RTVSPropertyOp27
 70
     1
102
RTVSPropertyOp28
 70
     1
102
RTVSPropertyOp29
 70
     1
102
RTVSPropertyOp30
 70
     1
102
RTVSPropertyOp31
 70
     1
102
RTVSPropertyOp32
 70
     1
102
RTVSPropertyOp33
 70
     1
102
RTVSPropertyOp34
 70
     1
102
RTVSPropertyOp35
 70
     1
102
RTVSPropertyOp36
 70
     1
102
RTVSPropertyOp37
 70
     1
102
RTVSPropertyOp38
 70
     1
102
RTVSPropertyOp39
 70
     1
102
RTVSPropertyOp40
 70
     1
102
RTVSPropertyOp41
 70
     1
102
RTVSPropertyOp42
 70
     1
102
RTVSPropertyOp43
 70
     1
102
RTVSPropertyOp44
 70
     1
102
RTVSPropertyOp45
 70
     1
102
RTVSPropertyOp46
 70
     1
102
RTVSPropertyOp47
 70
     1
102
RTVSPropertyOp48
 70
     1
102
RTVSPropertyOp49
 70
     1
102
RTVSPropertyOp50
 70
     1
102
RTVSPropertyOp51
 70
     0
102
RTVSPropertyOp52
 70
     0
102
RTVSPropertyOp53
 70
     1
102
RTVSPropertyOp54
 70
     1
102
RTVSPropertyOp55
 70
     1
102
RTVSPropertyOp56
 70
     1
102
RTVSPropertyOp57
 70
     1
102
RTVSPost2010Prop28
280
     1
102
RTVSPost2010PropOp28
 70
     1
102
RTVSPost2010Prop29
280
     1
102
RTVSPost2010PropOp29
 70
     1
102
RTVSPost2010Prop30
280
     0
102
RTVSPost2010PropOp30
 70
     1
102
RTVSPost2010Prop31
280
     0
102
RTVSPost2010PropOp31
 70
     1
102
RTVSPost2010Prop32
280
     0
102
RTVSPost2010PropOp32
 70
     1
102
RTVSPost2010Prop33
280
     0
102
RTVSPost2010PropOp33
 70
     1
102
RTVSPost2010Prop34
280
     0
102
RTVSPost2010PropOp34
 70
     1
102
RTVSPost2010Prop35
280
     0
102
RTVSPost2010PropOp35
 70
     1
102
RTVSPost2010Prop36
280
     0
102
RTVSPost2010PropOp36
 70
     1
102
RTVSPost2010Prop37
 90
       50
102
RTVSPost2010PropOp37
 70
     1
102
RTVSPost2010Prop38
140
0.0
102
RTVSPost2010PropOp38
 70
     1
102
RTVSPost2010Prop39
140
1.0
102
RTVSPost2010PropOp39
 70
     1
102
RTVSPost2010Prop40
 90
        0
102
RTVSPost2010PropOp40
 70
     1
102
RTVSPost2010Prop41ColorIndex
 90
       18
102
RTVSPost2010Prop41ColorRGB
 90
        0
102
RTVSPost2010PropOp41
 70
     1
102
RTVSPost2010Prop42
 90
       50
102
RTVSPost2010PropOp42
 70
     1
102
RTVSPost2010Prop43
 90
        3
102
RTVSPost2010PropOp43
 70
     1
102
RTVSPost2010Prop44ColorIndex
 90
        5
102
RTVSPost2010Prop44ColorRGB
 90
      255
102
RTVSPost2010PropOp44
 70
     1
102
RTVSPost2010Prop45
280
     0
102
RTVSPost2010PropOp45
 70
     1
102
RTVSPost2010Prop46
 90
       50
102
RTVSPost2010PropOp46
 70
     1
102
RTVSPost2010Prop47
 90
       50
102
RTVSPost2010PropOp47
 70
     1
102
RTVSPost2010Prop48
 90
       50
102
RTVSPost2010PropOp48
 70
     1
102
RTVSPost2010Prop49
280
     0
102
RTVSPost2010PropOp49
 70
     1
102
RTVSPost2010Prop50
 90
       50
102
RTVSPost2010PropOp50
 70
     1
102
RTVSPost2010Prop51ColorIndex
 90
      256
102
RTVSPost2010Prop51ColorRGB
 90
-16777216
102
RTVSPost2010PropOp51
 70
     0
102
RTVSPost2010Prop52
140
1.0
102
RTVSPost2010PropOp52
 70
     0
102
RTVSPost2010Prop53
 90
        2
102
RTVSPost2010PropOp53
 70
     1
102
RTVSPost2010Prop54
  1
strokes_ogs.tif
102
RTVSPost2010PropOp54
 70
     1
102
RTVSPost2010Prop55
280
     0
102
RTVSPost2010PropOp55
 70
     1
102
RTVSPost2010Prop56
140
1.0
102
RTVSPost2010PropOp56
 70
     1
102
RTVSPost2010Prop57
140
1.0
102
RTVSPost2010PropOp57
 70
     1
  0
XRECORD
  5
3A1
102
{ACAD_REACTORS
330
3A0
102
}
330
3A0
100
AcDbXrecord
280
     1
102
RTVSPropertyOp0
 70
     1
102
RTVSPropertyOp1
 70
     1
102
RTVSPropertyOp2
 70
     1
102
RTVSPropertyOp3
 70
     1
102
RTVSPropertyOp4
 70
     1
102
RTVSPropertyOp5
 70
     1
102
RTVSPropertyOp6
 70
     1
102
RTVSPropertyOp7
 70
     1
102
RTVSPropertyOp8
 70
     1
102
RTVSPropertyOp9
 70
     1
102
RTVSPropertyOp10
 70
     1
102
RTVSPropertyOp11
 70
     1
102
RTVSPropertyOp12
 70
     1
102
RTVSPropertyOp13
 70
     1
102
RTVSPropertyOp14
 70
     1
102
RTVSPropertyOp15
 70
     1
102
RTVSPropertyOp16
 70
     1
102
RTVSPropertyOp17
 70
     1
102
RTVSPropertyOp18
 70
     1
102
RTVSPropertyOp19
 70
     1
102
RTVSPropertyOp20
 70
     1
102
RTVSPropertyOp21
 70
     1
102
RTVSPropertyOp22
 70
     1
102
RTVSPropertyOp23
 70
     1
102
RTVSPropertyOp24
 70
     1
102
RTVSPropertyOp25
 70
     1
102
RTVSPropertyOp26
 70
     1
102
RTVSPropertyOp27
 70
     1
102
RTVSPropertyOp28
 70
     1
102
RTVSPropertyOp29
 70
     1
102
RTVSPropertyOp30
 70
     1
102
RTVSPropertyOp31
 70
     1
102
RTVSPropertyOp32
 70
     1
102
RTVSPropertyOp33
 70
     1
102
RTVSPropertyOp34
 70
     1
102
RTVSPropertyOp35
 70
     1
102
RTVSPropertyOp36
 70
     1
102
RTVSPropertyOp37
 70
     1
102
RTVSPropertyOp38
 70
     1
102
RTVSPropertyOp39
 70
     1
102
RTVSPropertyOp40
 70
     1
102
RTVSPropertyOp41
 70
     1
102
RTVSPropertyOp42
 70
     1
102
RTVSPropertyOp43
 70
     1
102
RTVSPropertyOp44
 70
     1
102
RTVSPropertyOp45
 70
     1
102
RTVSPropertyOp46
 70
     1
102
RTVSPropertyOp47
 70
     1
102
RTVSPropertyOp48
 70
     1
102
RTVSPropertyOp49
 70
     1
102
RTVSPropertyOp50
 70
     1
102
RTVSPropertyOp51
 70
     0
102
RTVSPropertyOp52
 70
     0
102
RTVSPropertyOp53
 70
     1
102
RTVSPropertyOp54
 70
     1
102
RTVSPropertyOp55
 70
     1
102
RTVSPropertyOp56
 70
     1
102
RTVSPropertyOp57
 70
     1
102
RTVSPost2010Prop28
280
     0
102
RTVSPost2010PropOp28
 70
     1
102
RTVSPost2010Prop29
280
     1
102
RTVSPost2010PropOp29
 70
     1
102
RTVSPost2010Prop30
280
     1
102
RTVSPost2010PropOp30
 70
     1
102
RTVSPost2010Prop31
280
     0
102
RTVSPost2010PropOp31
 70
     1
102
RTVSPost2010Prop32
280
     0
102
RTVSPost2010PropOp32
 70
     1
102
RTVSPost2010Prop33
280
     0
102
RTVSPost2010PropOp33
 70
     1
102
RTVSPost2010Prop34
280
     0
102
RTVSPost2010PropOp34
 70
     1
102
RTVSPost2010Prop35
280
     0
102
RTVSPost2010PropOp35
 70
     1
102
RTVSPost2010Prop36
280
     0
102
RTVSPost2010PropOp36
 70
     1
102
RTVSPost2010Prop37
 90
       50
102
RTVSPost2010PropOp37
 70
     1
102
RTVSPost2010Prop38
140
0.0
102
RTVSPost2010PropOp38
 70
     1
102
RTVSPost2010Prop39
140
1.0
102
RTVSPost2010PropOp39
 70
     1
102
RTVSPost2010Prop40
 90
        0
102
RTVSPost2010PropOp40
 70
     1
102
RTVSPost2010Prop41ColorIndex
 90
       18
102
RTVSPost2010Prop41ColorRGB
 90
        0
102
RTVSPost2010PropOp41
 70
     1
102
RTVSPost2010Prop42
 90
       50
102
RTVSPost2010PropOp42
 70
     1
102
RTVSPost2010Prop43
 90
        3
102
RTVSPost2010PropOp43
 70
     1
102
RTVSPost2010Prop44ColorIndex
 90
        5
102
RTVSPost2010Prop44ColorRGB
 90
      255
102
RTVSPost2010PropOp44
 70
     1
102
RTVSPost2010Prop45
280
     0
102
RTVSPost2010PropOp45
 70
     1
102
RTVSPost2010Prop46
 90
       50
102
RTVSPost2010PropOp46
 70
     1
102
RTVSPost2010Prop47
 90
       50
102
RTVSPost2010PropOp47
 70
     1
102
RTVSPost2010Prop48
 90
       50
102
RTVSPost2010PropOp48
 70
     1
102
RTVSPost2010Prop49
280
     0
102
RTVSPost2010PropOp49
 70
     1
102
RTVSPost2010Prop50
 90
       50
102
RTVSPost2010PropOp50
 70
     1
102
RTVSPost2010Prop51ColorIndex
 90
      256
102
RTVSPost2010Prop51ColorRGB
 90
-16777216
102
RTVSPost2010PropOp51
 70
     0
102
RTVSPost2010Prop52
140
1.0
102
RTVSPost2010PropOp52
 70
     0
102
RTVSPost2010Prop53
 90
        2
102
RTVSPost2010PropOp53
 70
     1
102
RTVSPost2010Prop54
  1
strokes_ogs.tif
102
RTVSPost2010PropOp54
 70
     1
102
RTVSPost2010Prop55
280
     0
102
RTVSPost2010PropOp55
 70
     1
102
RTVSPost2010Prop56
140
1.0
102
RTVSPost2010PropOp56
 70
     1
102
RTVSPost2010Prop57
140
1.0
102
RTVSPost2010PropOp57
 70
     1
  0
XRECORD
  5
3A9
102
{ACAD_REACTORS
330
3A8
102
}
330
3A8
100
AcDbXrecord
280
     1
102
RTVSPropertyOp0
 70
     1
102
RTVSPropertyOp1
 70
     1
102
RTVSPropertyOp2
 70
     1
102
RTVSPropertyOp3
 70
     1
102
RTVSPropertyOp4
 70
     1
102
RTVSPropertyOp5
 70
     1
102
RTVSPropertyOp6
 70
     1
102
RTVSPropertyOp7
 70
     1
102
RTVSPropertyOp8
 70
     1
102
RTVSPropertyOp9
 70
     1
102
RTVSPropertyOp10
 70
     1
102
RTVSPropertyOp11
 70
     1
102
RTVSPropertyOp12
 70
     1
102
RTVSPropertyOp13
 70
     1
102
RTVSPropertyOp14
 70
     1
102
RTVSPropertyOp15
 70
     1
102
RTVSPropertyOp16
 70
     1
102
RTVSPropertyOp17
 70
     1
102
RTVSPropertyOp18
 70
     1
102
RTVSPropertyOp19
 70
     1
102
RTVSPropertyOp20
 70
     1
102
RTVSPropertyOp21
 70
     1
102
RTVSPropertyOp22
 70
     1
102
RTVSPropertyOp23
 70
     1
102
RTVSPropertyOp24
 70
     1
102
RTVSPropertyOp25
 70
     1
102
RTVSPropertyOp26
 70
     1
102
RTVSPropertyOp27
 70
     1
102
RTVSPropertyOp28
 70
     1
102
RTVSPropertyOp29
 70
     1
102
RTVSPropertyOp30
 70
     1
102
RTVSPropertyOp31
 70
     1
102
RTVSPropertyOp32
 70
     1
102
RTVSPropertyOp33
 70
     1
102
RTVSPropertyOp34
 70
     1
102
RTVSPropertyOp35
 70
     1
102
RTVSPropertyOp36
 70
     1
102
RTVSPropertyOp37
 70
     1
102
RTVSPropertyOp38
 70
     1
102
RTVSPropertyOp39
 70
     1
102
RTVSPropertyOp40
 70
     1
102
RTVSPropertyOp41
 70
     1
102
RTVSPropertyOp42
 70
     1
102
RTVSPropertyOp43
 70
     1
102
RTVSPropertyOp44
 70
     1
102
RTVSPropertyOp45
 70
     1
102
RTVSPropertyOp46
 70
     1
102
RTVSPropertyOp47
 70
     1
102
RTVSPropertyOp48
 70
     1
102
RTVSPropertyOp49
 70
     1
102
RTVSPropertyOp50
 70
     1
102
RTVSPropertyOp51
 70
     0
102
RTVSPropertyOp52
 70
     0
102
RTVSPropertyOp53
 70
     1
102
RTVSPropertyOp54
 70
     1
102
RTVSPropertyOp55
 70
     1
102
RTVSPropertyOp56
 70
     1
102
RTVSPropertyOp57
 70
     1
102
RTVSPost2010Prop28
280
     0
102
RTVSPost2010PropOp28
 70
     1
102
RTVSPost2010Prop29
280
     1
102
RTVSPost2010PropOp29
 70
     1
102
RTVSPost2010Prop30
280
     1
102
RTVSPost2010PropOp30
 70
     1
102
RTVSPost2010Prop31
280
     0
102
RTVSPost2010PropOp31
 70
     1
102
RTVSPost2010Prop32
280
     0
102
RTVSPost2010PropOp32
 70
     1
102
RTVSPost2010Prop33
280
     0
102
RTVSPost2010PropOp33
 70
     1
102
RTVSPost2010Prop34
280
     0
102
RTVSPost2010PropOp34
 70
     1
102
RTVSPost2010Prop35
280
     0
102
RTVSPost2010PropOp35
 70
     1
102
RTVSPost2010Prop36
280
     0
102
RTVSPost2010PropOp36
 70
     1
102
RTVSPost2010Prop37
 90
       50
102
RTVSPost2010PropOp37
 70
     1
102
RTVSPost2010Prop38
140
0.0
102
RTVSPost2010PropOp38
 70
     1
102
RTVSPost2010Prop39
140
1.0
102
RTVSPost2010PropOp39
 70
     1
102
RTVSPost2010Prop40
 90
        0
102
RTVSPost2010PropOp40
 70
     1
102
RTVSPost2010Prop41ColorIndex
 90
       18
102
RTVSPost2010Prop41ColorRGB
 90
        0
102
RTVSPost2010PropOp41
 70
     1
102
RTVSPost2010Prop42
 90
       50
102
RTVSPost2010PropOp42
 70
     1
102
RTVSPost2010Prop43
 90
        3
102
RTVSPost2010PropOp43
 70
     1
102
RTVSPost2010Prop44ColorIndex
 90
        5
102
RTVSPost2010Prop44ColorRGB
 90
      255
102
RTVSPost2010PropOp44
 70
     1
102
RTVSPost2010Prop45
280
     0
102
RTVSPost2010PropOp45
 70
     1
102
RTVSPost2010Prop46
 90
       50
102
RTVSPost2010PropOp46
 70
     1
102
RTVSPost2010Prop47
 90
       50
102
RTVSPost2010PropOp47
 70
     1
102
RTVSPost2010Prop48
 90
       50
102
RTVSPost2010PropOp48
 70
     1
102
RTVSPost2010Prop49
280
     0
102
RTVSPost2010PropOp49
 70
     1
102
RTVSPost2010Prop50
 90
       50
102
RTVSPost2010PropOp50
 70
     1
102
RTVSPost2010Prop51ColorIndex
 90
      256
102
RTVSPost2010Prop51ColorRGB
 90
-16777216
102
RTVSPost2010PropOp51
 70
     0
102
RTVSPost2010Prop52
140
1.0
102
RTVSPost2010PropOp52
 70
     0
102
RTVSPost2010Prop53
 90
        2
102
RTVSPost2010PropOp53
 70
     1
102
RTVSPost2010Prop54
  1
strokes_ogs.tif
102
RTVSPost2010PropOp54
 70
     1
102
RTVSPost2010Prop55
280
     0
102
RTVSPost2010PropOp55
 70
     1
102
RTVSPost2010Prop56
140
1.0
102
RTVSPost2010PropOp56
 70
     1
102
RTVSPost2010Prop57
140
1.0
102
RTVSPost2010PropOp57
 70
     1
  0
XRECORD
  5
3B1
102
{ACAD_REACTORS
330
3B0
102
}
330
3B0
100
AcDbXrecord
280
     1
102
RTVSPropertyOp0
 70
     1
102
RTVSPropertyOp1
 70
     1
102
RTVSPropertyOp2
 70
     1
102
RTVSPropertyOp3
 70
     1
102
RTVSPropertyOp4
 70
     1
102
RTVSPropertyOp5
 70
     1
102
RTVSPropertyOp6
 70
     1
102
RTVSPropertyOp7
 70
     1
102
RTVSPropertyOp8
 70
     1
102
RTVSPropertyOp9
 70
     1
102
RTVSPropertyOp10
 70
     1
102
RTVSPropertyOp11
 70
     1
102
RTVSPropertyOp12
 70
     1
102
RTVSPropertyOp13
 70
     1
102
RTVSPropertyOp14
 70
     1
102
RTVSPropertyOp15
 70
     1
102
RTVSPropertyOp16
 70
     1
102
RTVSPropertyOp17
 70
     1
102
RTVSPropertyOp18
 70
     1
102
RTVSPropertyOp19
 70
     1
102
RTVSPropertyOp20
 70
     1
102
RTVSPropertyOp21
 70
     1
102
RTVSPropertyOp22
 70
     1
102
RTVSPropertyOp23
 70
     1
102
RTVSPropertyOp24
 70
     1
102
RTVSPropertyOp25
 70
     1
102
RTVSPropertyOp26
 70
     1
102
RTVSPropertyOp27
 70
     1
102
RTVSPropertyOp28
 70
     1
102
RTVSPropertyOp29
 70
     1
102
RTVSPropertyOp30
 70
     1
102
RTVSPropertyOp31
 70
     1
102
RTVSPropertyOp32
 70
     1
102
RTVSPropertyOp33
 70
     1
102
RTVSPropertyOp34
 70
     1
102
RTVSPropertyOp35
 70
     1
102
RTVSPropertyOp36
 70
     1
102
RTVSPropertyOp37
 70
     1
102
RTVSPropertyOp38
 70
     1
102
RTVSPropertyOp39
 70
     1
102
RTVSPropertyOp40
 70
     1
102
RTVSPropertyOp41
 70
     1
102
RTVSPropertyOp42
 70
     1
102
RTVSPropertyOp43
 70
     1
102
RTVSPropertyOp44
 70
     1
102
RTVSPropertyOp45
 70
     1
102
RTVSPropertyOp46
 70
     1
102
RTVSPropertyOp47
 70
     1
102
RTVSPropertyOp48
 70
     1
102
RTVSPropertyOp49
 70
     1
102
RTVSPropertyOp50
 70
     1
102
RTVSPropertyOp51
 70
     0
102
RTVSPropertyOp52
 70
     0
102
RTVSPropertyOp53
 70
     1
102
RTVSPropertyOp54
 70
     1
102
RTVSPropertyOp55
 70
     1
102
RTVSPropertyOp56
 70
     1
102
RTVSPropertyOp57
 70
     1
102
RTVSPost2010Prop28
280
     0
102
RTVSPost2010PropOp28
 70
     1
102
RTVSPost2010Prop29
280
     1
102
RTVSPost2010PropOp29
 70
     1
102
RTVSPost2010Prop30
280
     1
102
RTVSPost2010PropOp30
 70
     1
102
RTVSPost2010Prop31
280
     0
102
RTVSPost2010PropOp31
 70
     1
102
RTVSPost2010Prop32
280
     0
102
RTVSPost2010PropOp32
 70
     1
102
RTVSPost2010Prop33
280
     0
102
RTVSPost2010PropOp33
 70
     1
102
RTVSPost2010Prop34
280
     0
102
RTVSPost2010PropOp34
 70
     1
102
RTVSPost2010Prop35
280
     0
102
RTVSPost2010PropOp35
 70
     1
102
RTVSPost2010Prop36
280
     0
102
RTVSPost2010PropOp36
 70
     1
102
RTVSPost2010Prop37
 90
       50
102
RTVSPost2010PropOp37
 70
     1
102
RTVSPost2010Prop38
140
0.0
102
RTVSPost2010PropOp38
 70
     1
102
RTVSPost2010Prop39
140
1.0
102
RTVSPost2010PropOp39
 70
     1
102
RTVSPost2010Prop40
 90
        0
102
RTVSPost2010PropOp40
 70
     1
102
RTVSPost2010Prop41ColorIndex
 90
       18
102
RTVSPost2010Prop41ColorRGB
 90
        0
102
RTVSPost2010PropOp41
 70
     1
102
RTVSPost2010Prop42
 90
       50
102
RTVSPost2010PropOp42
 70
     1
102
RTVSPost2010Prop43
 90
        3
102
RTVSPost2010PropOp43
 70
     1
102
RTVSPost2010Prop44ColorIndex
 90
        5
102
RTVSPost2010Prop44ColorRGB
 90
      255
102
RTVSPost2010PropOp44
 70
     1
102
RTVSPost2010Prop45
280
     0
102
RTVSPost2010PropOp45
 70
     1
102
RTVSPost2010Prop46
 90
       50
102
RTVSPost2010PropOp46
 70
     1
102
RTVSPost2010Prop47
 90
       50
102
RTVSPost2010PropOp47
 70
     1
102
RTVSPost2010Prop48
 90
       50
102
RTVSPost2010PropOp48
 70
     1
102
RTVSPost2010Prop49
280
     0
102
RTVSPost2010PropOp49
 70
     1
102
RTVSPost2010Prop50
 90
       50
102
RTVSPost2010PropOp50
 70
     1
102
RTVSPost2010Prop51ColorIndex
 90
      256
102
RTVSPost2010Prop51ColorRGB
 90
-16777216
102
RTVSPost2010PropOp51
 70
     0
102
RTVSPost2010Prop52
140
1.0
102
RTVSPost2010PropOp52
 70
     0
102
RTVSPost2010Prop53
 90
        2
102
RTVSPost2010PropOp53
 70
     1
102
RTVSPost2010Prop54
  1
strokes_ogs.tif
102
RTVSPost2010PropOp54
 70
     1
102
RTVSPost2010Prop55
280
     0
102
RTVSPost2010PropOp55
 70
     1
102
RTVSPost2010Prop56
140
1.0
102
RTVSPost2010PropOp56
 70
     1
102
RTVSPost2010Prop57
140
1.0
102
RTVSPost2010PropOp57
 70
     1
  0
XRECORD
  5
3A5
102
{ACAD_REACTORS
330
3A4
102
}
330
3A4
100
AcDbXrecord
280
     1
102
RTVSPropertyOp0
 70
     1
102
RTVSPropertyOp1
 70
     1
102
RTVSPropertyOp2
 70
     1
102
RTVSPropertyOp3
 70
     1
102
RTVSPropertyOp4
 70
     1
102
RTVSPropertyOp5
 70
     1
102
RTVSPropertyOp6
 70
     1
102
RTVSPropertyOp7
 70
     1
102
RTVSPropertyOp8
 70
     1
102
RTVSPropertyOp9
 70
     1
102
RTVSPropertyOp10
 70
     1
102
RTVSPropertyOp11
 70
     1
102
RTVSPropertyOp12
 70
     1
102
RTVSPropertyOp13
 70
     1
102
RTVSPropertyOp14
 70
     1
102
RTVSPropertyOp15
 70
     1
102
RTVSPropertyOp16
 70
     1
102
RTVSPropertyOp17
 70
     1
102
RTVSPropertyOp18
 70
     1
102
RTVSPropertyOp19
 70
     1
102
RTVSPropertyOp20
 70
     1
102
RTVSPropertyOp21
 70
     1
102
RTVSPropertyOp22
 70
     1
102
RTVSPropertyOp23
 70
     1
102
RTVSPropertyOp24
 70
     1
102
RTVSPropertyOp25
 70
     1
102
RTVSPropertyOp26
 70
     1
102
RTVSPropertyOp27
 70
     1
102
RTVSPropertyOp28
 70
     1
102
RTVSPropertyOp29
 70
     1
102
RTVSPropertyOp30
 70
     1
102
RTVSPropertyOp31
 70
     1
102
RTVSPropertyOp32
 70
     1
102
RTVSPropertyOp33
 70
     1
102
RTVSPropertyOp34
 70
     1
102
RTVSPropertyOp35
 70
     1
102
RTVSPropertyOp36
 70
     1
102
RTVSPropertyOp37
 70
     1
102
RTVSPropertyOp38
 70
     1
102
RTVSPropertyOp39
 70
     1
102
RTVSPropertyOp40
 70
     1
102
RTVSPropertyOp41
 70
     1
102
RTVSPropertyOp42
 70
     1
102
RTVSPropertyOp43
 70
     1
102
RTVSPropertyOp44
 70
     1
102
RTVSPropertyOp45
 70
     1
102
RTVSPropertyOp46
 70
     1
102
RTVSPropertyOp47
 70
     1
102
RTVSPropertyOp48
 70
     1
102
RTVSPropertyOp49
 70
     1
102
RTVSPropertyOp50
 70
     1
102
RTVSPropertyOp51
 70
     0
102
RTVSPropertyOp52
 70
     0
102
RTVSPropertyOp53
 70
     1
102
RTVSPropertyOp54
 70
     1
102
RTVSPropertyOp55
 70
     1
102
RTVSPropertyOp56
 70
     1
102
RTVSPropertyOp57
 70
     1
102
RTVSPost2010Prop28
280
     0
102
RTVSPost2010PropOp28
 70
     1
102
RTVSPost2010Prop29
280
     1
102
RTVSPost2010PropOp29
 70
     1
102
RTVSPost2010Prop30
280
     1
102
RTVSPost2010PropOp30
 70
     1
102
RTVSPost2010Prop31
280
     0
102
RTVSPost2010PropOp31
 70
     1
102
RTVSPost2010Prop32
280
     0
102
RTVSPost2010PropOp32
 70
     1
102
RTVSPost2010Prop33
280
     0
102
RTVSPost2010PropOp33
 70
     1
102
RTVSPost2010Prop34
280
     0
102
RTVSPost2010PropOp34
 70
     1
102
RTVSPost2010Prop35
280
     0
102
RTVSPost2010PropOp35
 70
     1
102
RTVSPost2010Prop36
280
     0
102
RTVSPost2010PropOp36
 70
     1
102
RTVSPost2010Prop37
 90
       50
102
RTVSPost2010PropOp37
 70
     1
102
RTVSPost2010Prop38
140
0.0
102
RTVSPost2010PropOp38
 70
     1
102
RTVSPost2010Prop39
140
1.0
102
RTVSPost2010PropOp39
 70
     1
102
RTVSPost2010Prop40
 90
        0
102
RTVSPost2010PropOp40
 70
     1
102
RTVSPost2010Prop41ColorIndex
 90
       18
102
RTVSPost2010Prop41ColorRGB
 90
        0
102
RTVSPost2010PropOp41
 70
     1
102
RTVSPost2010Prop42
 90
       50
102
RTVSPost2010PropOp42
 70
     1
102
RTVSPost2010Prop43
 90
        3
102
RTVSPost2010PropOp43
 70
     1
102
RTVSPost2010Prop44ColorIndex
 90
        5
102
RTVSPost2010Prop44ColorRGB
 90
      255
102
RTVSPost2010PropOp44
 70
     1
102
RTVSPost2010Prop45
280
     0
102
RTVSPost2010PropOp45
 70
     1
102
RTVSPost2010Prop46
 90
       50
102
RTVSPost2010PropOp46
 70
     1
102
RTVSPost2010Prop47
 90
       50
102
RTVSPost2010PropOp47
 70
     1
102
RTVSPost2010Prop48
 90
       50
102
RTVSPost2010PropOp48
 70
     1
102
RTVSPost2010Prop49
280
     0
102
RTVSPost2010PropOp49
 70
     1
102
RTVSPost2010Prop50
 90
       50
102
RTVSPost2010PropOp50
 70
     1
102
RTVSPost2010Prop51ColorIndex
 90
      256
102
RTVSPost2010Prop51ColorRGB
 90
-16777216
102
RTVSPost2010PropOp51
 70
     0
102
RTVSPost2010Prop52
140
1.0
102
RTVSPost2010PropOp52
 70
     0
102
RTVSPost2010Prop53
 90
        2
102
RTVSPost2010PropOp53
 70
     1
102
RTVSPost2010Prop54
  1
strokes_ogs.tif
102
RTVSPost2010PropOp54
 70
     1
102
RTVSPost2010Prop55
280
     0
102
RTVSPost2010PropOp55
 70
     1
102
RTVSPost2010Prop56
140
1.0
102
RTVSPost2010PropOp56
 70
     1
102
RTVSPost2010Prop57
140
1.0
102
RTVSPost2010PropOp57
 70
     1
  0
XRECORD
  5
3A7
102
{ACAD_REACTORS
330
3A6
102
}
330
3A6
100
AcDbXrecord
280
     1
102
RTVSPropertyOp0
 70
     1
102
RTVSPropertyOp1
 70
     1
102
RTVSPropertyOp2
 70
     1
102
RTVSPropertyOp3
 70
     1
102
RTVSPropertyOp4
 70
     1
102
RTVSPropertyOp5
 70
     1
102
RTVSPropertyOp6
 70
     1
102
RTVSPropertyOp7
 70
     1
102
RTVSPropertyOp8
 70
     1
102
RTVSPropertyOp9
 70
     1
102
RTVSPropertyOp10
 70
     1
102
RTVSPropertyOp11
 70
     1
102
RTVSPropertyOp12
 70
     1
102
RTVSPropertyOp13
 70
     1
102
RTVSPropertyOp14
 70
     1
102
RTVSPropertyOp15
 70
     1
102
RTVSPropertyOp16
 70
     1
102
RTVSPropertyOp17
 70
     1
102
RTVSPropertyOp18
 70
     1
102
RTVSPropertyOp19
 70
     1
102
RTVSPropertyOp20
 70
     1
102
RTVSPropertyOp21
 70
     1
102
RTVSPropertyOp22
 70
     1
102
RTVSPropertyOp23
 70
     1
102
RTVSPropertyOp24
 70
     1
102
RTVSPropertyOp25
 70
     1
102
RTVSPropertyOp26
 70
     1
102
RTVSPropertyOp27
 70
     1
102
RTVSPropertyOp28
 70
     1
102
RTVSPropertyOp29
 70
     1
102
RTVSPropertyOp30
 70
     1
102
RTVSPropertyOp31
 70
     1
102
RTVSPropertyOp32
 70
     1
102
RTVSPropertyOp33
 70
     1
102
RTVSPropertyOp34
 70
     1
102
RTVSPropertyOp35
 70
     1
102
RTVSPropertyOp36
 70
     1
102
RTVSPropertyOp37
 70
     1
102
RTVSPropertyOp38
 70
     1
102
RTVSPropertyOp39
 70
     1
102
RTVSPropertyOp40
 70
     1
102
RTVSPropertyOp41
 70
     1
102
RTVSPropertyOp42
 70
     1
102
RTVSPropertyOp43
 70
     1
102
RTVSPropertyOp44
 70
     1
102
RTVSPropertyOp45
 70
     1
102
RTVSPropertyOp46
 70
     1
102
RTVSPropertyOp47
 70
     1
102
RTVSPropertyOp48
 70
     1
102
RTVSPropertyOp49
 70
     1
102
RTVSPropertyOp50
 70
     1
102
RTVSPropertyOp51
 70
     0
102
RTVSPropertyOp52
 70
     0
102
RTVSPropertyOp53
 70
     1
102
RTVSPropertyOp54
 70
     1
102
RTVSPropertyOp55
 70
     1
102
RTVSPropertyOp56
 70
     1
102
RTVSPropertyOp57
 70
     1
102
RTVSPost2010Prop28
280
     0
102
RTVSPost2010PropOp28
 70
     1
102
RTVSPost2010Prop29
280
     1
102
RTVSPost2010PropOp29
 70
     1
102
RTVSPost2010Prop30
280
     1
102
RTVSPost2010PropOp30
 70
     1
102
RTVSPost2010Prop31
280
     0
102
RTVSPost2010PropOp31
 70
     1
102
RTVSPost2010Prop32
280
     0
102
RTVSPost2010PropOp32
 70
     1
102
RTVSPost2010Prop33
280
     0
102
RTVSPost2010PropOp33
 70
     1
102
RTVSPost2010Prop34
280
     0
102
RTVSPost2010PropOp34
 70
     1
102
RTVSPost2010Prop35
280
     0
102
RTVSPost2010PropOp35
 70
     1
102
RTVSPost2010Prop36
280
     0
102
RTVSPost2010PropOp36
 70
     1
102
RTVSPost2010Prop37
 90
       50
102
RTVSPost2010PropOp37
 70
     1
102
RTVSPost2010Prop38
140
0.0
102
RTVSPost2010PropOp38
 70
     1
102
RTVSPost2010Prop39
140
1.0
102
RTVSPost2010PropOp39
 70
     1
102
RTVSPost2010Prop40
 90
        0
102
RTVSPost2010PropOp40
 70
     1
102
RTVSPost2010Prop41ColorIndex
 90
       18
102
RTVSPost2010Prop41ColorRGB
 90
        0
102
RTVSPost2010PropOp41
 70
     1
102
RTVSPost2010Prop42
 90
       50
102
RTVSPost2010PropOp42
 70
     1
102
RTVSPost2010Prop43
 90
        3
102
RTVSPost2010PropOp43
 70
     1
102
RTVSPost2010Prop44ColorIndex
 90
        5
102
RTVSPost2010Prop44ColorRGB
 90
      255
102
RTVSPost2010PropOp44
 70
     1
102
RTVSPost2010Prop45
280
     0
102
RTVSPost2010PropOp45
 70
     1
102
RTVSPost2010Prop46
 90
       50
102
RTVSPost2010PropOp46
 70
     1
102
RTVSPost2010Prop47
 90
       50
102
RTVSPost2010PropOp47
 70
     1
102
RTVSPost2010Prop48
 90
       50
102
RTVSPost2010PropOp48
 70
     1
102
RTVSPost2010Prop49
280
     0
102
RTVSPost2010PropOp49
 70
     1
102
RTVSPost2010Prop50
 90
       50
102
RTVSPost2010PropOp50
 70
     1
102
RTVSPost2010Prop51ColorIndex
 90
      256
102
RTVSPost2010Prop51ColorRGB
 90
-16777216
102
RTVSPost2010PropOp51
 70
     0
102
RTVSPost2010Prop52
140
1.0
102
RTVSPost2010PropOp52
 70
     0
102
RTVSPost2010Prop53
 90
        2
102
RTVSPost2010PropOp53
 70
     1
102
RTVSPost2010Prop54
  1
strokes_ogs.tif
102
RTVSPost2010PropOp54
 70
     1
102
RTVSPost2010Prop55
280
     0
102
RTVSPost2010PropOp55
 70
     1
102
RTVSPost2010Prop56
140
1.0
102
RTVSPost2010PropOp56
 70
     1
102
RTVSPost2010Prop57
140
1.0
102
RTVSPost2010PropOp57
 70
     1
  0
XRECORD
  5
3B7
102
{ACAD_REACTORS
330
3B6
102
}
330
3B6
100
AcDbXrecord
280
     1
102
RTVSPropertyOp0
 70
     0
102
RTVSPropertyOp1
 70
     0
102
RTVSPropertyOp2
 70
     0
102
RTVSPropertyOp3
 70
     0
102
RTVSPropertyOp4
 70
     0
102
RTVSPropertyOp5
 70
     0
102
RTVSPropertyOp6
 70
     0
102
RTVSPropertyOp7
 70
     0
102
RTVSPropertyOp8
 70
     0
102
RTVSPropertyOp9
 70
     0
102
RTVSPropertyOp10
 70
     0
102
RTVSPropertyOp11
 70
     0
102
RTVSPropertyOp12
 70
     0
102
RTVSPropertyOp13
 70
     0
102
RTVSPropertyOp14
 70
     2
102
RTVSPropertyOp15
 70
     0
102
RTVSPropertyOp16
 70
     0
102
RTVSPropertyOp17
 70
     0
102
RTVSPropertyOp18
 70
     0
102
RTVSPropertyOp19
 70
     0
102
RTVSPropertyOp20
 70
     0
102
RTVSPropertyOp21
 70
     0
102
RTVSPropertyOp22
 70
     0
102
RTVSPropertyOp23
 70
     0
102
RTVSPropertyOp24
 70
     0
102
RTVSPropertyOp25
 70
     0
102
RTVSPropertyOp26
 70
     0
102
RTVSPropertyOp27
 70
     0
102
RTVSPropertyOp28
 70
     0
102
RTVSPropertyOp29
 70
     0
102
RTVSPropertyOp30
 70
     0
102
RTVSPropertyOp31
 70
     0
102
RTVSPropertyOp32
 70
     0
102
RTVSPropertyOp33
 70
     0
102
RTVSPropertyOp34
 70
     0
102
RTVSPropertyOp35
 70
     0
102
RTVSPropertyOp36
 70
     0
102
RTVSPropertyOp37
 70
     0
102
RTVSPropertyOp38
 70
     0
102
RTVSPropertyOp39
 70
     0
102
RTVSPropertyOp40
 70
     0
102
RTVSPropertyOp41
 70
     0
102
RTVSPropertyOp42
 70
     0
102
RTVSPropertyOp43
 70
     0
102
RTVSPropertyOp44
 70
     0
102
RTVSPropertyOp45
 70
     0
102
RTVSPropertyOp46
 70
     0
102
RTVSPropertyOp47
 70
     0
102
RTVSPropertyOp48
 70
     0
102
RTVSPropertyOp49
 70
     0
102
RTVSPropertyOp50
 70
     0
102
RTVSPropertyOp51
 70
     0
102
RTVSPropertyOp52
 70
     0
102
RTVSPropertyOp53
 70
     0
102
RTVSPropertyOp54
 70
     0
102
RTVSPropertyOp55
 70
     0
102
RTVSPropertyOp56
 70
     0
102
RTVSPropertyOp57
 70
     0
102
RTVSPost2010Prop28
280
     0
102
RTVSPost2010PropOp28
 70
     0
102
RTVSPost2010Prop29
280
     1
102
RTVSPost2010PropOp29
 70
     0
102
RTVSPost2010Prop30
280
     1
102
RTVSPost2010PropOp30
 70
     0
102
RTVSPost2010Prop31
280
     0
102
RTVSPost2010PropOp31
 70
     0
102
RTVSPost2010Prop32
280
     0
102
RTVSPost2010PropOp32
 70
     0
102
RTVSPost2010Prop33
280
     0
102
RTVSPost2010PropOp33
 70
     0
102
RTVSPost2010Prop34
280
     0
102
RTVSPost2010PropOp34
 70
     0
102
RTVSPost2010Prop35
280
     0
102
RTVSPost2010PropOp35
 70
     0
102
RTVSPost2010Prop36
280
     0
102
RTVSPost2010PropOp36
 70
     0
102
RTVSPost2010Prop37
 90
       50
102
RTVSPost2010PropOp37
 70
     0
102
RTVSPost2010Prop38
140
0.0
102
RTVSPost2010PropOp38
 70
     0
102
RTVSPost2010Prop39
140
1.0
102
RTVSPost2010PropOp39
 70
     0
102
RTVSPost2010Prop40
 90
        0
102
RTVSPost2010PropOp40
 70
     0
102
RTVSPost2010Prop41ColorIndex
 90
       18
102
RTVSPost2010Prop41ColorRGB
 90
        0
102
RTVSPost2010PropOp41
 70
     0
102
RTVSPost2010Prop42
 90
       50
102
RTVSPost2010PropOp42
 70
     0
102
RTVSPost2010Prop43
 90
        3
102
RTVSPost2010PropOp43
 70
     0
102
RTVSPost2010Prop44ColorIndex
 90
        5
102
RTVSPost2010Prop44ColorRGB
 90
      255
102
RTVSPost2010PropOp44
 70
     0
102
RTVSPost2010Prop45
280
     0
102
RTVSPost2010PropOp45
 70
     0
102
RTVSPost2010Prop46
 90
       50
102
RTVSPost2010PropOp46
 70
     0
102
RTVSPost2010Prop47
 90
       50
102
RTVSPost2010PropOp47
 70
     0
102
RTVSPost2010Prop48
 90
       50
102
RTVSPost2010PropOp48
 70
     0
102
RTVSPost2010Prop49
280
     0
102
RTVSPost2010PropOp49
 70
     0
102
RTVSPost2010Prop50
 90
       50
102
RTVSPost2010PropOp50
 70
     0
102
RTVSPost2010Prop51ColorIndex
 90
      256
102
RTVSPost2010Prop51ColorRGB
 90
-16777216
102
RTVSPost2010PropOp51
 70
     0
102
RTVSPost2010Prop52
140
1.0
102
RTVSPost2010PropOp52
 70
     0
102
RTVSPost2010Prop53
 90
        2
102
RTVSPost2010PropOp53
 70
     0
102
RTVSPost2010Prop54
  1
strokes_ogs.tif
102
RTVSPost2010PropOp54
 70
     0
102
RTVSPost2010Prop55
280
     0
102
RTVSPost2010PropOp55
 70
     0
102
RTVSPost2010Prop56
140
1.0
102
RTVSPost2010PropOp56
 70
     0
102
RTVSPost2010Prop57
140
1.0
102
RTVSPost2010PropOp57
 70
     0
  0
XRECORD
  5
3AF
102
{ACAD_REACTORS
330
3AE
102
}
330
3AE
100
AcDbXrecord
280
     1
102
RTVSPropertyOp0
 70
     1
102
RTVSPropertyOp1
 70
     1
102
RTVSPropertyOp2
 70
     1
102
RTVSPropertyOp3
 70
     1
102
RTVSPropertyOp4
 70
     1
102
RTVSPropertyOp5
 70
     1
102
RTVSPropertyOp6
 70
     1
102
RTVSPropertyOp7
 70
     1
102
RTVSPropertyOp8
 70
     1
102
RTVSPropertyOp9
 70
     1
102
RTVSPropertyOp10
 70
     1
102
RTVSPropertyOp11
 70
     1
102
RTVSPropertyOp12
 70
     1
102
RTVSPropertyOp13
 70
     1
102
RTVSPropertyOp14
 70
     1
102
RTVSPropertyOp15
 70
     1
102
RTVSPropertyOp16
 70
     1
102
RTVSPropertyOp17
 70
     1
102
RTVSPropertyOp18
 70
     1
102
RTVSPropertyOp19
 70
     1
102
RTVSPropertyOp20
 70
     1
102
RTVSPropertyOp21
 70
     1
102
RTVSPropertyOp22
 70
     1
102
RTVSPropertyOp23
 70
     1
102
RTVSPropertyOp24
 70
     1
102
RTVSPropertyOp25
 70
     1
102
RTVSPropertyOp26
 70
     1
102
RTVSPropertyOp27
 70
     1
102
RTVSPropertyOp28
 70
     1
102
RTVSPropertyOp29
 70
     1
102
RTVSPropertyOp30
 70
     1
102
RTVSPropertyOp31
 70
     1
102
RTVSPropertyOp32
 70
     1
102
RTVSPropertyOp33
 70
     1
102
RTVSPropertyOp34
 70
     1
102
RTVSPropertyOp35
 70
     1
102
RTVSPropertyOp36
 70
     1
102
RTVSPropertyOp37
 70
     1
102
RTVSPropertyOp38
 70
     1
102
RTVSPropertyOp39
 70
     1
102
RTVSPropertyOp40
 70
     1
102
RTVSPropertyOp41
 70
     1
102
RTVSPropertyOp42
 70
     1
102
RTVSPropertyOp43
 70
     1
102
RTVSPropertyOp44
 70
     1
102
RTVSPropertyOp45
 70
     1
102
RTVSPropertyOp46
 70
     1
102
RTVSPropertyOp47
 70
     1
102
RTVSPropertyOp48
 70
     1
102
RTVSPropertyOp49
 70
     1
102
RTVSPropertyOp50
 70
     1
102
RTVSPropertyOp51
 70
     0
102
RTVSPropertyOp52
 70
     0
102
RTVSPropertyOp53
 70
     1
102
RTVSPropertyOp54
 70
     1
102
RTVSPropertyOp55
 70
     1
102
RTVSPropertyOp56
 70
     1
102
RTVSPropertyOp57
 70
     1
102
RTVSPost2010Prop28
280
     0
102
RTVSPost2010PropOp28
 70
     1
102
RTVSPost2010Prop29
280
     1
102
RTVSPost2010PropOp29
 70
     1
102
RTVSPost2010Prop30
280
     1
102
RTVSPost2010PropOp30
 70
     1
102
RTVSPost2010Prop31
280
     0
102
RTVSPost2010PropOp31
 70
     1
102
RTVSPost2010Prop32
280
     0
102
RTVSPost2010PropOp32
 70
     1
102
RTVSPost2010Prop33
280
     0
102
RTVSPost2010PropOp33
 70
     1
102
RTVSPost2010Prop34
280
     0
102
RTVSPost2010PropOp34
 70
     1
102
RTVSPost2010Prop35
280
     0
102
RTVSPost2010PropOp35
 70
     1
102
RTVSPost2010Prop36
280
     0
102
RTVSPost2010PropOp36
 70
     1
102
RTVSPost2010Prop37
 90
       50
102
RTVSPost2010PropOp37
 70
     1
102
RTVSPost2010Prop38
140
0.0
102
RTVSPost2010PropOp38
 70
     1
102
RTVSPost2010Prop39
140
1.0
102
RTVSPost2010PropOp39
 70
     1
102
RTVSPost2010Prop40
 90
        0
102
RTVSPost2010PropOp40
 70
     1
102
RTVSPost2010Prop41ColorIndex
 90
       18
102
RTVSPost2010Prop41ColorRGB
 90
        0
102
RTVSPost2010PropOp41
 70
     1
102
RTVSPost2010Prop42
 90
       50
102
RTVSPost2010PropOp42
 70
     1
102
RTVSPost2010Prop43
 90
        3
102
RTVSPost2010PropOp43
 70
     1
102
RTVSPost2010Prop44ColorIndex
 90
        5
102
RTVSPost2010Prop44ColorRGB
 90
      255
102
RTVSPost2010PropOp44
 70
     1
102
RTVSPost2010Prop45
280
     0
102
RTVSPost2010PropOp45
 70
     1
102
RTVSPost2010Prop46
 90
       50
102
RTVSPost2010PropOp46
 70
     1
102
RTVSPost2010Prop47
 90
       50
102
RTVSPost2010PropOp47
 70
     1
102
RTVSPost2010Prop48
 90
       50
102
RTVSPost2010PropOp48
 70
     1
102
RTVSPost2010Prop49
280
     0
102
RTVSPost2010PropOp49
 70
     1
102
RTVSPost2010Prop50
 90
       50
102
RTVSPost2010PropOp50
 70
     1
102
RTVSPost2010Prop51ColorIndex
 90
      256
102
RTVSPost2010Prop51ColorRGB
 90
-16777216
102
RTVSPost2010PropOp51
 70
     0
102
RTVSPost2010Prop52
140
1.0
102
RTVSPost2010PropOp52
 70
     0
102
RTVSPost2010Prop53
 90
        2
102
RTVSPost2010PropOp53
 70
     1
102
RTVSPost2010Prop54
  1
strokes_ogs.tif
102
RTVSPost2010PropOp54
 70
     1
102
RTVSPost2010Prop55
280
     0
102
RTVSPost2010PropOp55
 70
     1
102
RTVSPost2010Prop56
140
1.0
102
RTVSPost2010PropOp56
 70
     1
102
RTVSPost2010Prop57
140
1.0
102
RTVSPost2010PropOp57
 70
     1
  0
XRECORD
  5
393
102
{ACAD_REACTORS
330
392
102
}
330
392
100
AcDbXrecord
280
     1
102
RTVSPropertyOp0
 70
     1
102
RTVSPropertyOp1
 70
     1
102
RTVSPropertyOp2
 70
     1
102
RTVSPropertyOp3
 70
     1
102
RTVSPropertyOp4
 70
     1
102
RTVSPropertyOp5
 70
     1
102
RTVSPropertyOp6
 70
     1
102
RTVSPropertyOp7
 70
     1
102
RTVSPropertyOp8
 70
     1
102
RTVSPropertyOp9
 70
     1
102
RTVSPropertyOp10
 70
     1
102
RTVSPropertyOp11
 70
     1
102
RTVSPropertyOp12
 70
     1
102
RTVSPropertyOp13
 70
     1
102
RTVSPropertyOp14
 70
     1
102
RTVSPropertyOp15
 70
     1
102
RTVSPropertyOp16
 70
     1
102
RTVSPropertyOp17
 70
     1
102
RTVSPropertyOp18
 70
     1
102
RTVSPropertyOp19
 70
     1
102
RTVSPropertyOp20
 70
     1
102
RTVSPropertyOp21
 70
     1
102
RTVSPropertyOp22
 70
     1
102
RTVSPropertyOp23
 70
     1
102
RTVSPropertyOp24
 70
     1
102
RTVSPropertyOp25
 70
     1
102
RTVSPropertyOp26
 70
     1
102
RTVSPropertyOp27
 70
     1
102
RTVSPropertyOp28
 70
     1
102
RTVSPropertyOp29
 70
     1
102
RTVSPropertyOp30
 70
     1
102
RTVSPropertyOp31
 70
     1
102
RTVSPropertyOp32
 70
     1
102
RTVSPropertyOp33
 70
     1
102
RTVSPropertyOp34
 70
     1
102
RTVSPropertyOp35
 70
     1
102
RTVSPropertyOp36
 70
     1
102
RTVSPropertyOp37
 70
     1
102
RTVSPropertyOp38
 70
     1
102
RTVSPropertyOp39
 70
     1
102
RTVSPropertyOp40
 70
     1
102
RTVSPropertyOp41
 70
     1
102
RTVSPropertyOp42
 70
     1
102
RTVSPropertyOp43
 70
     1
102
RTVSPropertyOp44
 70
     1
102
RTVSPropertyOp45
 70
     1
102
RTVSPropertyOp46
 70
     1
102
RTVSPropertyOp47
 70
     1
102
RTVSPropertyOp48
 70
     1
102
RTVSPropertyOp49
 70
     1
102
RTVSPropertyOp50
 70
     1
102
RTVSPropertyOp51
 70
     0
102
RTVSPropertyOp52
 70
     0
102
RTVSPropertyOp53
 70
     1
102
RTVSPropertyOp54
 70
     1
102
RTVSPropertyOp55
 70
     1
102
RTVSPropertyOp56
 70
     1
102
RTVSPropertyOp57
 70
     1
102
RTVSPost2010Prop28
280
     0
102
RTVSPost2010PropOp28
 70
     1
102
RTVSPost2010Prop29
280
     1
102
RTVSPost2010PropOp29
 70
     1
102
RTVSPost2010Prop30
280
     1
102
RTVSPost2010PropOp30
 70
     1
102
RTVSPost2010Prop31
280
     0
102
RTVSPost2010PropOp31
 70
     1
102
RTVSPost2010Prop32
280
     0
102
RTVSPost2010PropOp32
 70
     1
102
RTVSPost2010Prop33
280
     0
102
RTVSPost2010PropOp33
 70
     1
102
RTVSPost2010Prop34
280
     0
102
RTVSPost2010PropOp34
 70
     1
102
RTVSPost2010Prop35
280
     0
102
RTVSPost2010PropOp35
 70
     1
102
RTVSPost2010Prop36
280
     0
102
RTVSPost2010PropOp36
 70
     1
102
RTVSPost2010Prop37
 90
       50
102
RTVSPost2010PropOp37
 70
     1
102
RTVSPost2010Prop38
140
0.0
102
RTVSPost2010PropOp38
 70
     1
102
RTVSPost2010Prop39
140
1.0
102
RTVSPost2010PropOp39
 70
     1
102
RTVSPost2010Prop40
 90
        0
102
RTVSPost2010PropOp40
 70
     1
102
RTVSPost2010Prop41ColorIndex
 90
       18
102
RTVSPost2010Prop41ColorRGB
 90
        0
102
RTVSPost2010PropOp41
 70
     1
102
RTVSPost2010Prop42
 90
       50
102
RTVSPost2010PropOp42
 70
     1
102
RTVSPost2010Prop43
 90
        3
102
RTVSPost2010PropOp43
 70
     1
102
RTVSPost2010Prop44ColorIndex
 90
        5
102
RTVSPost2010Prop44ColorRGB
 90
      255
102
RTVSPost2010PropOp44
 70
     1
102
RTVSPost2010Prop45
280
     0
102
RTVSPost2010PropOp45
 70
     1
102
RTVSPost2010Prop46
 90
       50
102
RTVSPost2010PropOp46
 70
     1
102
RTVSPost2010Prop47
 90
       50
102
RTVSPost2010PropOp47
 70
     1
102
RTVSPost2010Prop48
 90
       50
102
RTVSPost2010PropOp48
 70
     1
102
RTVSPost2010Prop49
280
     0
102
RTVSPost2010PropOp49
 70
     1
102
RTVSPost2010Prop50
 90
       50
102
RTVSPost2010PropOp50
 70
     1
102
RTVSPost2010Prop51ColorIndex
 90
      256
102
RTVSPost2010Prop51ColorRGB
 90
-16777216
102
RTVSPost2010PropOp51
 70
     0
102
RTVSPost2010Prop52
140
1.0
102
RTVSPost2010PropOp52
 70
     0
102
RTVSPost2010Prop53
 90
        2
102
RTVSPost2010PropOp53
 70
     1
102
RTVSPost2010Prop54
  1
strokes_ogs.tif
102
RTVSPost2010PropOp54
 70
     1
102
RTVSPost2010Prop55
280
     0
102
RTVSPost2010PropOp55
 70
     1
102
RTVSPost2010Prop56
140
1.0
102
RTVSPost2010PropOp56
 70
     1
102
RTVSPost2010Prop57
140
1.0
102
RTVSPost2010PropOp57
 70
     1
  0
XRECORD
  5
395
102
{ACAD_REACTORS
330
394
102
}
330
394
100
AcDbXrecord
280
     1
102
RTVSPropertyOp0
 70
     1
102
RTVSPropertyOp1
 70
     1
102
RTVSPropertyOp2
 70
     1
102
RTVSPropertyOp3
 70
     1
102
RTVSPropertyOp4
 70
     1
102
RTVSPropertyOp5
 70
     1
102
RTVSPropertyOp6
 70
     1
102
RTVSPropertyOp7
 70
     1
102
RTVSPropertyOp8
 70
     1
102
RTVSPropertyOp9
 70
     1
102
RTVSPropertyOp10
 70
     1
102
RTVSPropertyOp11
 70
     1
102
RTVSPropertyOp12
 70
     1
102
RTVSPropertyOp13
 70
     1
102
RTVSPropertyOp14
 70
     1
102
RTVSPropertyOp15
 70
     1
102
RTVSPropertyOp16
 70
     1
102
RTVSPropertyOp17
 70
     1
102
RTVSPropertyOp18
 70
     1
102
RTVSPropertyOp19
 70
     1
102
RTVSPropertyOp20
 70
     1
102
RTVSPropertyOp21
 70
     1
102
RTVSPropertyOp22
 70
     1
102
RTVSPropertyOp23
 70
     1
102
RTVSPropertyOp24
 70
     1
102
RTVSPropertyOp25
 70
     1
102
RTVSPropertyOp26
 70
     1
102
RTVSPropertyOp27
 70
     1
102
RTVSPropertyOp28
 70
     1
102
RTVSPropertyOp29
 70
     1
102
RTVSPropertyOp30
 70
     1
102
RTVSPropertyOp31
 70
     1
102
RTVSPropertyOp32
 70
     1
102
RTVSPropertyOp33
 70
     1
102
RTVSPropertyOp34
 70
     1
102
RTVSPropertyOp35
 70
     1
102
RTVSPropertyOp36
 70
     1
102
RTVSPropertyOp37
 70
     1
102
RTVSPropertyOp38
 70
     1
102
RTVSPropertyOp39
 70
     1
102
RTVSPropertyOp40
 70
     1
102
RTVSPropertyOp41
 70
     1
102
RTVSPropertyOp42
 70
     1
102
RTVSPropertyOp43
 70
     1
102
RTVSPropertyOp44
 70
     1
102
RTVSPropertyOp45
 70
     1
102
RTVSPropertyOp46
 70
     1
102
RTVSPropertyOp47
 70
     1
102
RTVSPropertyOp48
 70
     1
102
RTVSPropertyOp49
 70
     1
102
RTVSPropertyOp50
 70
     1
102
RTVSPropertyOp51
 70
     0
102
RTVSPropertyOp52
 70
     0
102
RTVSPropertyOp53
 70
     1
102
RTVSPropertyOp54
 70
     1
102
RTVSPropertyOp55
 70
     1
102
RTVSPropertyOp56
 70
     1
102
RTVSPropertyOp57
 70
     1
102
RTVSPost2010Prop28
280
     0
102
RTVSPost2010PropOp28
 70
     1
102
RTVSPost2010Prop29
280
     1
102
RTVSPost2010PropOp29
 70
     1
102
RTVSPost2010Prop30
280
     1
102
RTVSPost2010PropOp30
 70
     1
102
RTVSPost2010Prop31
280
     0
102
RTVSPost2010PropOp31
 70
     1
102
RTVSPost2010Prop32
280
     0
102
RTVSPost2010PropOp32
 70
     1
102
RTVSPost2010Prop33
280
     0
102
RTVSPost2010PropOp33
 70
     1
102
RTVSPost2010Prop34
280
     0
102
RTVSPost2010PropOp34
 70
     1
102
RTVSPost2010Prop35
280
     0
102
RTVSPost2010PropOp35
 70
     1
102
RTVSPost2010Prop36
280
     0
102
RTVSPost2010PropOp36
 70
     1
102
RTVSPost2010Prop37
 90
       50
102
RTVSPost2010PropOp37
 70
     1
102
RTVSPost2010Prop38
140
0.0
102
RTVSPost2010PropOp38
 70
     1
102
RTVSPost2010Prop39
140
1.0
102
RTVSPost2010PropOp39
 70
     1
102
RTVSPost2010Prop40
 90
        0
102
RTVSPost2010PropOp40
 70
     1
102
RTVSPost2010Prop41ColorIndex
 90
       18
102
RTVSPost2010Prop41ColorRGB
 90
        0
102
RTVSPost2010PropOp41
 70
     1
102
RTVSPost2010Prop42
 90
       50
102
RTVSPost2010PropOp42
 70
     1
102
RTVSPost2010Prop43
 90
        3
102
RTVSPost2010PropOp43
 70
     1
102
RTVSPost2010Prop44ColorIndex
 90
        5
102
RTVSPost2010Prop44ColorRGB
 90
      255
102
RTVSPost2010PropOp44
 70
     1
102
RTVSPost2010Prop45
280
     0
102
RTVSPost2010PropOp45
 70
     1
102
RTVSPost2010Prop46
 90
       50
102
RTVSPost2010PropOp46
 70
     1
102
RTVSPost2010Prop47
 90
       50
102
RTVSPost2010PropOp47
 70
     1
102
RTVSPost2010Prop48
 90
       50
102
RTVSPost2010PropOp48
 70
     1
102
RTVSPost2010Prop49
280
     0
102
RTVSPost2010PropOp49
 70
     1
102
RTVSPost2010Prop50
 90
       50
102
RTVSPost2010PropOp50
 70
     1
102
RTVSPost2010Prop51ColorIndex
 90
      256
102
RTVSPost2010Prop51ColorRGB
 90
-16777216
102
RTVSPost2010PropOp51
 70
     0
102
RTVSPost2010Prop52
140
1.0
102
RTVSPost2010PropOp52
 70
     0
102
RTVSPost2010Prop53
 90
        2
102
RTVSPost2010PropOp53
 70
     1
102
RTVSPost2010Prop54
  1
strokes_ogs.tif
102
RTVSPost2010PropOp54
 70
     1
102
RTVSPost2010Prop55
280
     0
102
RTVSPost2010PropOp55
 70
     1
102
RTVSPost2010Prop56
140
1.0
102
RTVSPost2010PropOp56
 70
     1
102
RTVSPost2010Prop57
140
1.0
102
RTVSPost2010PropOp57
 70
     1
  0
XRECORD
  5
397
102
{ACAD_REACTORS
330
396
102
}
330
396
100
AcDbXrecord
280
     1
102
RTVSPropertyOp0
 70
     1
102
RTVSPropertyOp1
 70
     1
102
RTVSPropertyOp2
 70
     1
102
RTVSPropertyOp3
 70
     1
102
RTVSPropertyOp4
 70
     1
102
RTVSPropertyOp5
 70
     1
102
RTVSPropertyOp6
 70
     1
102
RTVSPropertyOp7
 70
     1
102
RTVSPropertyOp8
 70
     1
102
RTVSPropertyOp9
 70
     1
102
RTVSPropertyOp10
 70
     1
102
RTVSPropertyOp11
 70
     1
102
RTVSPropertyOp12
 70
     1
102
RTVSPropertyOp13
 70
     1
102
RTVSPropertyOp14
 70
     1
102
RTVSPropertyOp15
 70
     1
102
RTVSPropertyOp16
 70
     1
102
RTVSPropertyOp17
 70
     1
102
RTVSPropertyOp18
 70
     1
102
RTVSPropertyOp19
 70
     1
102
RTVSPropertyOp20
 70
     1
102
RTVSPropertyOp21
 70
     1
102
RTVSPropertyOp22
 70
     1
102
RTVSPropertyOp23
 70
     1
102
RTVSPropertyOp24
 70
     1
102
RTVSPropertyOp25
 70
     1
102
RTVSPropertyOp26
 70
     1
102
RTVSPropertyOp27
 70
     1
102
RTVSPropertyOp28
 70
     1
102
RTVSPropertyOp29
 70
     1
102
RTVSPropertyOp30
 70
     1
102
RTVSPropertyOp31
 70
     1
102
RTVSPropertyOp32
 70
     1
102
RTVSPropertyOp33
 70
     1
102
RTVSPropertyOp34
 70
     1
102
RTVSPropertyOp35
 70
     1
102
RTVSPropertyOp36
 70
     1
102
RTVSPropertyOp37
 70
     1
102
RTVSPropertyOp38
 70
     1
102
RTVSPropertyOp39
 70
     1
102
RTVSPropertyOp40
 70
     1
102
RTVSPropertyOp41
 70
     1
102
RTVSPropertyOp42
 70
     1
102
RTVSPropertyOp43
 70
     1
102
RTVSPropertyOp44
 70
     1
102
RTVSPropertyOp45
 70
     1
102
RTVSPropertyOp46
 70
     1
102
RTVSPropertyOp47
 70
     1
102
RTVSPropertyOp48
 70
     1
102
RTVSPropertyOp49
 70
     1
102
RTVSPropertyOp50
 70
     1
102
RTVSPropertyOp51
 70
     0
102
RTVSPropertyOp52
 70
     0
102
RTVSPropertyOp53
 70
     1
102
RTVSPropertyOp54
 70
     1
102
RTVSPropertyOp55
 70
     1
102
RTVSPropertyOp56
 70
     1
102
RTVSPropertyOp57
 70
     1
102
RTVSPost2010Prop28
280
     0
102
RTVSPost2010PropOp28
 70
     1
102
RTVSPost2010Prop29
280
     1
102
RTVSPost2010PropOp29
 70
     1
102
RTVSPost2010Prop30
280
     1
102
RTVSPost2010PropOp30
 70
     1
102
RTVSPost2010Prop31
280
     0
102
RTVSPost2010PropOp31
 70
     1
102
RTVSPost2010Prop32
280
     0
102
RTVSPost2010PropOp32
 70
     1
102
RTVSPost2010Prop33
280
     0
102
RTVSPost2010PropOp33
 70
     1
102
RTVSPost2010Prop34
280
     0
102
RTVSPost2010PropOp34
 70
     1
102
RTVSPost2010Prop35
280
     0
102
RTVSPost2010PropOp35
 70
     1
102
RTVSPost2010Prop36
280
     0
102
RTVSPost2010PropOp36
 70
     1
102
RTVSPost2010Prop37
 90
       50
102
RTVSPost2010PropOp37
 70
     1
102
RTVSPost2010Prop38
140
0.0
102
RTVSPost2010PropOp38
 70
     1
102
RTVSPost2010Prop39
140
1.0
102
RTVSPost2010PropOp39
 70
     1
102
RTVSPost2010Prop40
 90
        0
102
RTVSPost2010PropOp40
 70
     1
102
RTVSPost2010Prop41ColorIndex
 90
       18
102
RTVSPost2010Prop41ColorRGB
 90
        0
102
RTVSPost2010PropOp41
 70
     1
102
RTVSPost2010Prop42
 90
       50
102
RTVSPost2010PropOp42
 70
     1
102
RTVSPost2010Prop43
 90
        3
102
RTVSPost2010PropOp43
 70
     1
102
RTVSPost2010Prop44ColorIndex
 90
        5
102
RTVSPost2010Prop44ColorRGB
 90
      255
102
RTVSPost2010PropOp44
 70
     1
102
RTVSPost2010Prop45
280
     0
102
RTVSPost2010PropOp45
 70
     1
102
RTVSPost2010Prop46
 90
       50
102
RTVSPost2010PropOp46
 70
     1
102
RTVSPost2010Prop47
 90
       50
102
RTVSPost2010PropOp47
 70
     1
102
RTVSPost2010Prop48
 90
       50
102
RTVSPost2010PropOp48
 70
     1
102
RTVSPost2010Prop49
280
     0
102
RTVSPost2010PropOp49
 70
     1
102
RTVSPost2010Prop50
 90
       50
102
RTVSPost2010PropOp50
 70
     1
102
RTVSPost2010Prop51ColorIndex
 90
      256
102
RTVSPost2010Prop51ColorRGB
 90
-16777216
102
RTVSPost2010PropOp51
 70
     0
102
RTVSPost2010Prop52
140
1.0
102
RTVSPost2010PropOp52
 70
     0
102
RTVSPost2010Prop53
 90
        2
102
RTVSPost2010PropOp53
 70
     1
102
RTVSPost2010Prop54
  1
strokes_ogs.tif
102
RTVSPost2010PropOp54
 70
     1
102
RTVSPost2010Prop55
280
     0
102
RTVSPost2010PropOp55
 70
     1
102
RTVSPost2010Prop56
140
1.0
102
RTVSPost2010PropOp56
 70
     1
102
RTVSPost2010Prop57
140
1.0
102
RTVSPost2010PropOp57
 70
     1
  0
XRECORD
  5
399
102
{ACAD_REACTORS
330
398
102
}
330
398
100
AcDbXrecord
280
     1
102
RTVSPropertyOp0
 70
     1
102
RTVSPropertyOp1
 70
     1
102
RTVSPropertyOp2
 70
     1
102
RTVSPropertyOp3
 70
     1
102
RTVSPropertyOp4
 70
     1
102
RTVSPropertyOp5
 70
     1
102
RTVSPropertyOp6
 70
     1
102
RTVSPropertyOp7
 70
     1
102
RTVSPropertyOp8
 70
     1
102
RTVSPropertyOp9
 70
     1
102
RTVSPropertyOp10
 70
     1
102
RTVSPropertyOp11
 70
     1
102
RTVSPropertyOp12
 70
     1
102
RTVSPropertyOp13
 70
     1
102
RTVSPropertyOp14
 70
     1
102
RTVSPropertyOp15
 70
     1
102
RTVSPropertyOp16
 70
     1
102
RTVSPropertyOp17
 70
     1
102
RTVSPropertyOp18
 70
     1
102
RTVSPropertyOp19
 70
     1
102
RTVSPropertyOp20
 70
     1
102
RTVSPropertyOp21
 70
     1
102
RTVSPropertyOp22
 70
     1
102
RTVSPropertyOp23
 70
     1
102
RTVSPropertyOp24
 70
     1
102
RTVSPropertyOp25
 70
     1
102
RTVSPropertyOp26
 70
     1
102
RTVSPropertyOp27
 70
     1
102
RTVSPropertyOp28
 70
     1
102
RTVSPropertyOp29
 70
     1
102
RTVSPropertyOp30
 70
     1
102
RTVSPropertyOp31
 70
     1
102
RTVSPropertyOp32
 70
     1
102
RTVSPropertyOp33
 70
     1
102
RTVSPropertyOp34
 70
     1
102
RTVSPropertyOp35
 70
     1
102
RTVSPropertyOp36
 70
     1
102
RTVSPropertyOp37
 70
     1
102
RTVSPropertyOp38
 70
     1
102
RTVSPropertyOp39
 70
     1
102
RTVSPropertyOp40
 70
     1
102
RTVSPropertyOp41
 70
     1
102
RTVSPropertyOp42
 70
     1
102
RTVSPropertyOp43
 70
     1
102
RTVSPropertyOp44
 70
     1
102
RTVSPropertyOp45
 70
     1
102
RTVSPropertyOp46
 70
     1
102
RTVSPropertyOp47
 70
     1
102
RTVSPropertyOp48
 70
     1
102
RTVSPropertyOp49
 70
     1
102
RTVSPropertyOp50
 70
     1
102
RTVSPropertyOp51
 70
     0
102
RTVSPropertyOp52
 70
     0
102
RTVSPropertyOp53
 70
     1
102
RTVSPropertyOp54
 70
     1
102
RTVSPropertyOp55
 70
     1
102
RTVSPropertyOp56
 70
     1
102
RTVSPropertyOp57
 70
     1
102
RTVSPost2010Prop28
280
     0
102
RTVSPost2010PropOp28
 70
     1
102
RTVSPost2010Prop29
280
     1
102
RTVSPost2010PropOp29
 70
     1
102
RTVSPost2010Prop30
280
     1
102
RTVSPost2010PropOp30
 70
     1
102
RTVSPost2010Prop31
280
     0
102
RTVSPost2010PropOp31
 70
     1
102
RTVSPost2010Prop32
280
     0
102
RTVSPost2010PropOp32
 70
     1
102
RTVSPost2010Prop33
280
     0
102
RTVSPost2010PropOp33
 70
     1
102
RTVSPost2010Prop34
280
     0
102
RTVSPost2010PropOp34
 70
     1
102
RTVSPost2010Prop35
280
     0
102
RTVSPost2010PropOp35
 70
     1
102
RTVSPost2010Prop36
280
     0
102
RTVSPost2010PropOp36
 70
     1
102
RTVSPost2010Prop37
 90
       50
102
RTVSPost2010PropOp37
 70
     1
102
RTVSPost2010Prop38
140
0.0
102
RTVSPost2010PropOp38
 70
     1
102
RTVSPost2010Prop39
140
1.0
102
RTVSPost2010PropOp39
 70
     1
102
RTVSPost2010Prop40
 90
        0
102
RTVSPost2010PropOp40
 70
     1
102
RTVSPost2010Prop41ColorIndex
 90
       18
102
RTVSPost2010Prop41ColorRGB
 90
        0
102
RTVSPost2010PropOp41
 70
     1
102
RTVSPost2010Prop42
 90
       50
102
RTVSPost2010PropOp42
 70
     1
102
RTVSPost2010Prop43
 90
        3
102
RTVSPost2010PropOp43
 70
     1
102
RTVSPost2010Prop44ColorIndex
 90
        5
102
RTVSPost2010Prop44ColorRGB
 90
      255
102
RTVSPost2010PropOp44
 70
     1
102
RTVSPost2010Prop45
280
     0
102
RTVSPost2010PropOp45
 70
     1
102
RTVSPost2010Prop46
 90
       50
102
RTVSPost2010PropOp46
 70
     1
102
RTVSPost2010Prop47
 90
       50
102
RTVSPost2010PropOp47
 70
     1
102
RTVSPost2010Prop48
 90
       50
102
RTVSPost2010PropOp48
 70
     1
102
RTVSPost2010Prop49
280
     0
102
RTVSPost2010PropOp49
 70
     1
102
RTVSPost2010Prop50
 90
       50
102
RTVSPost2010PropOp50
 70
     1
102
RTVSPost2010Prop51ColorIndex
 90
      256
102
RTVSPost2010Prop51ColorRGB
 90
-16777216
102
RTVSPost2010PropOp51
 70
     0
102
RTVSPost2010Prop52
140
1.0
102
RTVSPost2010PropOp52
 70
     0
102
RTVSPost2010Prop53
 90
        2
102
RTVSPost2010PropOp53
 70
     1
102
RTVSPost2010Prop54
  1
strokes_ogs.tif
102
RTVSPost2010PropOp54
 70
     1
102
RTVSPost2010Prop55
280
     0
102
RTVSPost2010PropOp55
 70
     1
102
RTVSPost2010Prop56
140
1.0
102
RTVSPost2010PropOp56
 70
     1
102
RTVSPost2010Prop57
140
1.0
102
RTVSPost2010PropOp57
 70
     1
  0
XRECORD
  5
39F
102
{ACAD_REACTORS
330
39E
102
}
330
39E
100
AcDbXrecord
280
     1
102
RTVSPropertyOp0
 70
     1
102
RTVSPropertyOp1
 70
     1
102
RTVSPropertyOp2
 70
     1
102
RTVSPropertyOp3
 70
     1
102
RTVSPropertyOp4
 70
     1
102
RTVSPropertyOp5
 70
     1
102
RTVSPropertyOp6
 70
     1
102
RTVSPropertyOp7
 70
     1
102
RTVSPropertyOp8
 70
     1
102
RTVSPropertyOp9
 70
     1
102
RTVSPropertyOp10
 70
     1
102
RTVSPropertyOp11
 70
     1
102
RTVSPropertyOp12
 70
     1
102
RTVSPropertyOp13
 70
     1
102
RTVSPropertyOp14
 70
     1
102
RTVSPropertyOp15
 70
     1
102
RTVSPropertyOp16
 70
     1
102
RTVSPropertyOp17
 70
     1
102
RTVSPropertyOp18
 70
     1
102
RTVSPropertyOp19
 70
     1
102
RTVSPropertyOp20
 70
     1
102
RTVSPropertyOp21
 70
     1
102
RTVSPropertyOp22
 70
     1
102
RTVSPropertyOp23
 70
     1
102
RTVSPropertyOp24
 70
     1
102
RTVSPropertyOp25
 70
     1
102
RTVSPropertyOp26
 70
     1
102
RTVSPropertyOp27
 70
     1
102
RTVSPropertyOp28
 70
     1
102
RTVSPropertyOp29
 70
     1
102
RTVSPropertyOp30
 70
     1
102
RTVSPropertyOp31
 70
     1
102
RTVSPropertyOp32
 70
     1
102
RTVSPropertyOp33
 70
     1
102
RTVSPropertyOp34
 70
     1
102
RTVSPropertyOp35
 70
     1
102
RTVSPropertyOp36
 70
     1
102
RTVSPropertyOp37
 70
     1
102
RTVSPropertyOp38
 70
     1
102
RTVSPropertyOp39
 70
     1
102
RTVSPropertyOp40
 70
     1
102
RTVSPropertyOp41
 70
     1
102
RTVSPropertyOp42
 70
     1
102
RTVSPropertyOp43
 70
     1
102
RTVSPropertyOp44
 70
     1
102
RTVSPropertyOp45
 70
     1
102
RTVSPropertyOp46
 70
     1
102
RTVSPropertyOp47
 70
     1
102
RTVSPropertyOp48
 70
     1
102
RTVSPropertyOp49
 70
     1
102
RTVSPropertyOp50
 70
     1
102
RTVSPropertyOp51
 70
     0
102
RTVSPropertyOp52
 70
     0
102
RTVSPropertyOp53
 70
     1
102
RTVSPropertyOp54
 70
     1
102
RTVSPropertyOp55
 70
     1
102
RTVSPropertyOp56
 70
     1
102
RTVSPropertyOp57
 70
     1
102
RTVSPost2010Prop28
280
     0
102
RTVSPost2010PropOp28
 70
     1
102
RTVSPost2010Prop29
280
     1
102
RTVSPost2010PropOp29
 70
     1
102
RTVSPost2010Prop30
280
     1
102
RTVSPost2010PropOp30
 70
     1
102
RTVSPost2010Prop31
280
     0
102
RTVSPost2010PropOp31
 70
     1
102
RTVSPost2010Prop32
280
     0
102
RTVSPost2010PropOp32
 70
     1
102
RTVSPost2010Prop33
280
     0
102
RTVSPost2010PropOp33
 70
     1
102
RTVSPost2010Prop34
280
     0
102
RTVSPost2010PropOp34
 70
     1
102
RTVSPost2010Prop35
280
     0
102
RTVSPost2010PropOp35
 70
     1
102
RTVSPost2010Prop36
280
     0
102
RTVSPost2010PropOp36
 70
     1
102
RTVSPost2010Prop37
 90
       50
102
RTVSPost2010PropOp37
 70
     1
102
RTVSPost2010Prop38
140
0.0
102
RTVSPost2010PropOp38
 70
     1
102
RTVSPost2010Prop39
140
1.0
102
RTVSPost2010PropOp39
 70
     1
102
RTVSPost2010Prop40
 90
        0
102
RTVSPost2010PropOp40
 70
     1
102
RTVSPost2010Prop41ColorIndex
 90
       18
102
RTVSPost2010Prop41ColorRGB
 90
        0
102
RTVSPost2010PropOp41
 70
     1
102
RTVSPost2010Prop42
 90
       50
102
RTVSPost2010PropOp42
 70
     1
102
RTVSPost2010Prop43
 90
        3
102
RTVSPost2010PropOp43
 70
     1
102
RTVSPost2010Prop44ColorIndex
 90
        5
102
RTVSPost2010Prop44ColorRGB
 90
      255
102
RTVSPost2010PropOp44
 70
     1
102
RTVSPost2010Prop45
280
     0
102
RTVSPost2010PropOp45
 70
     1
102
RTVSPost2010Prop46
 90
       50
102
RTVSPost2010PropOp46
 70
     1
102
RTVSPost2010Prop47
 90
       50
102
RTVSPost2010PropOp47
 70
     1
102
RTVSPost2010Prop48
 90
       50
102
RTVSPost2010PropOp48
 70
     1
102
RTVSPost2010Prop49
280
     0
102
RTVSPost2010PropOp49
 70
     1
102
RTVSPost2010Prop50
 90
       50
102
RTVSPost2010PropOp50
 70
     1
102
RTVSPost2010Prop51ColorIndex
 90
      256
102
RTVSPost2010Prop51ColorRGB
 90
-16777216
102
RTVSPost2010PropOp51
 70
     0
102
RTVSPost2010Prop52
140
1.0
102
RTVSPost2010PropOp52
 70
     0
102
RTVSPost2010Prop53
 90
        2
102
RTVSPost2010PropOp53
 70
     1
102
RTVSPost2010Prop54
  1
strokes_ogs.tif
102
RTVSPost2010PropOp54
 70
     1
102
RTVSPost2010Prop55
280
     0
102
RTVSPost2010PropOp55
 70
     1
102
RTVSPost2010Prop56
140
1.0
102
RTVSPost2010PropOp56
 70
     1
102
RTVSPost2010Prop57
140
1.0
102
RTVSPost2010PropOp57
 70
     1
  0
XRECORD
  5
3B3
102
{ACAD_REACTORS
330
3B2
102
}
330
3B2
100
AcDbXrecord
280
     1
102
RTVSPropertyOp0
 70
     0
102
RTVSPropertyOp1
 70
     0
102
RTVSPropertyOp2
 70
     0
102
RTVSPropertyOp3
 70
     0
102
RTVSPropertyOp4
 70
     0
102
RTVSPropertyOp5
 70
     0
102
RTVSPropertyOp6
 70
     0
102
RTVSPropertyOp7
 70
     0
102
RTVSPropertyOp8
 70
     0
102
RTVSPropertyOp9
 70
     0
102
RTVSPropertyOp10
 70
     0
102
RTVSPropertyOp11
 70
     0
102
RTVSPropertyOp12
 70
     0
102
RTVSPropertyOp13
 70
     0
102
RTVSPropertyOp14
 70
     2
102
RTVSPropertyOp15
 70
     0
102
RTVSPropertyOp16
 70
     0
102
RTVSPropertyOp17
 70
     0
102
RTVSPropertyOp18
 70
     0
102
RTVSPropertyOp19
 70
     0
102
RTVSPropertyOp20
 70
     0
102
RTVSPropertyOp21
 70
     0
102
RTVSPropertyOp22
 70
     0
102
RTVSPropertyOp23
 70
     0
102
RTVSPropertyOp24
 70
     0
102
RTVSPropertyOp25
 70
     0
102
RTVSPropertyOp26
 70
     0
102
RTVSPropertyOp27
 70
     0
102
RTVSPropertyOp28
 70
     0
102
RTVSPropertyOp29
 70
     0
102
RTVSPropertyOp30
 70
     0
102
RTVSPropertyOp31
 70
     0
102
RTVSPropertyOp32
 70
     0
102
RTVSPropertyOp33
 70
     0
102
RTVSPropertyOp34
 70
     0
102
RTVSPropertyOp35
 70
     0
102
RTVSPropertyOp36
 70
     0
102
RTVSPropertyOp37
 70
     0
102
RTVSPropertyOp38
 70
     0
102
RTVSPropertyOp39
 70
     0
102
RTVSPropertyOp40
 70
     0
102
RTVSPropertyOp41
 70
     0
102
RTVSPropertyOp42
 70
     0
102
RTVSPropertyOp43
 70
     0
102
RTVSPropertyOp44
 70
     0
102
RTVSPropertyOp45
 70
     0
102
RTVSPropertyOp46
 70
     0
102
RTVSPropertyOp47
 70
     0
102
RTVSPropertyOp48
 70
     0
102
RTVSPropertyOp49
 70
     0
102
RTVSPropertyOp50
 70
     0
102
RTVSPropertyOp51
 70
     0
102
RTVSPropertyOp52
 70
     0
102
RTVSPropertyOp53
 70
     0
102
RTVSPropertyOp54
 70
     0
102
RTVSPropertyOp55
 70
     0
102
RTVSPropertyOp56
 70
     0
102
RTVSPropertyOp57
 70
     0
102
RTVSPost2010Prop28
280
     0
102
RTVSPost2010PropOp28
 70
     0
102
RTVSPost2010Prop29
280
     1
102
RTVSPost2010PropOp29
 70
     0
102
RTVSPost2010Prop30
280
     1
102
RTVSPost2010PropOp30
 70
     0
102
RTVSPost2010Prop31
280
     0
102
RTVSPost2010PropOp31
 70
     0
102
RTVSPost2010Prop32
280
     0
102
RTVSPost2010PropOp32
 70
     0
102
RTVSPost2010Prop33
280
     0
102
RTVSPost2010PropOp33
 70
     0
102
RTVSPost2010Prop34
280
     0
102
RTVSPost2010PropOp34
 70
     0
102
RTVSPost2010Prop35
280
     0
102
RTVSPost2010PropOp35
 70
     0
102
RTVSPost2010Prop36
280
     0
102
RTVSPost2010PropOp36
 70
     0
102
RTVSPost2010Prop37
 90
       50
102
RTVSPost2010PropOp37
 70
     0
102
RTVSPost2010Prop38
140
0.0
102
RTVSPost2010PropOp38
 70
     0
102
RTVSPost2010Prop39
140
1.0
102
RTVSPost2010PropOp39
 70
     0
102
RTVSPost2010Prop40
 90
        0
102
RTVSPost2010PropOp40
 70
     0
102
RTVSPost2010Prop41ColorIndex
 90
       18
102
RTVSPost2010Prop41ColorRGB
 90
        0
102
RTVSPost2010PropOp41
 70
     0
102
RTVSPost2010Prop42
 90
       50
102
RTVSPost2010PropOp42
 70
     0
102
RTVSPost2010Prop43
 90
        3
102
RTVSPost2010PropOp43
 70
     0
102
RTVSPost2010Prop44ColorIndex
 90
        5
102
RTVSPost2010Prop44ColorRGB
 90
      255
102
RTVSPost2010PropOp44
 70
     0
102
RTVSPost2010Prop45
280
     0
102
RTVSPost2010PropOp45
 70
     0
102
RTVSPost2010Prop46
 90
       50
102
RTVSPost2010PropOp46
 70
     0
102
RTVSPost2010Prop47
 90
       50
102
RTVSPost2010PropOp47
 70
     0
102
RTVSPost2010Prop48
 90
       50
102
RTVSPost2010PropOp48
 70
     0
102
RTVSPost2010Prop49
280
     0
102
RTVSPost2010PropOp49
 70
     0
102
RTVSPost2010Prop50
 90
       50
102
RTVSPost2010PropOp50
 70
     0
102
RTVSPost2010Prop51ColorIndex
 90
      256
102
RTVSPost2010Prop51ColorRGB
 90
-16777216
102
RTVSPost2010PropOp51
 70
     0
102
RTVSPost2010Prop52
140
1.0
102
RTVSPost2010PropOp52
 70
     0
102
RTVSPost2010Prop53
 90
        2
102
RTVSPost2010PropOp53
 70
     0
102
RTVSPost2010Prop54
  1
strokes_ogs.tif
102
RTVSPost2010PropOp54
 70
     0
102
RTVSPost2010Prop55
280
     0
102
RTVSPost2010PropOp55
 70
     0
102
RTVSPost2010Prop56
140
1.0
102
RTVSPost2010PropOp56
 70
     0
102
RTVSPost2010Prop57
140
1.0
102
RTVSPost2010PropOp57
 70
     0
  0
XRECORD
  5
3AD
102
{ACAD_REACTORS
330
3AC
102
}
330
3AC
100
AcDbXrecord
280
     1
102
RTVSPropertyOp0
 70
     1
102
RTVSPropertyOp1
 70
     1
102
RTVSPropertyOp2
 70
     1
102
RTVSPropertyOp3
 70
     1
102
RTVSPropertyOp4
 70
     1
102
RTVSPropertyOp5
 70
     1
102
RTVSPropertyOp6
 70
     1
102
RTVSPropertyOp7
 70
     1
102
RTVSPropertyOp8
 70
     1
102
RTVSPropertyOp9
 70
     1
102
RTVSPropertyOp10
 70
     1
102
RTVSPropertyOp11
 70
     1
102
RTVSPropertyOp12
 70
     1
102
RTVSPropertyOp13
 70
     1
102
RTVSPropertyOp14
 70
     1
102
RTVSPropertyOp15
 70
     1
102
RTVSPropertyOp16
 70
     1
102
RTVSPropertyOp17
 70
     1
102
RTVSPropertyOp18
 70
     1
102
RTVSPropertyOp19
 70
     1
102
RTVSPropertyOp20
 70
     1
102
RTVSPropertyOp21
 70
     1
102
RTVSPropertyOp22
 70
     1
102
RTVSPropertyOp23
 70
     1
102
RTVSPropertyOp24
 70
     1
102
RTVSPropertyOp25
 70
     1
102
RTVSPropertyOp26
 70
     1
102
RTVSPropertyOp27
 70
     1
102
RTVSPropertyOp28
 70
     1
102
RTVSPropertyOp29
 70
     1
102
RTVSPropertyOp30
 70
     1
102
RTVSPropertyOp31
 70
     1
102
RTVSPropertyOp32
 70
     1
102
RTVSPropertyOp33
 70
     1
102
RTVSPropertyOp34
 70
     1
102
RTVSPropertyOp35
 70
     1
102
RTVSPropertyOp36
 70
     1
102
RTVSPropertyOp37
 70
     1
102
RTVSPropertyOp38
 70
     1
102
RTVSPropertyOp39
 70
     1
102
RTVSPropertyOp40
 70
     1
102
RTVSPropertyOp41
 70
     1
102
RTVSPropertyOp42
 70
     1
102
RTVSPropertyOp43
 70
     1
102
RTVSPropertyOp44
 70
     1
102
RTVSPropertyOp45
 70
     1
102
RTVSPropertyOp46
 70
     1
102
RTVSPropertyOp47
 70
     1
102
RTVSPropertyOp48
 70
     1
102
RTVSPropertyOp49
 70
     1
102
RTVSPropertyOp50
 70
     1
102
RTVSPropertyOp51
 70
     0
102
RTVSPropertyOp52
 70
     0
102
RTVSPropertyOp53
 70
     1
102
RTVSPropertyOp54
 70
     1
102
RTVSPropertyOp55
 70
     1
102
RTVSPropertyOp56
 70
     1
102
RTVSPropertyOp57
 70
     1
102
RTVSPost2010Prop28
280
     0
102
RTVSPost2010PropOp28
 70
     1
102
RTVSPost2010Prop29
280
     1
102
RTVSPost2010PropOp29
 70
     1
102
RTVSPost2010Prop30
280
     1
102
RTVSPost2010PropOp30
 70
     1
102
RTVSPost2010Prop31
280
     0
102
RTVSPost2010PropOp31
 70
     1
102
RTVSPost2010Prop32
280
     0
102
RTVSPost2010PropOp32
 70
     1
102
RTVSPost2010Prop33
280
     0
102
RTVSPost2010PropOp33
 70
     1
102
RTVSPost2010Prop34
280
     0
102
RTVSPost2010PropOp34
 70
     1
102
RTVSPost2010Prop35
280
     0
102
RTVSPost2010PropOp35
 70
     1
102
RTVSPost2010Prop36
280
     0
102
RTVSPost2010PropOp36
 70
     1
102
RTVSPost2010Prop37
 90
       50
102
RTVSPost2010PropOp37
 70
     1
102
RTVSPost2010Prop38
140
0.0
102
RTVSPost2010PropOp38
 70
     1
102
RTVSPost2010Prop39
140
1.0
102
RTVSPost2010PropOp39
 70
     1
102
RTVSPost2010Prop40
 90
        0
102
RTVSPost2010PropOp40
 70
     1
102
RTVSPost2010Prop41ColorIndex
 90
       18
102
RTVSPost2010Prop41ColorRGB
 90
        0
102
RTVSPost2010PropOp41
 70
     1
102
RTVSPost2010Prop42
 90
       50
102
RTVSPost2010PropOp42
 70
     1
102
RTVSPost2010Prop43
 90
        3
102
RTVSPost2010PropOp43
 70
     1
102
RTVSPost2010Prop44ColorIndex
 90
        5
102
RTVSPost2010Prop44ColorRGB
 90
      255
102
RTVSPost2010PropOp44
 70
     1
102
RTVSPost2010Prop45
280
     0
102
RTVSPost2010PropOp45
 70
     1
102
RTVSPost2010Prop46
 90
       50
102
RTVSPost2010PropOp46
 70
     1
102
RTVSPost2010Prop47
 90
       50
102
RTVSPost2010PropOp47
 70
     1
102
RTVSPost2010Prop48
 90
       50
102
RTVSPost2010PropOp48
 70
     1
102
RTVSPost2010Prop49
280
     0
102
RTVSPost2010PropOp49
 70
     1
102
RTVSPost2010Prop50
 90
       50
102
RTVSPost2010PropOp50
 70
     1
102
RTVSPost2010Prop51ColorIndex
 90
      256
102
RTVSPost2010Prop51ColorRGB
 90
-16777216
102
RTVSPost2010PropOp51
 70
     0
102
RTVSPost2010Prop52
140
1.0
102
RTVSPost2010PropOp52
 70
     0
102
RTVSPost2010Prop53
 90
        2
102
RTVSPost2010PropOp53
 70
     1
102
RTVSPost2010Prop54
  1
strokes_ogs.tif
102
RTVSPost2010PropOp54
 70
     1
102
RTVSPost2010Prop55
280
     0
102
RTVSPost2010PropOp55
 70
     1
102
RTVSPost2010Prop56
140
1.0
102
RTVSPost2010PropOp56
 70
     1
102
RTVSPost2010Prop57
140
1.0
102
RTVSPost2010PropOp57
 70
     1
  0
XRECORD
  5
3B5
102
{ACAD_REACTORS
330
3B4
102
}
330
3B4
100
AcDbXrecord
280
     1
102
RTVSPropertyOp0
 70
     0
102
RTVSPropertyOp1
 70
     0
102
RTVSPropertyOp2
 70
     0
102
RTVSPropertyOp3
 70
     0
102
RTVSPropertyOp4
 70
     0
102
RTVSPropertyOp5
 70
     0
102
RTVSPropertyOp6
 70
     0
102
RTVSPropertyOp7
 70
     0
102
RTVSPropertyOp8
 70
     0
102
RTVSPropertyOp9
 70
     0
102
RTVSPropertyOp10
 70
     0
102
RTVSPropertyOp11
 70
     0
102
RTVSPropertyOp12
 70
     0
102
RTVSPropertyOp13
 70
     0
102
RTVSPropertyOp14
 70
     2
102
RTVSPropertyOp15
 70
     0
102
RTVSPropertyOp16
 70
     0
102
RTVSPropertyOp17
 70
     0
102
RTVSPropertyOp18
 70
     0
102
RTVSPropertyOp19
 70
     0
102
RTVSPropertyOp20
 70
     0
102
RTVSPropertyOp21
 70
     0
102
RTVSPropertyOp22
 70
     0
102
RTVSPropertyOp23
 70
     0
102
RTVSPropertyOp24
 70
     0
102
RTVSPropertyOp25
 70
     0
102
RTVSPropertyOp26
 70
     0
102
RTVSPropertyOp27
 70
     0
102
RTVSPropertyOp28
 70
     0
102
RTVSPropertyOp29
 70
     0
102
RTVSPropertyOp30
 70
     0
102
RTVSPropertyOp31
 70
     0
102
RTVSPropertyOp32
 70
     0
102
RTVSPropertyOp33
 70
     0
102
RTVSPropertyOp34
 70
     0
102
RTVSPropertyOp35
 70
     0
102
RTVSPropertyOp36
 70
     0
102
RTVSPropertyOp37
 70
     0
102
RTVSPropertyOp38
 70
     0
102
RTVSPropertyOp39
 70
     0
102
RTVSPropertyOp40
 70
     0
102
RTVSPropertyOp41
 70
     0
102
RTVSPropertyOp42
 70
     0
102
RTVSPropertyOp43
 70
     0
102
RTVSPropertyOp44
 70
     0
102
RTVSPropertyOp45
 70
     0
102
RTVSPropertyOp46
 70
     0
102
RTVSPropertyOp47
 70
     0
102
RTVSPropertyOp48
 70
     0
102
RTVSPropertyOp49
 70
     0
102
RTVSPropertyOp50
 70
     0
102
RTVSPropertyOp51
 70
     0
102
RTVSPropertyOp52
 70
     0
102
RTVSPropertyOp53
 70
     0
102
RTVSPropertyOp54
 70
     0
102
RTVSPropertyOp55
 70
     0
102
RTVSPropertyOp56
 70
     0
102
RTVSPropertyOp57
 70
     0
102
RTVSPost2010Prop28
280
     0
102
RTVSPost2010PropOp28
 70
     0
102
RTVSPost2010Prop29
280
     1
102
RTVSPost2010PropOp29
 70
     0
102
RTVSPost2010Prop30
280
     1
102
RTVSPost2010PropOp30
 70
     0
102
RTVSPost2010Prop31
280
     0
102
RTVSPost2010PropOp31
 70
     0
102
RTVSPost2010Prop32
280
     0
102
RTVSPost2010PropOp32
 70
     0
102
RTVSPost2010Prop33
280
     0
102
RTVSPost2010PropOp33
 70
     0
102
RTVSPost2010Prop34
280
     0
102
RTVSPost2010PropOp34
 70
     0
102
RTVSPost2010Prop35
280
     0
102
RTVSPost2010PropOp35
 70
     0
102
RTVSPost2010Prop36
280
     0
102
RTVSPost2010PropOp36
 70
     0
102
RTVSPost2010Prop37
 90
       50
102
RTVSPost2010PropOp37
 70
     0
102
RTVSPost2010Prop38
140
0.0
102
RTVSPost2010PropOp38
 70
     0
102
RTVSPost2010Prop39
140
1.0
102
RTVSPost2010PropOp39
 70
     0
102
RTVSPost2010Prop40
 90
        0
102
RTVSPost2010PropOp40
 70
     0
102
RTVSPost2010Prop41ColorIndex
 90
       18
102
RTVSPost2010Prop41ColorRGB
 90
        0
102
RTVSPost2010PropOp41
 70
     0
102
RTVSPost2010Prop42
 90
       50
102
RTVSPost2010PropOp42
 70
     0
102
RTVSPost2010Prop43
 90
        3
102
RTVSPost2010PropOp43
 70
     0
102
RTVSPost2010Prop44ColorIndex
 90
        5
102
RTVSPost2010Prop44ColorRGB
 90
      255
102
RTVSPost2010PropOp44
 70
     0
102
RTVSPost2010Prop45
280
     0
102
RTVSPost2010PropOp45
 70
     0
102
RTVSPost2010Prop46
 90
       50
102
RTVSPost2010PropOp46
 70
     0
102
RTVSPost2010Prop47
 90
       50
102
RTVSPost2010PropOp47
 70
     0
102
RTVSPost2010Prop48
 90
       50
102
RTVSPost2010PropOp48
 70
     0
102
RTVSPost2010Prop49
280
     0
102
RTVSPost2010PropOp49
 70
     0
102
RTVSPost2010Prop50
 90
       50
102
RTVSPost2010PropOp50
 70
     0
102
RTVSPost2010Prop51ColorIndex
 90
      256
102
RTVSPost2010Prop51ColorRGB
 90
-16777216
102
RTVSPost2010PropOp51
 70
     0
102
RTVSPost2010Prop52
140
1.0
102
RTVSPost2010PropOp52
 70
     0
102
RTVSPost2010Prop53
 90
        2
102
RTVSPost2010PropOp53
 70
     0
102
RTVSPost2010Prop54
  1
strokes_ogs.tif
102
RTVSPost2010PropOp54
 70
     0
102
RTVSPost2010Prop55
280
     0
102
RTVSPost2010PropOp55
 70
     0
102
RTVSPost2010Prop56
140
1.0
102
RTVSPost2010PropOp56
 70
     0
102
RTVSPost2010Prop57
140
1.0
102
RTVSPost2010PropOp57
 70
     0
  0
XRECORD
  5
3A3
102
{ACAD_REACTORS
330
3A2
102
}
330
3A2
100
AcDbXrecord
280
     1
102
RTVSPropertyOp0
 70
     1
102
RTVSPropertyOp1
 70
     1
102
RTVSPropertyOp2
 70
     1
102
RTVSPropertyOp3
 70
     1
102
RTVSPropertyOp4
 70
     1
102
RTVSPropertyOp5
 70
     1
102
RTVSPropertyOp6
 70
     1
102
RTVSPropertyOp7
 70
     1
102
RTVSPropertyOp8
 70
     1
102
RTVSPropertyOp9
 70
     1
102
RTVSPropertyOp10
 70
     1
102
RTVSPropertyOp11
 70
     1
102
RTVSPropertyOp12
 70
     1
102
RTVSPropertyOp13
 70
     1
102
RTVSPropertyOp14
 70
     1
102
RTVSPropertyOp15
 70
     1
102
RTVSPropertyOp16
 70
     1
102
RTVSPropertyOp17
 70
     1
102
RTVSPropertyOp18
 70
     1
102
RTVSPropertyOp19
 70
     1
102
RTVSPropertyOp20
 70
     1
102
RTVSPropertyOp21
 70
     1
102
RTVSPropertyOp22
 70
     1
102
RTVSPropertyOp23
 70
     1
102
RTVSPropertyOp24
 70
     1
102
RTVSPropertyOp25
 70
     1
102
RTVSPropertyOp26
 70
     1
102
RTVSPropertyOp27
 70
     1
102
RTVSPropertyOp28
 70
     1
102
RTVSPropertyOp29
 70
     1
102
RTVSPropertyOp30
 70
     1
102
RTVSPropertyOp31
 70
     1
102
RTVSPropertyOp32
 70
     1
102
RTVSPropertyOp33
 70
     1
102
RTVSPropertyOp34
 70
     1
102
RTVSPropertyOp35
 70
     1
102
RTVSPropertyOp36
 70
     1
102
RTVSPropertyOp37
 70
     1
102
RTVSPropertyOp38
 70
     1
102
RTVSPropertyOp39
 70
     1
102
RTVSPropertyOp40
 70
     1
102
RTVSPropertyOp41
 70
     1
102
RTVSPropertyOp42
 70
     1
102
RTVSPropertyOp43
 70
     1
102
RTVSPropertyOp44
 70
     1
102
RTVSPropertyOp45
 70
     1
102
RTVSPropertyOp46
 70
     1
102
RTVSPropertyOp47
 70
     1
102
RTVSPropertyOp48
 70
     1
102
RTVSPropertyOp49
 70
     1
102
RTVSPropertyOp50
 70
     1
102
RTVSPropertyOp51
 70
     0
102
RTVSPropertyOp52
 70
     0
102
RTVSPropertyOp53
 70
     1
102
RTVSPropertyOp54
 70
     1
102
RTVSPropertyOp55
 70
     1
102
RTVSPropertyOp56
 70
     1
102
RTVSPropertyOp57
 70
     1
102
RTVSPost2010Prop28
280
     0
102
RTVSPost2010PropOp28
 70
     1
102
RTVSPost2010Prop29
280
     1
102
RTVSPost2010PropOp29
 70
     1
102
RTVSPost2010Prop30
280
     1
102
RTVSPost2010PropOp30
 70
     1
102
RTVSPost2010Prop31
280
     0
102
RTVSPost2010PropOp31
 70
     1
102
RTVSPost2010Prop32
280
     0
102
RTVSPost2010PropOp32
 70
     1
102
RTVSPost2010Prop33
280
     0
102
RTVSPost2010PropOp33
 70
     1
102
RTVSPost2010Prop34
280
     0
102
RTVSPost2010PropOp34
 70
     1
102
RTVSPost2010Prop35
280
     0
102
RTVSPost2010PropOp35
 70
     1
102
RTVSPost2010Prop36
280
     0
102
RTVSPost2010PropOp36
 70
     1
102
RTVSPost2010Prop37
 90
       50
102
RTVSPost2010PropOp37
 70
     1
102
RTVSPost2010Prop38
140
0.0
102
RTVSPost2010PropOp38
 70
     1
102
RTVSPost2010Prop39
140
1.0
102
RTVSPost2010PropOp39
 70
     1
102
RTVSPost2010Prop40
 90
        0
102
RTVSPost2010PropOp40
 70
     1
102
RTVSPost2010Prop41ColorIndex
 90
       18
102
RTVSPost2010Prop41ColorRGB
 90
        0
102
RTVSPost2010PropOp41
 70
     1
102
RTVSPost2010Prop42
 90
       50
102
RTVSPost2010PropOp42
 70
     1
102
RTVSPost2010Prop43
 90
        3
102
RTVSPost2010PropOp43
 70
     1
102
RTVSPost2010Prop44ColorIndex
 90
        5
102
RTVSPost2010Prop44ColorRGB
 90
      255
102
RTVSPost2010PropOp44
 70
     1
102
RTVSPost2010Prop45
280
     0
102
RTVSPost2010PropOp45
 70
     1
102
RTVSPost2010Prop46
 90
       50
102
RTVSPost2010PropOp46
 70
     1
102
RTVSPost2010Prop47
 90
       50
102
RTVSPost2010PropOp47
 70
     1
102
RTVSPost2010Prop48
 90
       50
102
RTVSPost2010PropOp48
 70
     1
102
RTVSPost2010Prop49
280
     0
102
RTVSPost2010PropOp49
 70
     1
102
RTVSPost2010Prop50
 90
       50
102
RTVSPost2010PropOp50
 70
     1
102
RTVSPost2010Prop51ColorIndex
 90
      256
102
RTVSPost2010Prop51ColorRGB
 90
-16777216
102
RTVSPost2010PropOp51
 70
     0
102
RTVSPost2010Prop52
140
1.0
102
RTVSPost2010PropOp52
 70
     0
102
RTVSPost2010Prop53
 90
        2
102
RTVSPost2010PropOp53
 70
     1
102
RTVSPost2010Prop54
  1
strokes_ogs.tif
102
RTVSPost2010PropOp54
 70
     1
102
RTVSPost2010Prop55
280
     0
102
RTVSPost2010PropOp55
 70
     1
102
RTVSPost2010Prop56
140
1.0
102
RTVSPost2010PropOp56
 70
     1
102
RTVSPost2010Prop57
140
1.0
102
RTVSPost2010PropOp57
 70
     1
  0
XRECORD
  5
3C1
102
{ACAD_REACTORS
330
3C0
102
}
330
3C0
100
AcDbXrecord
280
     1
102
RTVSPropertyOp0
 70
     1
102
RTVSPropertyOp1
 70
     1
102
RTVSPropertyOp2
 70
     1
102
RTVSPropertyOp3
 70
     1
102
RTVSPropertyOp4
 70
     1
102
RTVSPropertyOp5
 70
     1
102
RTVSPropertyOp6
 70
     1
102
RTVSPropertyOp7
 70
     1
102
RTVSPropertyOp8
 70
     1
102
RTVSPropertyOp9
 70
     1
102
RTVSPropertyOp10
 70
     1
102
RTVSPropertyOp11
 70
     1
102
RTVSPropertyOp12
 70
     1
102
RTVSPropertyOp13
 70
     1
102
RTVSPropertyOp14
 70
     1
102
RTVSPropertyOp15
 70
     1
102
RTVSPropertyOp16
 70
     1
102
RTVSPropertyOp17
 70
     1
102
RTVSPropertyOp18
 70
     1
102
RTVSPropertyOp19
 70
     1
102
RTVSPropertyOp20
 70
     1
102
RTVSPropertyOp21
 70
     1
102
RTVSPropertyOp22
 70
     1
102
RTVSPropertyOp23
 70
     1
102
RTVSPropertyOp24
 70
     1
102
RTVSPropertyOp25
 70
     1
102
RTVSPropertyOp26
 70
     1
102
RTVSPropertyOp27
 70
     1
102
RTVSPropertyOp28
 70
     1
102
RTVSPropertyOp29
 70
     1
102
RTVSPropertyOp30
 70
     1
102
RTVSPropertyOp31
 70
     1
102
RTVSPropertyOp32
 70
     1
102
RTVSPropertyOp33
 70
     1
102
RTVSPropertyOp34
 70
     1
102
RTVSPropertyOp35
 70
     1
102
RTVSPropertyOp36
 70
     1
102
RTVSPropertyOp37
 70
     1
102
RTVSPropertyOp38
 70
     1
102
RTVSPropertyOp39
 70
     1
102
RTVSPropertyOp40
 70
     1
102
RTVSPropertyOp41
 70
     1
102
RTVSPropertyOp42
 70
     1
102
RTVSPropertyOp43
 70
     1
102
RTVSPropertyOp44
 70
     1
102
RTVSPropertyOp45
 70
     1
102
RTVSPropertyOp46
 70
     1
102
RTVSPropertyOp47
 70
     1
102
RTVSPropertyOp48
 70
     1
102
RTVSPropertyOp49
 70
     1
102
RTVSPropertyOp50
 70
     1
102
RTVSPropertyOp51
 70
     0
102
RTVSPropertyOp52
 70
     0
102
RTVSPropertyOp53
 70
     1
102
RTVSPropertyOp54
 70
     1
102
RTVSPropertyOp55
 70
     1
102
RTVSPropertyOp56
 70
     1
102
RTVSPropertyOp57
 70
     1
102
RTVSPost2010Prop28
280
     0
102
RTVSPost2010PropOp28
 70
     1
102
RTVSPost2010Prop29
280
     1
102
RTVSPost2010PropOp29
 70
     1
102
RTVSPost2010Prop30
280
     1
102
RTVSPost2010PropOp30
 70
     1
102
RTVSPost2010Prop31
280
     0
102
RTVSPost2010PropOp31
 70
     1
102
RTVSPost2010Prop32
280
     0
102
RTVSPost2010PropOp32
 70
     1
102
RTVSPost2010Prop33
280
     0
102
RTVSPost2010PropOp33
 70
     1
102
RTVSPost2010Prop34
280
     0
102
RTVSPost2010PropOp34
 70
     1
102
RTVSPost2010Prop35
280
     0
102
RTVSPost2010PropOp35
 70
     1
102
RTVSPost2010Prop36
280
     0
102
RTVSPost2010PropOp36
 70
     1
102
RTVSPost2010Prop37
 90
       50
102
RTVSPost2010PropOp37
 70
     1
102
RTVSPost2010Prop38
140
0.0
102
RTVSPost2010PropOp38
 70
     1
102
RTVSPost2010Prop39
140
1.0
102
RTVSPost2010PropOp39
 70
     1
102
RTVSPost2010Prop40
 90
        0
102
RTVSPost2010PropOp40
 70
     1
102
RTVSPost2010Prop41ColorIndex
 90
       18
102
RTVSPost2010Prop41ColorRGB
 90
        0
102
RTVSPost2010PropOp41
 70
     1
102
RTVSPost2010Prop42
 90
       50
102
RTVSPost2010PropOp42
 70
     1
102
RTVSPost2010Prop43
 90
        3
102
RTVSPost2010PropOp43
 70
     1
102
RTVSPost2010Prop44ColorIndex
 90
        5
102
RTVSPost2010Prop44ColorRGB
 90
      255
102
RTVSPost2010PropOp44
 70
     1
102
RTVSPost2010Prop45
280
     0
102
RTVSPost2010PropOp45
 70
     1
102
RTVSPost2010Prop46
 90
       50
102
RTVSPost2010PropOp46
 70
     1
102
RTVSPost2010Prop47
 90
       50
102
RTVSPost2010PropOp47
 70
     1
102
RTVSPost2010Prop48
 90
       50
102
RTVSPost2010PropOp48
 70
     1
102
RTVSPost2010Prop49
280
     0
102
RTVSPost2010PropOp49
 70
     1
102
RTVSPost2010Prop50
 90
       50
102
RTVSPost2010PropOp50
 70
     1
102
RTVSPost2010Prop51ColorIndex
 90
      256
102
RTVSPost2010Prop51ColorRGB
 90
-16777216
102
RTVSPost2010PropOp51
 70
     0
102
RTVSPost2010Prop52
140
1.0
102
RTVSPost2010PropOp52
 70
     0
102
RTVSPost2010Prop53
 90
        2
102
RTVSPost2010PropOp53
 70
     1
102
RTVSPost2010Prop54
  1
strokes_ogs.tif
102
RTVSPost2010PropOp54
 70
     1
102
RTVSPost2010Prop55
280
     0
102
RTVSPost2010PropOp55
 70
     1
102
RTVSPost2010Prop56
140
1.0
102
RTVSPost2010PropOp56
 70
     1
102
RTVSPost2010Prop57
140
1.0
102
RTVSPost2010PropOp57
 70
     1
  0
XRECORD
  5
3BF
102
{ACAD_REACTORS
330
3BE
102
}
330
3BE
100
AcDbXrecord
280
     1
102
RTVSPropertyOp0
 70
     1
102
RTVSPropertyOp1
 70
     1
102
RTVSPropertyOp2
 70
     1
102
RTVSPropertyOp3
 70
     1
102
RTVSPropertyOp4
 70
     1
102
RTVSPropertyOp5
 70
     1
102
RTVSPropertyOp6
 70
     1
102
RTVSPropertyOp7
 70
     1
102
RTVSPropertyOp8
 70
     1
102
RTVSPropertyOp9
 70
     1
102
RTVSPropertyOp10
 70
     1
102
RTVSPropertyOp11
 70
     1
102
RTVSPropertyOp12
 70
     1
102
RTVSPropertyOp13
 70
     1
102
RTVSPropertyOp14
 70
     1
102
RTVSPropertyOp15
 70
     1
102
RTVSPropertyOp16
 70
     1
102
RTVSPropertyOp17
 70
     1
102
RTVSPropertyOp18
 70
     1
102
RTVSPropertyOp19
 70
     1
102
RTVSPropertyOp20
 70
     1
102
RTVSPropertyOp21
 70
     1
102
RTVSPropertyOp22
 70
     1
102
RTVSPropertyOp23
 70
     1
102
RTVSPropertyOp24
 70
     1
102
RTVSPropertyOp25
 70
     1
102
RTVSPropertyOp26
 70
     1
102
RTVSPropertyOp27
 70
     1
102
RTVSPropertyOp28
 70
     1
102
RTVSPropertyOp29
 70
     1
102
RTVSPropertyOp30
 70
     1
102
RTVSPropertyOp31
 70
     1
102
RTVSPropertyOp32
 70
     1
102
RTVSPropertyOp33
 70
     1
102
RTVSPropertyOp34
 70
     1
102
RTVSPropertyOp35
 70
     1
102
RTVSPropertyOp36
 70
     1
102
RTVSPropertyOp37
 70
     1
102
RTVSPropertyOp38
 70
     1
102
RTVSPropertyOp39
 70
     1
102
RTVSPropertyOp40
 70
     1
102
RTVSPropertyOp41
 70
     1
102
RTVSPropertyOp42
 70
     1
102
RTVSPropertyOp43
 70
     1
102
RTVSPropertyOp44
 70
     1
102
RTVSPropertyOp45
 70
     1
102
RTVSPropertyOp46
 70
     1
102
RTVSPropertyOp47
 70
     1
102
RTVSPropertyOp48
 70
     1
102
RTVSPropertyOp49
 70
     1
102
RTVSPropertyOp50
 70
     1
102
RTVSPropertyOp51
 70
     0
102
RTVSPropertyOp52
 70
     0
102
RTVSPropertyOp53
 70
     1
102
RTVSPropertyOp54
 70
     1
102
RTVSPropertyOp55
 70
     1
102
RTVSPropertyOp56
 70
     1
102
RTVSPropertyOp57
 70
     1
102
RTVSPost2010Prop28
280
     0
102
RTVSPost2010PropOp28
 70
     1
102
RTVSPost2010Prop29
280
     1
102
RTVSPost2010PropOp29
 70
     1
102
RTVSPost2010Prop30
280
     1
102
RTVSPost2010PropOp30
 70
     1
102
RTVSPost2010Prop31
280
     0
102
RTVSPost2010PropOp31
 70
     1
102
RTVSPost2010Prop32
280
     0
102
RTVSPost2010PropOp32
 70
     1
102
RTVSPost2010Prop33
280
     0
102
RTVSPost2010PropOp33
 70
     1
102
RTVSPost2010Prop34
280
     0
102
RTVSPost2010PropOp34
 70
     1
102
RTVSPost2010Prop35
280
     0
102
RTVSPost2010PropOp35
 70
     1
102
RTVSPost2010Prop36
280
     0
102
RTVSPost2010PropOp36
 70
     1
102
RTVSPost2010Prop37
 90
       50
102
RTVSPost2010PropOp37
 70
     1
102
RTVSPost2010Prop38
140
0.0
102
RTVSPost2010PropOp38
 70
     1
102
RTVSPost2010Prop39
140
1.0
102
RTVSPost2010PropOp39
 70
     1
102
RTVSPost2010Prop40
 90
        0
102
RTVSPost2010PropOp40
 70
     1
102
RTVSPost2010Prop41ColorIndex
 90
       18
102
RTVSPost2010Prop41ColorRGB
 90
        0
102
RTVSPost2010PropOp41
 70
     1
102
RTVSPost2010Prop42
 90
       50
102
RTVSPost2010PropOp42
 70
     1
102
RTVSPost2010Prop43
 90
        3
102
RTVSPost2010PropOp43
 70
     1
102
RTVSPost2010Prop44ColorIndex
 90
        5
102
RTVSPost2010Prop44ColorRGB
 90
      255
102
RTVSPost2010PropOp44
 70
     1
102
RTVSPost2010Prop45
280
     0
102
RTVSPost2010PropOp45
 70
     1
102
RTVSPost2010Prop46
 90
       50
102
RTVSPost2010PropOp46
 70
     1
102
RTVSPost2010Prop47
 90
       50
102
RTVSPost2010PropOp47
 70
     1
102
RTVSPost2010Prop48
 90
       50
102
RTVSPost2010PropOp48
 70
     1
102
RTVSPost2010Prop49
280
     0
102
RTVSPost2010PropOp49
 70
     1
102
RTVSPost2010Prop50
 90
       50
102
RTVSPost2010PropOp50
 70
     1
102
RTVSPost2010Prop51ColorIndex
 90
      256
102
RTVSPost2010Prop51ColorRGB
 90
-16777216
102
RTVSPost2010PropOp51
 70
     0
102
RTVSPost2010Prop52
140
1.0
102
RTVSPost2010PropOp52
 70
     0
102
RTVSPost2010Prop53
 90
        2
102
RTVSPost2010PropOp53
 70
     1
102
RTVSPost2010Prop54
  1
strokes_ogs.tif
102
RTVSPost2010PropOp54
 70
     1
102
RTVSPost2010Prop55
280
     0
102
RTVSPost2010PropOp55
 70
     1
102
RTVSPost2010Prop56
140
1.0
102
RTVSPost2010PropOp56
 70
     1
102
RTVSPost2010Prop57
140
1.0
102
RTVSPost2010PropOp57
 70
     1
  0
XRECORD
  5
3B9
102
{ACAD_REACTORS
330
3B8
102
}
330
3B8
100
AcDbXrecord
280
     1
102
RTVSPropertyOp0
 70
     1
102
RTVSPropertyOp1
 70
     1
102
RTVSPropertyOp2
 70
     1
102
RTVSPropertyOp3
 70
     1
102
RTVSPropertyOp4
 70
     1
102
RTVSPropertyOp5
 70
     1
102
RTVSPropertyOp6
 70
     1
102
RTVSPropertyOp7
 70
     1
102
RTVSPropertyOp8
 70
     1
102
RTVSPropertyOp9
 70
     1
102
RTVSPropertyOp10
 70
     1
102
RTVSPropertyOp11
 70
     1
102
RTVSPropertyOp12
 70
     1
102
RTVSPropertyOp13
 70
     1
102
RTVSPropertyOp14
 70
     1
102
RTVSPropertyOp15
 70
     1
102
RTVSPropertyOp16
 70
     1
102
RTVSPropertyOp17
 70
     1
102
RTVSPropertyOp18
 70
     1
102
RTVSPropertyOp19
 70
     1
102
RTVSPropertyOp20
 70
     1
102
RTVSPropertyOp21
 70
     1
102
RTVSPropertyOp22
 70
     1
102
RTVSPropertyOp23
 70
     1
102
RTVSPropertyOp24
 70
     1
102
RTVSPropertyOp25
 70
     1
102
RTVSPropertyOp26
 70
     1
102
RTVSPropertyOp27
 70
     1
102
RTVSPropertyOp28
 70
     1
102
RTVSPropertyOp29
 70
     1
102
RTVSPropertyOp30
 70
     1
102
RTVSPropertyOp31
 70
     1
102
RTVSPropertyOp32
 70
     1
102
RTVSPropertyOp33
 70
     1
102
RTVSPropertyOp34
 70
     1
102
RTVSPropertyOp35
 70
     1
102
RTVSPropertyOp36
 70
     1
102
RTVSPropertyOp37
 70
     1
102
RTVSPropertyOp38
 70
     1
102
RTVSPropertyOp39
 70
     1
102
RTVSPropertyOp40
 70
     1
102
RTVSPropertyOp41
 70
     1
102
RTVSPropertyOp42
 70
     1
102
RTVSPropertyOp43
 70
     1
102
RTVSPropertyOp44
 70
     1
102
RTVSPropertyOp45
 70
     1
102
RTVSPropertyOp46
 70
     1
102
RTVSPropertyOp47
 70
     1
102
RTVSPropertyOp48
 70
     1
102
RTVSPropertyOp49
 70
     1
102
RTVSPropertyOp50
 70
     1
102
RTVSPropertyOp51
 70
     0
102
RTVSPropertyOp52
 70
     0
102
RTVSPropertyOp53
 70
     1
102
RTVSPropertyOp54
 70
     1
102
RTVSPropertyOp55
 70
     1
102
RTVSPropertyOp56
 70
     1
102
RTVSPropertyOp57
 70
     1
102
RTVSPost2010Prop28
280
     0
102
RTVSPost2010PropOp28
 70
     1
102
RTVSPost2010Prop29
280
     1
102
RTVSPost2010PropOp29
 70
     1
102
RTVSPost2010Prop30
280
     1
102
RTVSPost2010PropOp30
 70
     1
102
RTVSPost2010Prop31
280
     0
102
RTVSPost2010PropOp31
 70
     1
102
RTVSPost2010Prop32
280
     0
102
RTVSPost2010PropOp32
 70
     1
102
RTVSPost2010Prop33
280
     0
102
RTVSPost2010PropOp33
 70
     1
102
RTVSPost2010Prop34
280
     0
102
RTVSPost2010PropOp34
 70
     1
102
RTVSPost2010Prop35
280
     0
102
RTVSPost2010PropOp35
 70
     1
102
RTVSPost2010Prop36
280
     0
102
RTVSPost2010PropOp36
 70
     1
102
RTVSPost2010Prop37
 90
       50
102
RTVSPost2010PropOp37
 70
     1
102
RTVSPost2010Prop38
140
0.0
102
RTVSPost2010PropOp38
 70
     1
102
RTVSPost2010Prop39
140
1.0
102
RTVSPost2010PropOp39
 70
     1
102
RTVSPost2010Prop40
 90
        0
102
RTVSPost2010PropOp40
 70
     1
102
RTVSPost2010Prop41ColorIndex
 90
       18
102
RTVSPost2010Prop41ColorRGB
 90
        0
102
RTVSPost2010PropOp41
 70
     1
102
RTVSPost2010Prop42
 90
       50
102
RTVSPost2010PropOp42
 70
     1
102
RTVSPost2010Prop43
 90
        3
102
RTVSPost2010PropOp43
 70
     1
102
RTVSPost2010Prop44ColorIndex
 90
        5
102
RTVSPost2010Prop44ColorRGB
 90
      255
102
RTVSPost2010PropOp44
 70
     1
102
RTVSPost2010Prop45
280
     0
102
RTVSPost2010PropOp45
 70
     1
102
RTVSPost2010Prop46
 90
       50
102
RTVSPost2010PropOp46
 70
     1
102
RTVSPost2010Prop47
 90
       50
102
RTVSPost2010PropOp47
 70
     1
102
RTVSPost2010Prop48
 90
       50
102
RTVSPost2010PropOp48
 70
     1
102
RTVSPost2010Prop49
280
     0
102
RTVSPost2010PropOp49
 70
     1
102
RTVSPost2010Prop50
 90
       50
102
RTVSPost2010PropOp50
 70
     1
102
RTVSPost2010Prop51ColorIndex
 90
      256
102
RTVSPost2010Prop51ColorRGB
 90
-16777216
102
RTVSPost2010PropOp51
 70
     0
102
RTVSPost2010Prop52
140
1.0
102
RTVSPost2010PropOp52
 70
     0
102
RTVSPost2010Prop53
 90
        2
102
RTVSPost2010PropOp53
 70
     1
102
RTVSPost2010Prop54
  1
strokes_ogs.tif
102
RTVSPost2010PropOp54
 70
     1
102
RTVSPost2010Prop55
280
     0
102
RTVSPost2010PropOp55
 70
     1
102
RTVSPost2010Prop56
140
1.0
102
RTVSPost2010PropOp56
 70
     1
102
RTVSPost2010Prop57
140
1.0
102
RTVSPost2010PropOp57
 70
     1
  0
XRECORD
  5
3BB
102
{ACAD_REACTORS
330
3BA
102
}
330
3BA
100
AcDbXrecord
280
     1
102
RTVSPropertyOp0
 70
     1
102
RTVSPropertyOp1
 70
     1
102
RTVSPropertyOp2
 70
     1
102
RTVSPropertyOp3
 70
     1
102
RTVSPropertyOp4
 70
     1
102
RTVSPropertyOp5
 70
     1
102
RTVSPropertyOp6
 70
     1
102
RTVSPropertyOp7
 70
     1
102
RTVSPropertyOp8
 70
     1
102
RTVSPropertyOp9
 70
     1
102
RTVSPropertyOp10
 70
     1
102
RTVSPropertyOp11
 70
     1
102
RTVSPropertyOp12
 70
     1
102
RTVSPropertyOp13
 70
     1
102
RTVSPropertyOp14
 70
     1
102
RTVSPropertyOp15
 70
     1
102
RTVSPropertyOp16
 70
     1
102
RTVSPropertyOp17
 70
     1
102
RTVSPropertyOp18
 70
     1
102
RTVSPropertyOp19
 70
     1
102
RTVSPropertyOp20
 70
     1
102
RTVSPropertyOp21
 70
     1
102
RTVSPropertyOp22
 70
     1
102
RTVSPropertyOp23
 70
     1
102
RTVSPropertyOp24
 70
     1
102
RTVSPropertyOp25
 70
     1
102
RTVSPropertyOp26
 70
     1
102
RTVSPropertyOp27
 70
     1
102
RTVSPropertyOp28
 70
     1
102
RTVSPropertyOp29
 70
     1
102
RTVSPropertyOp30
 70
     1
102
RTVSPropertyOp31
 70
     1
102
RTVSPropertyOp32
 70
     1
102
RTVSPropertyOp33
 70
     1
102
RTVSPropertyOp34
 70
     1
102
RTVSPropertyOp35
 70
     1
102
RTVSPropertyOp36
 70
     1
102
RTVSPropertyOp37
 70
     1
102
RTVSPropertyOp38
 70
     1
102
RTVSPropertyOp39
 70
     1
102
RTVSPropertyOp40
 70
     1
102
RTVSPropertyOp41
 70
     1
102
RTVSPropertyOp42
 70
     1
102
RTVSPropertyOp43
 70
     1
102
RTVSPropertyOp44
 70
     1
102
RTVSPropertyOp45
 70
     1
102
RTVSPropertyOp46
 70
     1
102
RTVSPropertyOp47
 70
     1
102
RTVSPropertyOp48
 70
     1
102
RTVSPropertyOp49
 70
     1
102
RTVSPropertyOp50
 70
     1
102
RTVSPropertyOp51
 70
     0
102
RTVSPropertyOp52
 70
     0
102
RTVSPropertyOp53
 70
     1
102
RTVSPropertyOp54
 70
     1
102
RTVSPropertyOp55
 70
     1
102
RTVSPropertyOp56
 70
     1
102
RTVSPropertyOp57
 70
     1
102
RTVSPost2010Prop28
280
     0
102
RTVSPost2010PropOp28
 70
     1
102
RTVSPost2010Prop29
280
     1
102
RTVSPost2010PropOp29
 70
     1
102
RTVSPost2010Prop30
280
     1
102
RTVSPost2010PropOp30
 70
     1
102
RTVSPost2010Prop31
280
     0
102
RTVSPost2010PropOp31
 70
     1
102
RTVSPost2010Prop32
280
     0
102
RTVSPost2010PropOp32
 70
     1
102
RTVSPost2010Prop33
280
     0
102
RTVSPost2010PropOp33
 70
     1
102
RTVSPost2010Prop34
280
     0
102
RTVSPost2010PropOp34
 70
     1
102
RTVSPost2010Prop35
280
     0
102
RTVSPost2010PropOp35
 70
     1
102
RTVSPost2010Prop36
280
     0
102
RTVSPost2010PropOp36
 70
     1
102
RTVSPost2010Prop37
 90
       50
102
RTVSPost2010PropOp37
 70
     1
102
RTVSPost2010Prop38
140
0.0
102
RTVSPost2010PropOp38
 70
     1
102
RTVSPost2010Prop39
140
1.0
102
RTVSPost2010PropOp39
 70
     1
102
RTVSPost2010Prop40
 90
        0
102
RTVSPost2010PropOp40
 70
     1
102
RTVSPost2010Prop41ColorIndex
 90
       18
102
RTVSPost2010Prop41ColorRGB
 90
        0
102
RTVSPost2010PropOp41
 70
     1
102
RTVSPost2010Prop42
 90
       50
102
RTVSPost2010PropOp42
 70
     1
102
RTVSPost2010Prop43
 90
        3
102
RTVSPost2010PropOp43
 70
     1
102
RTVSPost2010Prop44ColorIndex
 90
        5
102
RTVSPost2010Prop44ColorRGB
 90
      255
102
RTVSPost2010PropOp44
 70
     1
102
RTVSPost2010Prop45
280
     0
102
RTVSPost2010PropOp45
 70
     1
102
RTVSPost2010Prop46
 90
       50
102
RTVSPost2010PropOp46
 70
     1
102
RTVSPost2010Prop47
 90
       50
102
RTVSPost2010PropOp47
 70
     1
102
RTVSPost2010Prop48
 90
       50
102
RTVSPost2010PropOp48
 70
     1
102
RTVSPost2010Prop49
280
     0
102
RTVSPost2010PropOp49
 70
     1
102
RTVSPost2010Prop50
 90
       50
102
RTVSPost2010PropOp50
 70
     1
102
RTVSPost2010Prop51ColorIndex
 90
      256
102
RTVSPost2010Prop51ColorRGB
 90
-16777216
102
RTVSPost2010PropOp51
 70
     0
102
RTVSPost2010Prop52
140
1.0
102
RTVSPost2010PropOp52
 70
     0
102
RTVSPost2010Prop53
 90
        2
102
RTVSPost2010PropOp53
 70
     1
102
RTVSPost2010Prop54
  1
strokes_ogs.tif
102
RTVSPost2010PropOp54
 70
     1
102
RTVSPost2010Prop55
280
     0
102
RTVSPost2010PropOp55
 70
     1
102
RTVSPost2010Prop56
140
1.0
102
RTVSPost2010PropOp56
 70
     1
102
RTVSPost2010Prop57
140
1.0
102
RTVSPost2010PropOp57
 70
     1
  0
XRECORD
  5
3AB
102
{ACAD_REACTORS
330
3AA
102
}
330
3AA
100
AcDbXrecord
280
     1
102
RTVSPropertyOp0
 70
     1
102
RTVSPropertyOp1
 70
     1
102
RTVSPropertyOp2
 70
     1
102
RTVSPropertyOp3
 70
     1
102
RTVSPropertyOp4
 70
     1
102
RTVSPropertyOp5
 70
     1
102
RTVSPropertyOp6
 70
     1
102
RTVSPropertyOp7
 70
     1
102
RTVSPropertyOp8
 70
     1
102
RTVSPropertyOp9
 70
     1
102
RTVSPropertyOp10
 70
     1
102
RTVSPropertyOp11
 70
     1
102
RTVSPropertyOp12
 70
     1
102
RTVSPropertyOp13
 70
     1
102
RTVSPropertyOp14
 70
     1
102
RTVSPropertyOp15
 70
     1
102
RTVSPropertyOp16
 70
     1
102
RTVSPropertyOp17
 70
     1
102
RTVSPropertyOp18
 70
     1
102
RTVSPropertyOp19
 70
     1
102
RTVSPropertyOp20
 70
     1
102
RTVSPropertyOp21
 70
     1
102
RTVSPropertyOp22
 70
     1
102
RTVSPropertyOp23
 70
     1
102
RTVSPropertyOp24
 70
     1
102
RTVSPropertyOp25
 70
     1
102
RTVSPropertyOp26
 70
     1
102
RTVSPropertyOp27
 70
     1
102
RTVSPropertyOp28
 70
     1
102
RTVSPropertyOp29
 70
     1
102
RTVSPropertyOp30
 70
     1
102
RTVSPropertyOp31
 70
     1
102
RTVSPropertyOp32
 70
     1
102
RTVSPropertyOp33
 70
     1
102
RTVSPropertyOp34
 70
     1
102
RTVSPropertyOp35
 70
     1
102
RTVSPropertyOp36
 70
     1
102
RTVSPropertyOp37
 70
     1
102
RTVSPropertyOp38
 70
     1
102
RTVSPropertyOp39
 70
     1
102
RTVSPropertyOp40
 70
     1
102
RTVSPropertyOp41
 70
     1
102
RTVSPropertyOp42
 70
     1
102
RTVSPropertyOp43
 70
     1
102
RTVSPropertyOp44
 70
     1
102
RTVSPropertyOp45
 70
     1
102
RTVSPropertyOp46
 70
     1
102
RTVSPropertyOp47
 70
     1
102
RTVSPropertyOp48
 70
     1
102
RTVSPropertyOp49
 70
     1
102
RTVSPropertyOp50
 70
     1
102
RTVSPropertyOp51
 70
     0
102
RTVSPropertyOp52
 70
     0
102
RTVSPropertyOp53
 70
     1
102
RTVSPropertyOp54
 70
     1
102
RTVSPropertyOp55
 70
     1
102
RTVSPropertyOp56
 70
     1
102
RTVSPropertyOp57
 70
     1
102
RTVSPost2010Prop28
280
     0
102
RTVSPost2010PropOp28
 70
     1
102
RTVSPost2010Prop29
280
     1
102
RTVSPost2010PropOp29
 70
     1
102
RTVSPost2010Prop30
280
     1
102
RTVSPost2010PropOp30
 70
     1
102
RTVSPost2010Prop31
280
     0
102
RTVSPost2010PropOp31
 70
     1
102
RTVSPost2010Prop32
280
     0
102
RTVSPost2010PropOp32
 70
     1
102
RTVSPost2010Prop33
280
     0
102
RTVSPost2010PropOp33
 70
     1
102
RTVSPost2010Prop34
280
     0
102
RTVSPost2010PropOp34
 70
     1
102
RTVSPost2010Prop35
280
     0
102
RTVSPost2010PropOp35
 70
     1
102
RTVSPost2010Prop36
280
     0
102
RTVSPost2010PropOp36
 70
     1
102
RTVSPost2010Prop37
 90
       50
102
RTVSPost2010PropOp37
 70
     1
102
RTVSPost2010Prop38
140
0.0
102
RTVSPost2010PropOp38
 70
     1
102
RTVSPost2010Prop39
140
1.0
102
RTVSPost2010PropOp39
 70
     1
102
RTVSPost2010Prop40
 90
        0
102
RTVSPost2010PropOp40
 70
     1
102
RTVSPost2010Prop41ColorIndex
 90
       18
102
RTVSPost2010Prop41ColorRGB
 90
        0
102
RTVSPost2010PropOp41
 70
     1
102
RTVSPost2010Prop42
 90
       50
102
RTVSPost2010PropOp42
 70
     1
102
RTVSPost2010Prop43
 90
        3
102
RTVSPost2010PropOp43
 70
     1
102
RTVSPost2010Prop44ColorIndex
 90
        5
102
RTVSPost2010Prop44ColorRGB
 90
      255
102
RTVSPost2010PropOp44
 70
     1
102
RTVSPost2010Prop45
280
     0
102
RTVSPost2010PropOp45
 70
     1
102
RTVSPost2010Prop46
 90
       50
102
RTVSPost2010PropOp46
 70
     1
102
RTVSPost2010Prop47
 90
       50
102
RTVSPost2010PropOp47
 70
     1
102
RTVSPost2010Prop48
 90
       50
102
RTVSPost2010PropOp48
 70
     1
102
RTVSPost2010Prop49
280
     0
102
RTVSPost2010PropOp49
 70
     1
102
RTVSPost2010Prop50
 90
       50
102
RTVSPost2010PropOp50
 70
     1
102
RTVSPost2010Prop51ColorIndex
 90
      256
102
RTVSPost2010Prop51ColorRGB
 90
-16777216
102
RTVSPost2010PropOp51
 70
     0
102
RTVSPost2010Prop52
140
1.0
102
RTVSPost2010PropOp52
 70
     0
102
RTVSPost2010Prop53
 90
        2
102
RTVSPost2010PropOp53
 70
     1
102
RTVSPost2010Prop54
  1
strokes_ogs.tif
102
RTVSPost2010PropOp54
 70
     1
102
RTVSPost2010Prop55
280
     0
102
RTVSPost2010PropOp55
 70
     1
102
RTVSPost2010Prop56
140
1.0
102
RTVSPost2010PropOp56
 70
     1
102
RTVSPost2010Prop57
140
1.0
102
RTVSPost2010PropOp57
 70
     1
  0
XRECORD
  5
39D
102
{ACAD_REACTORS
330
39C
102
}
330
39C
100
AcDbXrecord
280
     1
102
RTVSPropertyOp0
 70
     1
102
RTVSPropertyOp1
 70
     1
102
RTVSPropertyOp2
 70
     1
102
RTVSPropertyOp3
 70
     1
102
RTVSPropertyOp4
 70
     1
102
RTVSPropertyOp5
 70
     1
102
RTVSPropertyOp6
 70
     1
102
RTVSPropertyOp7
 70
     1
102
RTVSPropertyOp8
 70
     1
102
RTVSPropertyOp9
 70
     1
102
RTVSPropertyOp10
 70
     1
102
RTVSPropertyOp11
 70
     1
102
RTVSPropertyOp12
 70
     1
102
RTVSPropertyOp13
 70
     1
102
RTVSPropertyOp14
 70
     1
102
RTVSPropertyOp15
 70
     1
102
RTVSPropertyOp16
 70
     1
102
RTVSPropertyOp17
 70
     1
102
RTVSPropertyOp18
 70
     1
102
RTVSPropertyOp19
 70
     1
102
RTVSPropertyOp20
 70
     1
102
RTVSPropertyOp21
 70
     1
102
RTVSPropertyOp22
 70
     1
102
RTVSPropertyOp23
 70
     1
102
RTVSPropertyOp24
 70
     1
102
RTVSPropertyOp25
 70
     1
102
RTVSPropertyOp26
 70
     1
102
RTVSPropertyOp27
 70
     1
102
RTVSPropertyOp28
 70
     1
102
RTVSPropertyOp29
 70
     1
102
RTVSPropertyOp30
 70
     1
102
RTVSPropertyOp31
 70
     1
102
RTVSPropertyOp32
 70
     1
102
RTVSPropertyOp33
 70
     1
102
RTVSPropertyOp34
 70
     1
102
RTVSPropertyOp35
 70
     1
102
RTVSPropertyOp36
 70
     1
102
RTVSPropertyOp37
 70
     1
102
RTVSPropertyOp38
 70
     1
102
RTVSPropertyOp39
 70
     1
102
RTVSPropertyOp40
 70
     1
102
RTVSPropertyOp41
 70
     1
102
RTVSPropertyOp42
 70
     1
102
RTVSPropertyOp43
 70
     1
102
RTVSPropertyOp44
 70
     1
102
RTVSPropertyOp45
 70
     1
102
RTVSPropertyOp46
 70
     1
102
RTVSPropertyOp47
 70
     1
102
RTVSPropertyOp48
 70
     1
102
RTVSPropertyOp49
 70
     1
102
RTVSPropertyOp50
 70
     1
102
RTVSPropertyOp51
 70
     0
102
RTVSPropertyOp52
 70
     0
102
RTVSPropertyOp53
 70
     1
102
RTVSPropertyOp54
 70
     1
102
RTVSPropertyOp55
 70
     1
102
RTVSPropertyOp56
 70
     1
102
RTVSPropertyOp57
 70
     1
102
RTVSPost2010Prop28
280
     0
102
RTVSPost2010PropOp28
 70
     1
102
RTVSPost2010Prop29
280
     1
102
RTVSPost2010PropOp29
 70
     1
102
RTVSPost2010Prop30
280
     1
102
RTVSPost2010PropOp30
 70
     1
102
RTVSPost2010Prop31
280
     0
102
RTVSPost2010PropOp31
 70
     1
102
RTVSPost2010Prop32
280
     0
102
RTVSPost2010PropOp32
 70
     1
102
RTVSPost2010Prop33
280
     0
102
RTVSPost2010PropOp33
 70
     1
102
RTVSPost2010Prop34
280
     0
102
RTVSPost2010PropOp34
 70
     1
102
RTVSPost2010Prop35
280
     0
102
RTVSPost2010PropOp35
 70
     1
102
RTVSPost2010Prop36
280
     0
102
RTVSPost2010PropOp36
 70
     1
102
RTVSPost2010Prop37
 90
       50
102
RTVSPost2010PropOp37
 70
     1
102
RTVSPost2010Prop38
140
0.0
102
RTVSPost2010PropOp38
 70
     1
102
RTVSPost2010Prop39
140
1.0
102
RTVSPost2010PropOp39
 70
     1
102
RTVSPost2010Prop40
 90
        0
102
RTVSPost2010PropOp40
 70
     1
102
RTVSPost2010Prop41ColorIndex
 90
       18
102
RTVSPost2010Prop41ColorRGB
 90
        0
102
RTVSPost2010PropOp41
 70
     1
102
RTVSPost2010Prop42
 90
       50
102
RTVSPost2010PropOp42
 70
     1
102
RTVSPost2010Prop43
 90
        3
102
RTVSPost2010PropOp43
 70
     1
102
RTVSPost2010Prop44ColorIndex
 90
        5
102
RTVSPost2010Prop44ColorRGB
 90
      255
102
RTVSPost2010PropOp44
 70
     1
102
RTVSPost2010Prop45
280
     0
102
RTVSPost2010PropOp45
 70
     1
102
RTVSPost2010Prop46
 90
       50
102
RTVSPost2010PropOp46
 70
     1
102
RTVSPost2010Prop47
 90
       50
102
RTVSPost2010PropOp47
 70
     1
102
RTVSPost2010Prop48
 90
       50
102
RTVSPost2010PropOp48
 70
     1
102
RTVSPost2010Prop49
280
     0
102
RTVSPost2010PropOp49
 70
     1
102
RTVSPost2010Prop50
 90
       50
102
RTVSPost2010PropOp50
 70
     1
102
RTVSPost2010Prop51ColorIndex
 90
      256
102
RTVSPost2010Prop51ColorRGB
 90
-16777216
102
RTVSPost2010PropOp51
 70
     0
102
RTVSPost2010Prop52
140
1.0
102
RTVSPost2010PropOp52
 70
     0
102
RTVSPost2010Prop53
 90
        2
102
RTVSPost2010PropOp53
 70
     1
102
RTVSPost2010Prop54
  1
strokes_ogs.tif
102
RTVSPost2010PropOp54
 70
     1
102
RTVSPost2010Prop55
280
     0
102
RTVSPost2010PropOp55
 70
     1
102
RTVSPost2010Prop56
140
1.0
102
RTVSPost2010PropOp56
 70
     1
102
RTVSPost2010Prop57
140
1.0
102
RTVSPost2010PropOp57
 70
     1
  0
XRECORD
  5
3BD
102
{ACAD_REACTORS
330
3BC
102
}
330
3BC
100
AcDbXrecord
280
     1
102
RTVSPropertyOp0
 70
     1
102
RTVSPropertyOp1
 70
     1
102
RTVSPropertyOp2
 70
     1
102
RTVSPropertyOp3
 70
     1
102
RTVSPropertyOp4
 70
     1
102
RTVSPropertyOp5
 70
     1
102
RTVSPropertyOp6
 70
     1
102
RTVSPropertyOp7
 70
     1
102
RTVSPropertyOp8
 70
     1
102
RTVSPropertyOp9
 70
     1
102
RTVSPropertyOp10
 70
     1
102
RTVSPropertyOp11
 70
     1
102
RTVSPropertyOp12
 70
     1
102
RTVSPropertyOp13
 70
     1
102
RTVSPropertyOp14
 70
     1
102
RTVSPropertyOp15
 70
     1
102
RTVSPropertyOp16
 70
     1
102
RTVSPropertyOp17
 70
     1
102
RTVSPropertyOp18
 70
     1
102
RTVSPropertyOp19
 70
     1
102
RTVSPropertyOp20
 70
     1
102
RTVSPropertyOp21
 70
     1
102
RTVSPropertyOp22
 70
     1
102
RTVSPropertyOp23
 70
     1
102
RTVSPropertyOp24
 70
     1
102
RTVSPropertyOp25
 70
     1
102
RTVSPropertyOp26
 70
     1
102
RTVSPropertyOp27
 70
     1
102
RTVSPropertyOp28
 70
     1
102
RTVSPropertyOp29
 70
     1
102
RTVSPropertyOp30
 70
     1
102
RTVSPropertyOp31
 70
     1
102
RTVSPropertyOp32
 70
     1
102
RTVSPropertyOp33
 70
     1
102
RTVSPropertyOp34
 70
     1
102
RTVSPropertyOp35
 70
     1
102
RTVSPropertyOp36
 70
     1
102
RTVSPropertyOp37
 70
     1
102
RTVSPropertyOp38
 70
     1
102
RTVSPropertyOp39
 70
     1
102
RTVSPropertyOp40
 70
     1
102
RTVSPropertyOp41
 70
     1
102
RTVSPropertyOp42
 70
     1
102
RTVSPropertyOp43
 70
     1
102
RTVSPropertyOp44
 70
     1
102
RTVSPropertyOp45
 70
     1
102
RTVSPropertyOp46
 70
     1
102
RTVSPropertyOp47
 70
     1
102
RTVSPropertyOp48
 70
     1
102
RTVSPropertyOp49
 70
     1
102
RTVSPropertyOp50
 70
     1
102
RTVSPropertyOp51
 70
     0
102
RTVSPropertyOp52
 70
     0
102
RTVSPropertyOp53
 70
     1
102
RTVSPropertyOp54
 70
     1
102
RTVSPropertyOp55
 70
     1
102
RTVSPropertyOp56
 70
     1
102
RTVSPropertyOp57
 70
     1
102
RTVSPost2010Prop28
280
     0
102
RTVSPost2010PropOp28
 70
     1
102
RTVSPost2010Prop29
280
     1
102
RTVSPost2010PropOp29
 70
     1
102
RTVSPost2010Prop30
280
     1
102
RTVSPost2010PropOp30
 70
     1
102
RTVSPost2010Prop31
280
     0
102
RTVSPost2010PropOp31
 70
     1
102
RTVSPost2010Prop32
280
     0
102
RTVSPost2010PropOp32
 70
     1
102
RTVSPost2010Prop33
280
     0
102
RTVSPost2010PropOp33
 70
     1
102
RTVSPost2010Prop34
280
     0
102
RTVSPost2010PropOp34
 70
     1
102
RTVSPost2010Prop35
280
     0
102
RTVSPost2010PropOp35
 70
     1
102
RTVSPost2010Prop36
280
     0
102
RTVSPost2010PropOp36
 70
     1
102
RTVSPost2010Prop37
 90
       50
102
RTVSPost2010PropOp37
 70
     1
102
RTVSPost2010Prop38
140
0.0
102
RTVSPost2010PropOp38
 70
     1
102
RTVSPost2010Prop39
140
1.0
102
RTVSPost2010PropOp39
 70
     1
102
RTVSPost2010Prop40
 90
        0
102
RTVSPost2010PropOp40
 70
     1
102
RTVSPost2010Prop41ColorIndex
 90
       18
102
RTVSPost2010Prop41ColorRGB
 90
        0
102
RTVSPost2010PropOp41
 70
     1
102
RTVSPost2010Prop42
 90
       50
102
RTVSPost2010PropOp42
 70
     1
102
RTVSPost2010Prop43
 90
        3
102
RTVSPost2010PropOp43
 70
     1
102
RTVSPost2010Prop44ColorIndex
 90
        5
102
RTVSPost2010Prop44ColorRGB
 90
      255
102
RTVSPost2010PropOp44
 70
     1
102
RTVSPost2010Prop45
280
     0
102
RTVSPost2010PropOp45
 70
     1
102
RTVSPost2010Prop46
 90
       50
102
RTVSPost2010PropOp46
 70
     1
102
RTVSPost2010Prop47
 90
       50
102
RTVSPost2010PropOp47
 70
     1
102
RTVSPost2010Prop48
 90
       50
102
RTVSPost2010PropOp48
 70
     1
102
RTVSPost2010Prop49
280
     0
102
RTVSPost2010PropOp49
 70
     1
102
RTVSPost2010Prop50
 90
       50
102
RTVSPost2010PropOp50
 70
     1
102
RTVSPost2010Prop51ColorIndex
 90
      256
102
RTVSPost2010Prop51ColorRGB
 90
-16777216
102
RTVSPost2010PropOp51
 70
     0
102
RTVSPost2010Prop52
140
1.0
102
RTVSPost2010PropOp52
 70
     0
102
RTVSPost2010Prop53
 90
        2
102
RTVSPost2010PropOp53
 70
     1
102
RTVSPost2010Prop54
  1
strokes_ogs.tif
102
RTVSPost2010PropOp54
 70
     1
102
RTVSPost2010Prop55
280
     0
102
RTVSPost2010PropOp55
 70
     1
102
RTVSPost2010Prop56
140
1.0
102
RTVSPost2010PropOp56
 70
     1
102
RTVSPost2010Prop57
140
1.0
102
RTVSPost2010PropOp57
 70
     1
  0
ENDSEC
  0
SECTION
  2
THUMBNAILIMAGE
 90
    16364
310
28000000B40000005500000001000800000000000000000000000000000000000000000000000000FFFFFF00FF000000FFFF000000FF000000FFFF000000FF00FF00FF000000000080808000C0C0C000FF000000FF7F7F00A5000000A55252007F0000007F3F3F004C0000004C2626002600000026131300FF3F0000FF9F7F
310
00A5290000A56752007F1F00007F4F3F004C1300004C2F26002609000026171300FF7F0000FFBF7F00A5520000A57C52007F3F00007F5F3F004C2600004C39260026130000261C1300FFBF0000FFDF7F00A57C0000A59152007F5F00007F6F3F004C3900004C422600261C000026211300FFFF0000FFFF7F00A5A50000A5A5
310
52007F7F00007F7F3F004C4C00004C4C26002626000026261300BFFF0000DFFF7F007CA5000091A552005F7F00006F7F3F00394C0000424C26001C260000212613007FFF0000BFFF7F0052A500007CA552003F7F00005F7F3F00264C0000394C2600132600001C2613003FFF00009FFF7F0029A5000067A552001F7F00004F
310
7F3F00134C00002F4C2600092600001726130000FF00007FFF7F0000A5000052A55200007F00003F7F3F00004C0000264C2600002600001326130000FF3F007FFF9F0000A5290052A56700007F1F003F7F4F00004C1300264C2F00002609001326170000FF7F007FFFBF0000A5520052A57C00007F3F003F7F5F00004C2600
310
264C39000026130013261C0000FFBF007FFFDF0000A57C0052A59100007F5F003F7F6F00004C3900264C420000261C001326210000FFFF007FFFFF0000A5A50052A5A500007F7F003F7F7F00004C4C00264C4C00002626001326260000BFFF007FDFFF00007CA5005291A500005F7F003F6F7F0000394C0026424C00001C26
310
0013212600007FFF007FBFFF000052A500527CA500003F7F003F5F7F0000264C0026394C0000132600131C2600003FFF007F9FFF000029A5005267A500001F7F003F4F7F0000134C00262F4C0000092600131726000000FF007F7FFF000000A5005252A50000007F003F3F7F0000004C0026264C0000002600131326003F00
310
FF009F7FFF002900A5006752A5001F007F004F3F7F0013004C002F264C0009002600171326007F00FF00BF7FFF005200A5007C52A5003F007F005F3F7F0026004C0039264C00130026001C132600BF00FF00DF7FFF007C00A5009152A5005F007F006F3F7F0039004C0042264C001C00260021132600FF00FF00FF7FFF00A5
310
00A500A552A5007F007F007F3F7F004C004C004C264C002600260026132600FF00BF00FF7FDF00A5007C00A55291007F005F007F3F6F004C0039004C26420026001C0026132100FF007F00FF7FBF00A5005200A5527C007F003F007F3F5F004C0026004C2639002600130026131C00FF003F00FF7F9F00A5002900A5526700
310
7F001F007F3F4F004C0013004C262F002600090026131700000000002D2D2D005B5B5B0089898900B7B7B700B3B3B30000000000000000000000000000000000000000000000000000000000000000000000000000000000000000000000000000000000000000000000000000000000000000000000000000000000000000
310
00000000000000000000000000000000000000000000000000000000000000000000000000000000000000000000000000000000000000000000000000000000000000000000000000000000000000000000000000000000000000000000000000000000000000000000000000000000000000000000000000000000000000
310
00000000000000000000000000000000000000000000000000000000000000000000000000000000000000000000000000000000000000000000000000000000000000000000000000000000000000000000000000000000000000000000000000000000000000000000000000000000000000000000000000000000000000
310
00000000000000000000000000000000000000000000000000000000000000000000000000000000000000000000000000000000000000000000000000000000000000000000000000000000000000000000000000000000000000000000000000000000000000000000000000000000000000000000000000000000000000
310
00000000000000000000000000000000000000000000000000000000000000000000000000000000000000000000000000000000000000000000000000000000000000000000000000000000000000000000000000000000000000000000000000000000000000000000000000000000000000000000000000000000000000
310
00000000000000000000000000000000000000000000000000000000000000000000000000000000000000000000000000000000000000000000000000000000000000000000000000000000000000000000000000000000000000000000000000000000000000000000000000000000000000000000000000000000000000
310
00000000000000000000000000000000000000000000000000000000000000000000000000000000000000000000000000000000000000000000000000000000000000000007070707070707070707070707070707070707070707000000000000000000000000000000000000070707070707070707070707070707070707
310
07070000000000000000000000000000000000000000000000000000000000000000000000000000000000000000000000000000000000000000000000000000000000000000000000000000000000000000000000000000000000000000000000000000000000000000000000000000000000000000000000000707000000
310
00000000070707070000000000000007070000000000000000000000000000000000000707000000000000070707070000000000000007000000000000000000000000000000000000000000000000000000000000000000000000000000000000000000000000000000000000000000000000000000000000000000000000
310
00000000000000000000000000000000000000000000000000000000000000000000000000000000000000000000000007070000000000000007070707000000000000000707000000000000000000000000000000000000070700000000000007070707000000000000070700000000000000000000000000000000000000
310
00000000000000000000000000000000000000000000000000000000000000000000000000000000000000000000000000000000000000000000000000000000000000000000000000000000000000000000000000000000000000000000000000000000000707070707070707070707070707070707070707070700000000
310
00000000000000000000000000000707070707070707070707070707070707070707000000000000000000000000000000000000000000000000000000000000000000000000000000000000000000000000000000000000000000000000000000000000000000000000000000000000000000000000000000000000000000
310
00000000000000000000000000000000000000000000000000000007070000000000000007070707000000000000000707000000000000000000000000000000000000070700000000000007070707000000000000070700070707070700000000000000000000000000000000000000000000000000000000000000000000
310
00000000000000000000000000000000000000000000000000000000000000000000000000000000000000000000000000000000000000000000000000000000000000000000000000000000000000000707000000000000000707070700000000000000070700000000000000000000000000000000000007070000000000
310
00070707070000000000000707070007070707000000000000000000000000000000000000000000000000000000000000000000000000000000000000000000000000000000000000000000000000000000000000000000000000000000000000000000000000000000000000000000000000000000000000000000000000
310
00000000000007070303030303030303030303030303030303030707000000000000000000000000000000000000070703030303030303030503030303030303070707070707070000000000000000000000000000000000000000000000000000000000000000000000000000000000000000000000000000000000000000
310
00000000000000000000000000000000000000000000000000000000000000000000000000000000000000000000000000000000000007070707000305030000000000000005000000000000000003050300000000000000000000000000000000000003050000030000000000050000000000030005030000000707000000
310
00000000000000000000000000000000000000000000000000000000000000000000000000000000000000000000000000000000000000000000000000000000000000000000000000000000000000000000000000000000000000000000000000000000000000000000000703030303030303030303030303030303030303
310
03030303030303030303000000000000000000000000000000070303030303030303030303030303030303030307000000070000000000000000000000000000000000000000000000000000000000000000000000000000000000000000000000000000000000000000000000000000000000000000000000000000000000
310
00000000000000000000000000000000000000000000000000000000000000000000000707070000000000000000000007000000000000000000000007000700000000000000000000000000000007000007000000000000050000000000000700000700000007000000000000000000000000000000000000000000000000
310
00000000000000000000000000000000000000000000000000000000000000000000000000000000000000000000000000000000000000000000000000000000000000000000000000000000000000000000000000000707070707070707070707070707070505070707070707070707070707070700000000000000000000
310
00000000050005050505050505050505050505050507000007000000070000000000000000000000000000000000000000000000000000000000000000000000000000000000000000000000000000000000000000000000000000000000000000000000000000000000000000000000000000000000000000000000000000
310
00000000000000000000000005000007070000000000000000000005050000000000000000000007000005000000000000000000000000000007000700000000000000050000000000000700000700000007000000000000000000000000000000000000000000000000000000000000000000000000000000000000000000
310
00000000000000000000000000000000000000000000000000000000000000000000000000000000000000000000000000000000000000000000000000000000000500000707000000000000000000000505000000000000000000000700000500000000000000000000000000000700070000000000000005000000000000
310
07000007000000070000000000000000000000000000000000000000000000000000000000000000000000000000000000000000000000000000000000000000000000000000000000000000000000000000000000000000000000000000000000000000000000000000000000000000000000000000050000070700000000
310
00000000000005050000000000000000000007000005000000000000000000000000000007000700000000000000050000000000000700000700000007000000000000000000000000000000000000000000000000000000000000000000000000000000000000000000000000000000000000000000000000000000000000
310
00000000000000000000000000000000000000000000000000000000000000000000000000000000000000000500000707000000000000000000000505000000000000000000000700000500000000000000000000000000000700070000000000000005000000000000070000070000000700000000000000000000000000
310
00000000000000000000000000000000000000000000000000000000000000000000000000000000000000000000000000000000000000000000000000000000000000000000000000000000000000000000000000000000000000000000000000050000070700000000000000000000050500000000000000000000070000
310
05000000000000000000000000000007000700000000000000050000000000000700000700000007000000000000000000000000000000000000000000000000000000000000000000000000000000000000000000000000000000000000000000000000000000000000000000000000000000000000000000000000000000
310
00000000000000000000000000000000000000000000000500000707000000000000000000000505000000000000000000000700000500000000000000000000000000000700070000000000000005000000000000070000070000000700000000000000000000000000000000000000000000000000000000000000000000
310
00000000000000000000000000000000000000000000000000000000000000000000000000000000000000000000000000000000000000000000000000000000000000000000000000000000050000070700000000000000000000050500000000000000000000070000050000000000000000000000000000070007000000
310
00000000050000000000000700000700000007000000000000000000000000000000000000000000000000000000000000000000000000000000000000000000000000000000000000000000000000000000000000000000000000000000000000000000000000000000000000000000000000000000000000000000000000
310
00000500000707000000000000000000000505000000000000000000000700000500000000000000000000000000000700070000000000000005000000000000070000070000000700000000000000000000000000000000000000000000000000000000000000000000000000000000000000000000000000000000000000
310
00000000000000000000000000000000000000000000000000000000000000000000000000000000000000000000000000000000000000050000070700000000000000000000050500000000000000000000070000050000000000000000000000000000070007000000000000000500000000000007000007000000070000
310
00000000000000000000000000000000000000000000000000000000000000000000000000000000000000000000000000000000000000000000000000000000000000000000000000000000000000000000000000000000000000000000000000000000000000000000000005000007070000000000000000000005050000
310
00000000000000000700000500000000000000000000000000000700070000000000000005000000000000070000070007000700000000000000000000000000000000000000000000000000000000000000000000000000000000000000000000000000000000000000000000000000000000000000000000000000000000
310
00000000000000000000000000000000000000000000000000000000000000000000050000070700000000000000000000050500000000000000000000070000050000000000000000000000000000070007000000000000000500000000000007000007000707070000000000000000000000000000000000000000000000
310
00000000000000000000000000000000000000000000000000000000000000000000000000000000000000000000000000000000000000000000000000000000000000000000000000000000000000000000000000000005000007070000000000000000000005050000000000000000000007000005000000000000000000
310
00000000000700070000000000000005000000000000070000070007070700000000000000000000000000000000000000000000000000000000000000000000000000000000000000000000000000000000000000000000000000000000000000000000000000000000000000000000000000000000000000000000000000
310
00000000000000000000000000050000070700000000000000000000050500000000000000000000070000050000000000000000000000000000070007000000000000000500000000000007000007000707070000000000000000000000000000000000000000000000000000000000000000000000000000000000000000
310
00000000000000000000000000000000000000000000000000000000000000000000000000000000000000000000000000000000000000000000000000000000000005000007070000000000000000000005050000000000000000000007000005000000000000000000000000000007000700000000000000050000000000
310
00070000070007070700000000000000000000000000000000000000000000000000000000000000000000000000000000000000000000000000000000000000000000000000000000000000000000000000000000000000000000000000000000000000000000000000000000000000000000000000000500000707000000
310
00000000000000050500000000000000000000070000050000000000000000000000000000070007000000000000000500000000000007000007000000070000000000000000000000000000000000000000000000000000000000000000000000000000000000000000000000000000000000000000000000000000000000
310
00000000000000000000000000000000000000000000000000000000000000000000000000000000000000000005000007070000000000000000000005050000000000000000000007000005000000000000000000000000000007000700000000000000050000000000000700000700000007000000000000000000000000
310
00000000000000000000000000000000000000000000000000000000000000000000000000000000000000000000000000000000000000000000000000000000000000000000000000000000000000000000000000000000000000000000000000000500000707000000000000000000000505000000000000000000000700
310
00050000000000000000000000000000070007000000000000000500000000000007000007000000070000000000000000000000000000000000000000000000000000000000000000000000000000000000000000000000000000000000000000000000000000000000000000000000000000000000000000000000000000
310
00000000000000000000000000000000000000000000000005000007070000000000000000000005050000000000000000000007000005000000000000000000000000000007000700000000000000050000000000000700000700000007000000000000000000000000000000000000000000000000000000000000000000
310
00000000000000000000000000000000000000000000000000000000000000000000000000000000000000000000000000000000000000000000000000000000000000000000000000000000000500000707000000000000000000000505000000000000000000000700000500000000000000000000000000000700070000
310
00000000000500000000000007000007000000070000000000000000000000000000000000000000000000000000000000000000000000000000000000000000000000000000000000000000000000000000000000000000000000000000000000000000000000000000000000000000000000000000000000000000000000
310
00000005000007070000000000000000000005050000000000000000000007000005000000000000000000000000000007000700000000000000050000000000000700000700000007000000000000000000000000000000000000000000000000000000000000000000000000000000000000000000000000000000000000
310
00000000000000000000000000000000000000000000000000000000000000000000000000000000000000000000000000000000000000000500000707000000000000000000000505000000000000000000000700000500000000000000000000000000000700070000000000000005000000000000070000070000000700
310
00000000000000000000000000000000000000000000000000000000000000000000000000000000000000000000000000000000000000000000000000000000000000000000000000000000000000000000000000000000000000000000000000000000000000000000000000050000070700000000000000000000050500
310
00000000000000000007000005000000000000000000000000000007000700000000000000050000000000000700000700000007000000000000000000000000000000000000000000000000000000000000000000000000000000000000000000000000000000000000000000000000000000000000000000000000000000
310
00000000000000000000000000000000000000000000000000000000000000000000000707050707070707070707070707070505070707070707070707070707070700000000000000000000000000000707070505050505050505050505050505070707070000000700000000000000000000000000000000000000000000
310
00000000000000000000000000000000000000000000000000000000000000000000000000000000000000000000000000000000000000000000000000000000000000000000000000000000000000000000000000000000070705070707070707000707070707070707070707070707070707070707070000000000000000
310
00000000000007070303030303030303030303030303030303070700000007000000000000000000000000000000000000000000000000000000000000000000000000000000000000000000000000000000000000000000000000000000000000000000000000000000000000000000000000000000000000000000000000
310
00000000000000000000000000000303030307030703030703030303030303030303030303030303030303030300000000000000000000000007070707070305050505050303030307070703030707070707000700000000000000000000000000000000000000000000000000000000000000000000000000000000000000
310
00000000000000000000000000000000000000000000000000000000000000000000000000000000000000000000000000000000000000000000000000000000000000000005050707070000000005050000050500050500000000030003050505000000000000000000000007070707000000000505050505000500000707
310
07000000070707000007000000000000000000000000000000000000000000000000000000000000000000000000000000000000000000000000000000000000000000000000000000000000000000000000000000000000000000000000000000000000000000000000000000000000000000000000000000000505050707
310
00000000050500000505000005000000000003050505050000000000000000000000070707000000000005050505050005000007070700000007070700000700000000000000000000000000000000000000000000000000000000000000000000000000000000000000000000000000000000000000000000000000000000
310
00000000000000000000000000000000000000000000000000000000000000000000000000000000000000000000000000000707000000000005050000050500000500000000000000000000000000000000000000000007000707000000000505050505000500000007070000000707070007070000000000000000000000
310
00000000000000000000000000000000000000000000000000000000000000000000000000000000000000000000000000000000000000000000000000000000000000000000000000000000000000000000000000000000000000000000000000000000000000000000000000000505000005050000050000000000000000
310
00000000000000000000000000000007070707070707070705050007000000070707070707070707070700000000000000000000000000000000000000000000000000000000000000000000000000000000000000000000000000000000000000000000000000000000000000000000000000000000000000000000000000
310
00000000000000000000000000000000000000000000000000000000000000000000000000000000000000000000000000000000000000000000000000000000000000000000000000000000070000000700000007000000000000000000000000000000000000000000000000000000000000000000000000000000000000
310
00000000000000000000000000000000000000000000000000000000000000000000000000000000000000000000000000000000000000000000000000000000000000000000000000000000000000000000000000000000000000000000000000000000000000000000000000000000000000000000000000000000000000
310
00000707070707070707070000000000000000000000000000000000000000000000000000000000000000000000000000000000000000000000000000000000000000000000000000000000000000000000000000000000000000000000000000000000000000000000000000000000000000000000000000000000000000
310
00000000000000000000000000000000000000000000000000000000000000000000000000000000000000000000000000000000000000070707070707070707000000000000000000000000000000000000000000000000000000000000000000000000000000000000000000000000000000000000000000000000000000
310
00000000000000000000000000000000000000000000000000000000000000000000000000000000000000000000000000000000000000000000000000000000000000000000000000000000000000000000000000000000000000000000000000000000000000000000000000070707000707070000000000000000000000
310
00000000000000000000000000000000000000000000000000000000000000000000000000000000000000000000000000000000000000000000000000000000000000000000000000000000000000000000000000000000000000000000000000000000000000000000000000000000000000000000000000000000000000
310
00000000000000000000000000000000000000000000000000000000000000000000000000000000000000000000000000000000000000000000000000000000000000000000000000000000000000000000000000000000000000000000000000000000000000000000000000000000000000000000000000000000000000
310
00000000000000000000000000000000000000000000000000000000000000000000000000000000000000000000000000000000000000000000000000000000000000000000000000000000000000000000000000000000000000000000000000000000000000000000000000000000000000000000000000000000000000
310
00000000000000000000000000000000000000000000000000000000000000000000000000000000000000000000000000000000000000000000000000000000000000000000000000000000000000000000000000000000000000000000000000000000000000000000000000000000000000000000000000000000000000
310
00000000000000000000000000000000000000000000000000000000000000000000000000000000000000000000000000000000000000000000000000000000000000000000000000000000000000000000000000000000000000000000000000000000000000000000000000000000000000000000000000000000000000
310
00000000000000000000000000000000000000000000000000000007000007000000070000000000000000000000000000000000000000000000000000000000000000000000000000000000000000000000000000000000000000000000000000000000000000000000000000000000000000000000000000000000000000
310
00000000000000000000000000000000000000000000000000000000000000000000000000000000000000000000000000000000000000000000000000000000000000000000000000000000000000000707070707070707000000000000000000000000000000000000000000000000000000000000000000000000000000
310
00000000000000000000000000000000000000000000000000000000000000000000000000000000000000000000000000000000000000000000000000000000000000000000000000000000000000000000000000000000000000000000000000000000000000000000000000000000000000000000000000000000000000
310
00000000000007070707070707070000000000000000000000000000000000000000000000000000000000000000000000000000000000000000000000000000000000000000000000000000000000000000000000000000000000000000000000000000000000000000000000000000000000000000000000000000000000
310
00000000000000000000000000000000000000000000000000000000000000000000000000000000000000000000000000000000000000000000000707070707070707000000000000000000000000000000000000000000000000000000000000000000000000000000000000000000000000000000000000000000000000
310
00000000000000000000000000000000000000000000000000000000000000000000000000000000000000000000000000000000000000000000000000000000000000000000000000000000000000000000000000000000000000000000000000070707070707070707050505050505070505070705050705050505050507
310
07000000000000000000000000000000000000000000000000000000000000000000000000000000000000000000000000000000000000000000000000000000000000000000000000000000000000000000000000000000000000000000000000000000000000000000000000000000000000000000000000000000000000
310
00000000000000000000000000000000000000000000000700000007000707070000070707000700000707000007000000000000070700000000000000000000000000000000000000000000000000000000000000000000000000000000000000000000000000000000000000000000000000000000000000000000000000
310
00000000000000000000000000000000000000000000000000000000000000000000000000000000000000000000000000000000000000000000000000000000000000000000000000000000070000070707070707070707000707070707070707070707070707070707070707070000000000000000000000000000000000
310
00000000000000000000000000000000000000000000000000000000000000000000000000000000000000000000000000000000000000000000000000000000000000000000000000000000000000000000000000000000000000000000000000000000000000000000000000000000000000000000000000000000000000
310
00000700000700000000000000070707000700000500000007000000000000000000000700000000000000000000000000000000000000000000000000000000000000000000000000000000000000000000000000000000000000000000000000000000000000000000000000000000000000000000000000000000000000
310
00000000000000000000000000000000000000000000000000000000000000000000000000000000000000000000000000000000000000070000070000000007000000000007070000050700070700000000070707000000070000000000000000000000000000000000000000000000000000000000000000000000000000
310
00000000000000000000000000000000000000000000000000000000000000000000000000000000000000000000000000000000000000000000000000000000000000000000000000000000000000000000000000000000000000000000000000000000000000000000000007000007000000070707000000000303050503
310
05000503050000000007070000000700000000000000000000000000000000000000000000000000000000000000000000000000000000000000000000000000000000000000000000000000000000000000000000000000000000000000000000000000000000000000000000000000000000000000000000000000000000
310
00000000000000000000000000000000000000000000000000000000000000000000070000070000000707070000000503030505030305030303000000000000000000070000000000000000000000000000000000000000000000000000000000000000000000000000000000000000000000000000000000000000000000
310
00000000000000000000000000000000000000000000000000000000000000000000000000000000000000000000000000000000000000000000000000000000000000000000000000000000000000000000000000000007000007000000000700000000000507050507050005070500000000000000000007000000000000
310
00000000000000000000000000000000000000000000000000000000000000000000000000000000000000000000000000000000000000000000000000000000000000000000000000000000000000000000000000000000000000000000000000000000000000000000000000000000000000000000000000000000000000
310
00000000000000000000000700070000070000000007000000000000070000050000000700000000000000000000070000000000000000000000000000000000000000000000000000000000000000000000000000000000000000000000000000000000000000000000000000000000000000000000000000000000000000
310
00000000000000000000000000000000000000000000000000000000000000000000000000000000000000000000000000000000000000000000000000000000070707000007000707070000000000000000000005000000000000000000000707070707000000000000000000000000000000000000000000000000000000
310
00000000000000000000000000000000000000000000000000000000000000000000000000000000000000000000000000000000000000000000000000000000000000000000000000000000000000000000000000000000000000000000000000000000000000000000000000000000000000000007070700050505050505
310
05050505050505050505050505050505050505050505050505050500000000000000000000000000000000000000000000000000000000000000000000000000000000000000000000000000000000000000000000000000000000000000000000000000000000000000000000000000000000000000000000000000000000
310
00000000000000000000000000000000000000000000000000000000000000000000000000000000000000070707000007000000000000000000000000000005000000000000000000000000000007000000000000000000000000000000000000000000000000000000000000000000000000000000000000000000000000
310
00000000000000000000000000000000000000000000000000000000000000000000000000000000000000000000000000000000000000000000000000000000000000000000000000000000000000000000000000000000000000000000000000000700000700000000000000000000000000000500000000000000000000
310
00000000070000000000000000000000000000000000000000000000000000000000000000000000000000000000000000000000000000000000000000000000000000000000000000000000000000000000000000000000000000000000000000000000000000000000000000000000000000000000000000000000000000
310
00000000000000000000000000000000000000000000000007000007000000000000000000000500000005000000000500000007070700000007000000000000000000000000000000000000000000000000000000000000000000000000000000000000000000000000000000000000000000000000000000000000000000
310
00000000000000000000000000000000000000000000000000000000000000000000000000000000000000000000000000000000000000000000000000000000000000000000000000000000000700000700000000000000000005070500050707050505070500000700070000000700000000000000000000000000000000
310
00000000000000000000000000000000000000000000000000000000000000000000000000000000000000000000000000000000000000000000000000000000000000000000000000000000000000000000000000000000000000000000000000000000000000000000000000000000000000000000000000000000000000
310
00000007000007000000000000000000050705000507070000070700000007070700000007000000000000000000000000000000000000000000000000000000000000000000000000000000000000000000000000000000000000000000000000000000000000000000000000000000000000000000000000000000000000
310
00000000000000000000000000000000000000000000000000000000000000000000000000000000000000000000000000000000000000000700000700000000000000000000070000000500000000070000000000000000000700000000000000000000000000000000000000000000000000000000000000000000000000
310
00000000000000000000000000000000000000000000000000000000000000000000000000000000000000000000000000000000000000000000000000000000000000000000000000000000000000000000000000000000000000000000000000000000000000000000000000070000070000000000000000000007000000
310
05000000000700000000000000000007000000000000000000000000000000000000000000000000000000000000000000000000000000000000000000000000000000000000000000000000000000000000000000000000000000000000000000000000000000000000000000000000000000000000000000000000000000
310
00000000000000000000000000000000000000000000000000000000000000000000000700000707070707070707070707070707070707070707070707070707070707070700000000000000000000000000000000000000000000000000000000000000000000000000000000000000000000000000000000000000000000
310
00000000000000000000000000000000000000000000000000000000000000000000000000000000000000000000000000000000000000000000000000000000000000000000000000000000000000000000000000000000070000070000070707000000000007000000070700000007000000000007070000070000000000
310
00000000000000000000000000000000000000000000000000000000000000000000000000000000000000000000000000000000000000000000000000000000000000000000000000000000000000000000000000000000000000000000000000000000000000000000000000000000000000000000000000000000000000
310
00000000000000000000000000000707070707070707070505050505070505050707050505070505050505070700000700000000000000000000000000000000000000000000000000000000000000000000000000000000000000000000000000000000000000000000000000000000000000000000000000000000000000
310
00000000000000000000000000000000000000000000000000000000000000000000000000000000000000000000000000000000000000000000000000000000000000000000070000000000000000000007070707070707070707000000000000000000070000000000000000000000000000000000000000000000000000
310
00000000000000000000000000000000000000000000000000000000000000000000000000000000000000000000000000000000000000000000000000000000000000000000000000000000000000000000000000000000000000000000000000000000000000000000000000000000000000000000000000000007000000
310
00000000000000070707070700070707070000000000000000000700000000000000000000000000000000000000000000000000000000000000000000000000000000000000000000000000000000000000000000000000000000000000000000000000000000000000000000000000000000000000000000000000000000
310
00000000000000000000000000000000000000000000000000000000000000000000000000000000000000000000000000070000000000000000000000070707000707070700000000000000000000070000000000000000000000000000000000000000000000000000000000000000000000000000000000000000000000
310
00000000000000000000000000000000000000000000000000000000000000000000000000000000000000000000000000000000000000000000000000000000000000000000000000000000000000000000000000000000000000000000000000000000000007070707070707070707070707070707070707070707070707
310
07070707070700000000000000000000000000000000000000000000000000000000000000000000000000000000000000000000000000000000000000000000000000000000000000000000000000000000000000000000000000000000000000000000000000000000000000000000000000000000000000000000000000
310
00000000000000000000000000000000000000000000000000000000070000000000000000000000000007070707000000000000000000000000070000000000000000000000000000000000000000000000000000000000000000000000000000000000000000000000000000000000000000000000000000000000000000
310
00000000000000000000000000000000000000000000000000000000000000000000000000000000000000000000000000000000000000000000000000000000000000000000000000000000000000000000000000000000000000000000070707070700000000000000000000000000000000000000000000000000000000
310
00000000000000000000000000000000000000000000000000000000000000000000000000000000000000000000000000000000000000000000000000000000000000000000000000000000000000000000000000000000000000000000000000000000000000000000000000000000000000000000000000000000000000
310
00000000000000000000000000000000000000000000000000000000000000000000000000000000000000000000000000000000000000000000000000000000000000000000000000000000000000000000000000000000000000000000000000000000000000000000000000000000000000000000000000000000000000
310
00000000000000000000000000000000000000000000000000000000000000000000000000000000000000000000000000000000000000000000000000000000000000000000000000000000000000000000000000000000000000000000000000000000000000000000000000000000000000000000000000000000000000
310
00000000000000000000000000000000000000000000000000000000000000000000000000000000000000000000000000000000000000000000000000000000000000000000000000000000000000000000000000000000000000000000000000000000000000000000000000000000000000000000000000000000000000
310
000000000000000000000000000000000000000000000000000000000000000000000000000000000000000000000000000000000000000000000000000000000000000000000000000000000000000000000000000000000000000000000000000000000000000000000000
  0
ENDSEC
  0
EOF
