  0
SECTION
  2
HEADER
  9
$ACADVER
  1
AC1015
  9
$ACADMAINTVER
 70
     6
  9
$DWGCODEPAGE
  3
ANSI_932
  9
$INSBASE
 10
0.0
 20
0.0
 30
0.0
  9
$EXTMIN
 10
1035.999890384834
 20
1889.999974519015
 30
0.0
  9
$EXTMAX
 10
3477.5
 20
4931.499787082641
 30
0.0
  9
$LIMMIN
 10
1035.999890384834
 20
1889.999974519015
  9
$LIMMAX
 10
3477.5
 20
4931.499787082641
  9
$ORTHOMODE
 70
     0
  9
$REGENMODE
 70
     1
  9
$FILLMODE
 70
     1
  9
$QTEXTMODE
 70
     0
  9
$MIRRTEXT
 70
     1
  9
$LTSCALE
 40
1.756246610929128
  9
$ATTMODE
 70
     1
  9
$TEXTSIZE
 40
2.5
  9
$TRACEWID
 40
1.0
  9
$TEXTSTYLE
  7
Standard
  9
$CLAYER
  8
0
  9
$CELTYPE
  6
ByLayer
  9
$CECOLOR
 62
   256
  9
$CELTSCALE
 40
1.0
  9
$DISPSILH
 70
     0
  9
$DIMSCALE
 40
1.0
  9
$DIMASZ
 40
2.5
  9
$DIMEXO
 40
0.625
  9
$DIMDLI
 40
3.75
  9
$DIMRND
 40
0.0
  9
$DIMDLE
 40
0.0
  9
$DIMEXE
 40
1.25
  9
$DIMTP
 40
0.0
  9
$DIMTM
 40
0.0
  9
$DIMTXT
 40
2.5
  9
$DIMCEN
 40
2.5
  9
$DIMTSZ
 40
0.0
  9
$DIMTOL
 70
     0
  9
$DIMLIM
 70
     0
  9
$DIMTIH
 70
     0
  9
$DIMTOH
 70
     0
  9
$DIMSE1
 70
     0
  9
$DIMSE2
 70
     0
  9
$DIMTAD
 70
     1
  9
$DIMZIN
 70
     0
  9
$DIMBLK
  1

  9
$DIMASO
 70
     1
  9
$DIMSHO
 70
     1
  9
$DIMPOST
  1

  9
$DIMAPOST
  1

  9
$DIMALT
 70
     0
  9
$DIMALTD
 70
     3
  9
$DIMALTF
 40
0.03937007874016
  9
$DIMLFAC
 40
1.0
  9
$DIMTOFL
 70
     1
  9
$DIMTVP
 40
0.0
  9
$DIMTIX
 70
     0
  9
$DIMSOXD
 70
     0
  9
$DIMSAH
 70
     0
  9
$DIMBLK1
  1

  9
$DIMBLK2
  1

  9
$DIMSTYLE
  2
Standard
  9
$DIMCLRD
 70
     0
  9
$DIMCLRE
 70
     0
  9
$DIMCLRT
 70
     0
  9
$DIMTFAC
 40
0.75
  9
$DIMGAP
 40
0.625
  9
$DIMJUST
 70
     0
  9
$DIMSD1
 70
     0
  9
$DIMSD2
 70
     0
  9
$DIMTOLJ
 70
     0
  9
$DIMTZIN
 70
     8
  9
$DIMALTZ
 70
     0
  9
$DIMALTTZ
 70
     0
  9
$DIMUPT
 70
     0
  9
$DIMDEC
 70
     2
  9
$DIMTDEC
 70
     2
  9
$DIMALTU
 70
     2
  9
$DIMALTTD
 70
     3
  9
$DIMTXSTY
  7
Standard
  9
$DIMAUNIT
 70
     0
  9
$DIMADEC
 70
     0
  9
$DIMALTRND
 40
0.0
  9
$DIMAZIN
 70
     0
  9
$DIMDSEP
 70
    46
  9
$DIMATFIT
 70
     3
  9
$DIMFRAC
 70
     0
  9
$DIMLDRBLK
  1

  9
$DIMLUNIT
 70
     2
  9
$DIMLWD
 70
    -2
  9
$DIMLWE
 70
    -2
  9
$DIMTMOVE
 70
     0
  9
$LUNITS
 70
     2
  9
$LUPREC
 70
     4
  9
$SKETCHINC
 40
1.0
  9
$FILLETRAD
 40
10.0
  9
$AUNITS
 70
     0
  9
$AUPREC
 70
     0
  9
$MENU
  1
.
  9
$ELEVATION
 40
0.0
  9
$PELEVATION
 40
0.0
  9
$THICKNESS
 40
0.0
  9
$LIMCHECK
 70
     0
  9
$CHAMFERA
 40
10.0
  9
$CHAMFERB
 40
10.0
  9
$CHAMFERC
 40
20.0
  9
$CHAMFERD
 40
0.0
  9
$SKPOLY
 70
     0
  9
$TDCREATE
 40
2455188.75
  9
$TDUCREATE
 40
2455188.375
  9
$TDUPDATE
 40
2455188.75
  9
$TDUUPDATE
 40
2455188.375
  9
$TDINDWG
 40
0.0000000116
  9
$TDUSRTIMER
 40
0.0000000116
  9
$USRTIMER
 70
     1
  9
$ANGBASE
 50
0.0
  9
$ANGDIR
 70
     0
  9
$PDMODE
 70
     0
  9
$PDSIZE
 40
0.0
  9
$PLINEWID
 40
0.0
  9
$SPLFRAME
 70
     0
  9
$SPLINETYPE
 70
     6
  9
$SPLINESEGS
 70
     8
  9
$HANDSEED
  5
3C3
  9
$SURFTAB1
 70
     6
  9
$SURFTAB2
 70
     6
  9
$SURFTYPE
 70
     6
  9
$SURFU
 70
     6
  9
$SURFV
 70
     6
  9
$UCSBASE
  2

  9
$UCSNAME
  2

  9
$UCSORG
 10
0.0
 20
0.0
 30
0.0
  9
$UCSXDIR
 10
1.0
 20
0.0
 30
0.0
  9
$UCSYDIR
 10
0.0
 20
1.0
 30
0.0
  9
$UCSORTHOREF
  2

  9
$UCSORTHOVIEW
 70
     0
  9
$UCSORGTOP
 10
0.0
 20
0.0
 30
0.0
  9
$UCSORGBOTTOM
 10
0.0
 20
0.0
 30
0.0
  9
$UCSORGLEFT
 10
0.0
 20
0.0
 30
0.0
  9
$UCSORGRIGHT
 10
0.0
 20
0.0
 30
0.0
  9
$UCSORGFRONT
 10
0.0
 20
0.0
 30
0.0
  9
$UCSORGBACK
 10
0.0
 20
0.0
 30
0.0
  9
$PUCSBASE
  2

  9
$PUCSNAME
  2

  9
$PUCSORG
 10
0.0
 20
0.0
 30
0.0
  9
$PUCSXDIR
 10
1.0
 20
0.0
 30
0.0
  9
$PUCSYDIR
 10
0.0
 20
1.0
 30
0.0
  9
$PUCSORTHOREF
  2

  9
$PUCSORTHOVIEW
 70
     0
  9
$PUCSORGTOP
 10
0.0
 20
0.0
 30
0.0
  9
$PUCSORGBOTTOM
 10
0.0
 20
0.0
 30
0.0
  9
$PUCSORGLEFT
 10
0.0
 20
0.0
 30
0.0
  9
$PUCSORGRIGHT
 10
0.0
 20
0.0
 30
0.0
  9
$PUCSORGFRONT
 10
0.0
 20
0.0
 30
0.0
  9
$PUCSORGBACK
 10
0.0
 20
0.0
 30
0.0
  9
$USERI1
 70
     0
  9
$USERI2
 70
     0
  9
$USERI3
 70
     0
  9
$USERI4
 70
     0
  9
$USERI5
 70
     0
  9
$USERR1
 40
0.0
  9
$USERR2
 40
0.0
  9
$USERR3
 40
0.0
  9
$USERR4
 40
0.0
  9
$USERR5
 40
0.0
  9
$WORLDVIEW
 70
     1
  9
$SHADEDGE
 70
     3
  9
$SHADEDIF
 70
    70
  9
$TILEMODE
 70
     1
  9
$MAXACTVP
 70
    64
  9
$PINSBASE
 10
0.0
 20
0.0
 30
0.0
  9
$PLIMCHECK
 70
     0
  9
$PEXTMIN
 10
1.000000000000000E+20
 20
1.000000000000000E+20
 30
1.000000000000000E+20
  9
$PEXTMAX
 10
-1.000000000000000E+20
 20
-1.000000000000000E+20
 30
-1.000000000000000E+20
  9
$PLIMMIN
 10
0.0
 20
0.0
  9
$PLIMMAX
 10
420.0
 20
297.0
  9
$UNITMODE
 70
     0
  9
$VISRETAIN
 70
     1
  9
$PLINEGEN
 70
     0
  9
$PSLTSCALE
 70
     0
  9
$TREEDEPTH
 70
  3020
  9
$CMLSTYLE
  2
Standard
  9
$CMLJUST
 70
     0
  9
$CMLSCALE
 40
20.0
  9
$PROXYGRAPHICS
 70
     1
  9
$MEASUREMENT
 70
     1
  9
$CELWEIGHT
370
    -1
  9
$ENDCAPS
280
     0
  9
$JOINSTYLE
280
     0
  9
$LWDISPLAY
290
     0
  9
$INSUNITS
 70
     4
  9
$HYPERLINKBASE
  1

  9
$STYLESHEET
  1

  9
$XEDIT
290
     1
  9
$CEPSNTYPE
380
     0
  9
$PSTYLEMODE
290
     1
  9
$FINGERPRINTGUID
  2
{32FF05B1-BA24-4568-B23B-0AAF50DEF20A}
  9
$VERSIONGUID
  2
{FAEB1C32-E019-11D5-929B-00C0DF256EC4}
  9
$EXTNAMES
290
     1
  9
$PSVPSCALE
 40
0.0
  9
$OLESTARTUP
290
     0
  0
ENDSEC
  0
SECTION
  2
CLASSES
  0
CLASS
  1
ACDBDICTIONARYWDFLT
  2
AcDbDictionaryWithDefault
  3
ObjectDBX Classes
 90
        0
280
     0
281
     0
  0
CLASS
  1
VISUALSTYLE
  2
AcDbVisualStyle
  3
ObjectDBX Classes
 90
     4095
280
     0
281
     0
  0
CLASS
  1
MATERIAL
  2
AcDbMaterial
  3
ObjectDBX Classes
 90
     1153
280
     0
281
     0
  0
CLASS
  1
SCALE
  2
AcDbScale
  3
ObjectDBX Classes
 90
     1153
280
     0
281
     0
  0
CLASS
  1
SUN
  2
AcDbSun
  3
SCENEOE
 90
     1153
280
     0
281
     0
  0
CLASS
  1
DICTIONARYVAR
  2
AcDbDictionaryVar
  3
ObjectDBX Classes
 90
        0
280
     0
281
     0
  0
CLASS
  1
ACDBPLACEHOLDER
  2
AcDbPlaceHolder
  3
ObjectDBX Classes
 90
        0
280
     0
281
     0
  0
CLASS
  1
LAYOUT
  2
AcDbLayout
  3
ObjectDBX Classes
 90
        0
280
     0
281
     0
  0
ENDSEC
  0
SECTION
  2
TABLES
  0
TABLE
  2
VPORT
  5
8
330
0
100
AcDbSymbolTable
 70
     1
  0
VPORT
  5
29
330
8
100
AcDbSymbolTableRecord
100
AcDbViewportTableRecord
  2
*Active
 70
     0
 10
0.0
 20
0.0
 11
1.0
 21
1.0
 12
2256.749945192417
 22
3410.749880800828
 13
0.0
 23
0.0
 14
10.0
 24
10.0
 15
10.0
 25
10.0
 16
0.0
 26
0.0
 36
1.0
 17
0.0
 27
0.0
 37
0.0
 40
3345.649793819989
 41
1.333333333333333
 42
50.0
 43
0.0
 44
0.0
 50
0.0
 51
0.0
 71
     0
 72
 20000
 73
     1
 74
     3
 75
     0
 76
     0
 77
     0
 78
     0
281
     0
 65
     1
110
0.0
120
0.0
130
0.0
111
1.0
121
0.0
131
0.0
112
0.0
122
1.0
132
0.0
 79
     0
146
0.0
  0
ENDTAB
  0
TABLE
  2
LTYPE
  5
5
330
0
100
AcDbSymbolTable
 70
     7
  0
LTYPE
  5
14
330
5
100
AcDbSymbolTableRecord
100
AcDbLinetypeTableRecord
  2
ByBlock
 70
     0
  3

 72
    65
 73
     0
 40
0.0
  0
LTYPE
  5
15
330
5
100
AcDbSymbolTableRecord
100
AcDbLinetypeTableRecord
  2
ByLayer
 70
     0
  3

 72
    65
 73
     0
 40
0.0
  0
LTYPE
  5
16
330
5
100
AcDbSymbolTableRecord
100
AcDbLinetypeTableRecord
  2
Continuous
 70
     0
  3
Solid line
 72
    65
 73
     0
 40
0.0
  0
LTYPE
  5
6B
330
5
100
AcDbSymbolTableRecord
100
AcDbLinetypeTableRecord
  2
DASHED
 70
     0
  3
ICAD/SX(2) Dashed __ __ __ __ __ __ __ __ __ __ __ __ __ _
 72
    65
 73
     2
 40
19.05
 49
12.7
 74
     0
 49
-6.35
 74
     0
  0
LTYPE
  5
6C
330
5
100
AcDbSymbolTableRecord
100
AcDbLinetypeTableRecord
  2
CENTER
 70
     0
  3
ICAD/SX(3) Center ____ _ ____ _ ____ _ ____ _ ____ _ ____
 72
    65
 73
     4
 40
50.8
 49
31.75
 74
     0
 49
-6.35
 74
     0
 49
6.35
 74
     0
 49
-6.35
 74
     0
  0
LTYPE
  5
6D
330
5
100
AcDbSymbolTableRecord
100
AcDbLinetypeTableRecord
  2
PHANTOM
 70
     0
  3
ICAD/SX(4) Phantom ______  __  __  ______  __  __  ______
 72
    65
 73
     6
 40
63.5
 49
31.75
 74
     0
 49
-6.35
 74
     0
 49
6.35
 74
     0
 49
-6.35
 74
     0
 49
6.35
 74
     0
 49
-6.35
 74
     0
  0
LTYPE
  5
6E
330
5
100
AcDbSymbolTableRecord
100
AcDbLinetypeTableRecord
  2
DOT
 70
     0
  3
ICAD/SX(5) Dot . . . . . . . . . . . . . . . . . . . . . . . .
 72
    65
 73
     2
 40
6.35
 49
0.0
 74
     0
 49
-6.35
 74
     0
  0
LTYPE
  5
6F
330
5
100
AcDbSymbolTableRecord
100
AcDbLinetypeTableRecord
  2
HIDDEN
 70
     0
  3
ICAD/SX(6) Hidden __ __ __ __ __ __ __ __ __ __ __ __ __ __
 72
    65
 73
     2
 40
9.525
 49
6.35
 74
     0
 49
-3.175
 74
     0
  0
LTYPE
  5
70
330
5
100
AcDbSymbolTableRecord
100
AcDbLinetypeTableRecord
  2
DOTSX
 70
     0
  3
ICAD/SX(5) Dot . . . . . . . . . . . . . . . . . . . . . . . .
 72
    65
 73
     2
 40
6.35
 49
3.175
 74
     0
 49
-3.175
 74
     0
  0
ENDTAB
  0
TABLE
  2
LAYER
  5
2
330
0
100
AcDbSymbolTable
 70
     4
  0
LAYER
  5
10
330
2
100
AcDbSymbolTableRecord
100
AcDbLayerTableRecord
  2
0
 70
     0
 62
     7
  6
Continuous
370
    -3
390
F
  0
LAYER
  5
71
330
2
100
AcDbSymbolTableRecord
100
AcDbLayerTableRecord
  2
NoLayerName_001
 70
     0
 62
     7
  6
Continuous
370
    -3
390
F
  0
LAYER
  5
72
330
2
100
AcDbSymbolTableRecord
100
AcDbLayerTableRecord
  2
FRAME
 70
     0
 62
     7
  6
Continuous
370
    -3
390
F
  0
LAYER
  5
73
330
2
100
AcDbSymbolTableRecord
100
AcDbLayerTableRecord
  2
Defpoints
 70
     0
 62
     7
  6
Continuous
290
     0
370
    -3
390
F
  0
ENDTAB
  0
TABLE
  2
STYLE
  5
3
330
0
100
AcDbSymbolTable
 70
     2
  0
STYLE
  5
11
330
3
100
AcDbSymbolTableRecord
100
AcDbTextStyleTableRecord
  2
Standard
 70
     0
 40
0.0
 41
1.0
 50
0.0
 71
     0
 42
2.5
  3
txt
  4
extfont2
  0
STYLE
  5
6A
330
3
100
AcDbSymbolTableRecord
100
AcDbTextStyleTableRecord
  2

 70
     1
 40
0.0
 41
1.0
 50
0.0
 71
     0
 42
2.5
  3
ltypeshp.shx
  4

  0
ENDTAB
  0
TABLE
  2
VIEW
  5
6
330
0
100
AcDbSymbolTable
 70
     0
  0
ENDTAB
  0
TABLE
  2
UCS
  5
7
330
0
100
AcDbSymbolTable
 70
     0
  0
ENDTAB
  0
TABLE
  2
APPID
  5
9
330
0
100
AcDbSymbolTable
 70
     4
  0
APPID
  5
12
330
9
100
AcDbSymbolTableRecord
100
AcDbRegAppTableRecord
  2
ACAD
 70
     0
  0
APPID
  5
388
330
9
100
AcDbSymbolTableRecord
100
AcDbRegAppTableRecord
  2
ACAD_DSTYLE_DIM_LINETYPE
 70
     0
  0
APPID
  5
389
330
9
100
AcDbSymbolTableRecord
100
AcDbRegAppTableRecord
  2
ACAD_DSTYLE_DIM_EXT1_LINETYPE
 70
     0
  0
APPID
  5
38A
330
9
100
AcDbSymbolTableRecord
100
AcDbRegAppTableRecord
  2
ACAD_DSTYLE_DIM_EXT2_LINETYPE
 70
     0
  0
ENDTAB
  0
TABLE
  2
DIMSTYLE
  5
A
330
0
100
AcDbSymbolTable
 70
     1
100
AcDbDimStyleTable
  0
DIMSTYLE
105
27
102
{ACAD_REACTORS
330
2A3
330
2B7
330
2C5
330
2D3
330
2E3
330
2F1
330
2FF
330
30D
330
31B
330
329
330
337
330
345
330
353
330
361
102
}
330
A
100
AcDbSymbolTableRecord
100
AcDbDimStyleTableRecord
  2
Standard
 70
     0
 41
2.5
 42
0.625
 43
3.75
 44
1.25
 73
     0
 74
     0
 77
     1
140
2.5
141
2.5
143
0.03937007874016
146
0.75
147
0.625
171
     3
172
     1
178
     0
271
     2
272
     2
274
     3
283
     0
284
     8
340
11
  0
ENDTAB
  0
TABLE
  2
BLOCK_RECORD
  5
1
330
0
100
AcDbSymbolTable
 70
    27
  0
BLOCK_RECORD
  5
1F
330
1
100
AcDbSymbolTableRecord
100
AcDbBlockTableRecord
  2
*Model_Space
340
22
  0
BLOCK_RECORD
  5
1B
330
1
100
AcDbSymbolTableRecord
100
AcDbBlockTableRecord
  2
*Paper_Space
340
1E
  0
BLOCK_RECORD
  5
23
330
1
100
AcDbSymbolTableRecord
100
AcDbBlockTableRecord
  2
*Paper_Space0
340
0
  0
BLOCK_RECORD
  5
74
330
1
100
AcDbSymbolTableRecord
100
AcDbBlockTableRecord
  2
JZB_0001
340
0
102
{BLKREFS
331
372
102
}
  0
BLOCK_RECORD
  5
77
330
1
100
AcDbSymbolTableRecord
100
AcDbBlockTableRecord
  2
JZB_0002
340
0
102
{BLKREFS
331
373
102
}
  0
BLOCK_RECORD
  5
7A
330
1
100
AcDbSymbolTableRecord
100
AcDbBlockTableRecord
  2
JZB_0003
340
0
102
{BLKREFS
331
374
102
}
  0
BLOCK_RECORD
  5
7D
330
1
100
AcDbSymbolTableRecord
100
AcDbBlockTableRecord
  2
JZB_0004
340
0
102
{BLKREFS
331
375
102
}
  0
BLOCK_RECORD
  5
80
330
1
100
AcDbSymbolTableRecord
100
AcDbBlockTableRecord
  2
JZB_0005
340
0
102
{BLKREFS
331
376
102
}
  0
BLOCK_RECORD
  5
83
330
1
100
AcDbSymbolTableRecord
100
AcDbBlockTableRecord
  2
JZB_0006
340
0
102
{BLKREFS
331
377
102
}
  0
BLOCK_RECORD
  5
86
330
1
100
AcDbSymbolTableRecord
100
AcDbBlockTableRecord
  2
JZB_0007
340
0
102
{BLKREFS
331
378
102
}
  0
BLOCK_RECORD
  5
89
330
1
100
AcDbSymbolTableRecord
100
AcDbBlockTableRecord
  2
JZB_0008
340
0
102
{BLKREFS
331
379
102
}
  0
BLOCK_RECORD
  5
8C
330
1
100
AcDbSymbolTableRecord
100
AcDbBlockTableRecord
  2
JZB_0009
340
0
102
{BLKREFS
331
37A
102
}
  0
BLOCK_RECORD
  5
8F
330
1
100
AcDbSymbolTableRecord
100
AcDbBlockTableRecord
  2
JZB_0010
340
0
102
{BLKREFS
331
37B
102
}
  0
BLOCK_RECORD
  5
92
330
1
100
AcDbSymbolTableRecord
100
AcDbBlockTableRecord
  2
JZB_0011
340
0
102
{BLKREFS
331
37C
102
}
  0
BLOCK_RECORD
  5
2A5
330
1
100
AcDbSymbolTableRecord
100
AcDbBlockTableRecord
  2
_OPEN30
340
0
102
{BLKREFS
331
2B2
331
2B1
331
2C0
331
2BF
331
2CE
331
2CD
331
2DC
331
2DB
331
2EC
331
2EB
331
2FA
331
2F9
331
308
331
307
331
316
331
315
331
324
331
323
331
332
331
331
331
340
331
33F
331
34E
331
34D
331
35C
331
35B
331
36A
331
369
102
}
  0
BLOCK_RECORD
  5
2AB
330
1
100
AcDbSymbolTableRecord
100
AcDbBlockTableRecord
  2
*D13
340
0
  0
BLOCK_RECORD
  5
2B9
330
1
100
AcDbSymbolTableRecord
100
AcDbBlockTableRecord
  2
*D14
340
0
  0
BLOCK_RECORD
  5
2C7
330
1
100
AcDbSymbolTableRecord
100
AcDbBlockTableRecord
  2
*D15
340
0
  0
BLOCK_RECORD
  5
2D5
330
1
100
AcDbSymbolTableRecord
100
AcDbBlockTableRecord
  2
*D16
340
0
  0
BLOCK_RECORD
  5
2E5
330
1
100
AcDbSymbolTableRecord
100
AcDbBlockTableRecord
  2
*D17
340
0
  0
BLOCK_RECORD
  5
2F3
330
1
100
AcDbSymbolTableRecord
100
AcDbBlockTableRecord
  2
*D18
340
0
  0
BLOCK_RECORD
  5
301
330
1
100
AcDbSymbolTableRecord
100
AcDbBlockTableRecord
  2
*D19
340
0
  0
BLOCK_RECORD
  5
30F
330
1
100
AcDbSymbolTableRecord
100
AcDbBlockTableRecord
  2
*D20
340
0
  0
BLOCK_RECORD
  5
31D
330
1
100
AcDbSymbolTableRecord
100
AcDbBlockTableRecord
  2
*D21
340
0
  0
BLOCK_RECORD
  5
32B
330
1
100
AcDbSymbolTableRecord
100
AcDbBlockTableRecord
  2
*D22
340
0
  0
BLOCK_RECORD
  5
339
330
1
100
AcDbSymbolTableRecord
100
AcDbBlockTableRecord
  2
*D23
340
0
  0
BLOCK_RECORD
  5
347
330
1
100
AcDbSymbolTableRecord
100
AcDbBlockTableRecord
  2
*D24
340
0
  0
BLOCK_RECORD
  5
355
330
1
100
AcDbSymbolTableRecord
100
AcDbBlockTableRecord
  2
*D25
340
0
  0
BLOCK_RECORD
  5
363
330
1
100
AcDbSymbolTableRecord
100
AcDbBlockTableRecord
  2
*D26
340
0
  0
ENDTAB
  0
ENDSEC
  0
SECTION
  2
BLOCKS
  0
BLOCK
  5
20
330
1F
100
AcDbEntity
  8
0
100
AcDbBlockBegin
  2
*Model_Space
 70
     0
 10
0.0
 20
0.0
 30
0.0
  3
*Model_Space
  1
*Model_Space
  0
ENDBLK
  5
21
330
1F
100
AcDbEntity
  8
0
100
AcDbBlockEnd
  0
BLOCK
  5
1C
330
1B
100
AcDbEntity
 67
     1
  8
0
100
AcDbBlockBegin
  2
*Paper_Space
 70
     0
 10
0.0
 20
0.0
 30
0.0
  3
*Paper_Space
  1
*Paper_Space
  0
ENDBLK
  5
1D
330
1B
100
AcDbEntity
 67
     1
  8
0
100
AcDbBlockEnd
  0
BLOCK
  5
24
330
23
100
AcDbEntity
  8
0
100
AcDbBlockBegin
  2
*Paper_Space0
 70
     0
 10
0.0
 20
0.0
 30
0.0
  3
*Paper_Space0
  1
*Paper_Space0
  0
ENDBLK
  5
25
330
23
100
AcDbEntity
  8
0
100
AcDbBlockEnd
  0
BLOCK
  5
75
330
74
100
AcDbEntity
  8
0
100
AcDbBlockBegin
  2
JZB_0001
 70
     0
 10
0.0
 20
0.0
 30
0.0
  3
JZB_0001
  1
JZB_0001
  0
ARC
  5
95
330
74
100
AcDbEntity
  8
NoLayerName_001
  6
Continuous
 62
     7
370
    25
100
AcDbCircle
 10
5.000001788139343
 20
144.999974519013
 30
0.0
 40
5.0
100
AcDbArc
 50
90.0
 51
180.0
  0
LINE
  5
96
330
74
100
AcDbEntity
  8
NoLayerName_001
  6
Continuous
 62
     7
370
    25
100
AcDbLine
 10
75.00000178813934
 20
149.999974519013
 30
0.0
 11
5.000001788139357
 21
149.999974519013
 31
0.0
  0
ARC
  5
97
330
74
100
AcDbEntity
  8
NoLayerName_001
  6
Continuous
 62
     7
370
    25
100
AcDbCircle
 10
75.00000178813934
 20
144.999974519013
 30
0.0
 40
5.0
100
AcDbArc
 50
0.0
 51
90.0
  0
CIRCLE
  5
98
330
74
100
AcDbEntity
  8
NoLayerName_001
  6
Continuous
 62
     7
370
    25
100
AcDbCircle
 10
60.00000178813934
 20
124.999974519013
 30
0.0
 40
7.0
  0
CIRCLE
  5
99
330
74
100
AcDbEntity
  8
NoLayerName_001
  6
Continuous
 62
     7
370
    25
100
AcDbCircle
 10
20.00000178813934
 20
124.999974519013
 30
0.0
 40
7.0
  0
LINE
  5
9A
330
74
100
AcDbEntity
  8
NoLayerName_001
  6
CENTER
 62
     1
370
    25
100
AcDbLine
 10
50.20000178814007
 20
124.999974519013
 30
0.0
 11
69.80000178814007
 21
124.999974519013
 31
0.0
  0
LINE
  5
9B
330
74
100
AcDbEntity
  8
NoLayerName_001
  6
CENTER
 62
     1
370
    25
100
AcDbLine
 10
60.00000178813934
 20
115.1999745190128
 30
0.0
 11
60.00000178813934
 21
134.7999745190128
 31
0.0
  0
LINE
  5
9C
330
74
100
AcDbEntity
  8
NoLayerName_001
  6
CENTER
 62
     1
370
    25
100
AcDbLine
 10
10.20000178814007
 20
124.999974519013
 30
0.0
 11
29.80000178814007
 21
124.999974519013
 31
0.0
  0
LINE
  5
9D
330
74
100
AcDbEntity
  8
NoLayerName_001
  6
CENTER
 62
     1
370
    25
100
AcDbLine
 10
20.00000178813934
 20
115.1999745190128
 30
0.0
 11
20.00000178813934
 21
134.7999745190128
 31
0.0
  0
ARC
  5
9E
330
74
100
AcDbEntity
  8
NoLayerName_001
  6
Continuous
 62
     7
370
    25
100
AcDbCircle
 10
18.00210805107781
 20
40.41831864892583
 30
0.0
 40
5.0
100
AcDbArc
 50
95.0
 51
113.6045156509201
  0
ARC
  5
9F
330
74
100
AcDbEntity
  8
NoLayerName_001
  6
Continuous
 62
     7
370
    25
100
AcDbCircle
 10
61.99789552520087
 20
40.41831864892583
 30
0.0
 40
5.0
100
AcDbArc
 50
66.39548434907991
 51
85.00000000000001
  0
LINE
  5
A0
330
74
100
AcDbEntity
  8
NoLayerName_001
  6
Continuous
 62
     7
370
    25
100
AcDbLine
 10
17.56632933733999
 20
45.39929213938512
 30
0.0
 11
37.00000178814008
 21
46.94809976288472
 31
0.0
  0
LINE
  5
A1
330
74
100
AcDbEntity
  8
NoLayerName_001
  6
Continuous
 62
     7
370
    25
100
AcDbLine
 10
62.43367423893869
 20
45.39929213938512
 30
0.0
 11
43.0000017881386
 21
46.94809976288472
 31
0.0
  0
LINE
  5
A2
330
74
100
AcDbEntity
  8
NoLayerName_001
  6
Continuous
 62
     7
370
    25
100
AcDbLine
 10
64.00000178813934
 20
44.99997451901299
 30
0.0
 11
16.00000178813934
 21
44.99997451901299
 31
0.0
  0
CIRCLE
  5
A3
330
74
100
AcDbEntity
  8
NoLayerName_001
  6
Continuous
 62
     7
370
    25
100
AcDbCircle
 10
60.00000178813934
 20
84.999974519013
 30
0.0
 40
7.0
  0
CIRCLE
  5
A4
330
74
100
AcDbEntity
  8
NoLayerName_001
  6
Continuous
 62
     7
370
    25
100
AcDbCircle
 10
20.00000178813934
 20
84.999974519013
 30
0.0
 40
7.0
  0
LINE
  5
A5
330
74
100
AcDbEntity
  8
NoLayerName_001
  6
CENTER
 62
     1
370
    25
100
AcDbLine
 10
50.20000178814007
 20
84.999974519013
 30
0.0
 11
69.80000178814007
 21
84.999974519013
 31
0.0
  0
LINE
  5
A6
330
74
100
AcDbEntity
  8
NoLayerName_001
  6
CENTER
 62
     1
370
    25
100
AcDbLine
 10
60.00000178813934
 20
75.19997451901281
 30
0.0
 11
60.00000178813934
 21
94.7999745190128
 31
0.0
  0
LINE
  5
A7
330
74
100
AcDbEntity
  8
NoLayerName_001
  6
CENTER
 62
     1
370
    25
100
AcDbLine
 10
10.20000178814007
 20
84.999974519013
 30
0.0
 11
29.80000178814007
 21
84.999974519013
 31
0.0
  0
LINE
  5
A8
330
74
100
AcDbEntity
  8
NoLayerName_001
  6
CENTER
 62
     1
370
    25
100
AcDbLine
 10
20.00000178813934
 20
75.19997451901281
 30
0.0
 11
20.00000178813934
 21
94.7999745190128
 31
0.0
  0
LINE
  5
A9
330
74
100
AcDbEntity
  8
NoLayerName_001
  6
Continuous
 62
     1
370
    25
100
AcDbLine
 10
15.00000178813934
 20
35.49997451901299
 30
0.0
 11
15.00000178813934
 21
42.92890670714752
 31
0.0
  0
LINE
  5
AA
330
74
100
AcDbEntity
  8
NoLayerName_001
  6
Continuous
 62
     7
370
    25
100
AcDbLine
 10
15.50000178813934
 20
34.99997451901299
 30
0.0
 11
64.50000178813934
 21
34.99997451901299
 31
0.0
  0
LINE
  5
AB
330
74
100
AcDbEntity
  8
NoLayerName_001
  6
Continuous
 62
     7
370
    25
100
AcDbLine
 10
15.50000178813934
 20
34.99997451901299
 30
0.0
 11
15.00000178813934
 21
35.49997451901299
 31
0.0
  0
LINE
  5
AC
330
74
100
AcDbEntity
  8
NoLayerName_001
  6
Continuous
 62
     7
370
    25
100
AcDbLine
 10
0.0000017881393433
 20
62.07104233087875
 30
0.0
 11
0.0000017881393433
 21
144.9999745190133
 31
0.0
  0
LINE
  5
AD
330
74
100
AcDbEntity
  8
NoLayerName_001
  6
Continuous
 62
     7
370
    25
100
AcDbLine
 10
13.53553569407086
 20
46.46444061308057
 30
0.0
 11
1.464467882205405
 21
58.53550842494602
 31
0.0
  0
ARC
  5
AE
330
74
100
AcDbEntity
  8
NoLayerName_001
  6
Continuous
 62
     7
370
    25
100
AcDbCircle
 10
5.000001788139343
 20
62.07104233087875
 30
0.0
 40
5.0
100
AcDbArc
 50
180.0
 51
225.0
  0
ARC
  5
AF
330
74
100
AcDbEntity
  8
NoLayerName_001
  6
Continuous
 62
     7
370
    25
100
AcDbCircle
 10
10.00000178813934
 20
42.92890670714723
 30
0.0
 40
5.0
100
AcDbArc
 50
0.0
 51
45.00000000000001
  0
LINE
  5
B0
330
74
100
AcDbEntity
  8
NoLayerName_001
  6
Continuous
 62
     7
370
    25
100
AcDbLine
 10
80.00000178813934
 20
62.07104233087875
 30
0.0
 11
80.00000178813934
 21
144.9999745190133
 31
0.0
  0
LINE
  5
B1
330
74
100
AcDbEntity
  8
NoLayerName_001
  6
Continuous
 62
     7
370
    25
100
AcDbLine
 10
66.46446788220601
 20
46.46444061308057
 30
0.0
 11
78.53553569407146
 21
58.53550842494602
 31
0.0
  0
ARC
  5
B2
330
74
100
AcDbEntity
  8
NoLayerName_001
  6
Continuous
 62
     7
370
    25
100
AcDbCircle
 10
75.00000178813934
 20
62.07104233087875
 30
0.0
 40
5.0
100
AcDbArc
 50
315.0
 51
0.0
  0
ARC
  5
B3
330
74
100
AcDbEntity
  8
NoLayerName_001
  6
Continuous
 62
     7
370
    25
100
AcDbCircle
 10
70.00000178813934
 20
42.92890670714723
 30
0.0
 40
5.0
100
AcDbArc
 50
135.0
 51
180.0
  0
LINE
  5
B4
330
74
100
AcDbEntity
  8
NoLayerName_001
  6
Continuous
 62
     1
370
    25
100
AcDbLine
 10
65.00000178813934
 20
42.92890670714723
 30
0.0
 11
65.00000178813934
 21
35.49997451901265
 31
0.0
  0
LINE
  5
B5
330
74
100
AcDbEntity
  8
NoLayerName_001
  6
Continuous
 62
     7
370
    25
100
AcDbLine
 10
64.50000178813934
 20
34.99997451901299
 30
0.0
 11
65.00000178813934
 21
35.49997451901299
 31
0.0
  0
LINE
  5
B6
330
74
100
AcDbEntity
  8
NoLayerName_001
  6
Continuous
 62
     7
370
    25
100
AcDbLine
 10
16.25986090113838
 20
31.99997451901299
 30
0.0
 11
63.7399899124116
 21
31.99997451901299
 31
0.0
  0
LINE
  5
B7
330
74
100
AcDbEntity
  8
NoLayerName_001
  6
Continuous
 62
     5
370
    25
100
AcDbLine
 10
63.00003196299076
 20
32.00009611248652
 30
0.0
 11
63.00003196299076
 21
34.99997399747235
 31
0.0
  0
LINE
  5
B8
330
74
100
AcDbEntity
  8
NoLayerName_001
  6
Continuous
 62
     5
370
    25
100
AcDbLine
 10
14.46012631016856
 20
30.86025652920262
 30
0.0
 11
4.999993202068708
 21
10.99997771033759
 31
0.0
  0
LINE
  5
B9
330
74
100
AcDbEntity
  8
NoLayerName_001
  6
Continuous
 62
     5
370
    25
100
AcDbLine
 10
16.99997161329156
 20
32.00009611248652
 30
0.0
 11
16.99997161329156
 21
34.99997399747235
 31
0.0
  0
LINE
  5
BA
330
74
100
AcDbEntity
  8
NoLayerName_001
  6
Continuous
 62
     5
370
    25
100
AcDbLine
 10
16.99997161329156
 20
32.00009611248652
 30
0.0
 11
16.99997161329156
 21
34.99997399747235
 31
0.0
  0
LINE
  5
BB
330
74
100
AcDbEntity
  8
NoLayerName_001
  6
Continuous
 62
     5
370
    25
100
AcDbLine
 10
8.000032782554626
 20
3.000157579776442
 30
0.0
 11
8.000032782554626
 21
-0.0000254809860962
 31
0.0
  0
LINE
  5
BC
330
74
100
AcDbEntity
  8
NoLayerName_001
  6
Continuous
 62
     5
370
    25
100
AcDbLine
 10
5.000002309679985
 20
3.999913424253918
 30
0.0
 11
5.000002309679985
 21
11.00003539025647
 31
0.0
  0
ARC
  5
BD
330
74
100
AcDbEntity
  8
NoLayerName_001
  6
Continuous
 62
     5
370
    25
100
AcDbCircle
 10
16.25992035478703
 20
29.99997407197816
 30
0.0
 40
1.99999999999989
100
AcDbArc
 50
90.0017032215788
 51
154.5370051416368
  0
ARC
  5
BE
330
74
100
AcDbEntity
  8
NoLayerName_001
  6
Continuous
 62
     5
370
    25
100
AcDbCircle
 10
5.999910742048087
 20
3.999913424253918
 30
0.0
 40
1.000000000000001
100
AcDbArc
 50
180.0000086226908
 51
269.9999974955179
  0
LINE
  5
BF
330
74
100
AcDbEntity
  8
NoLayerName_001
  6
Continuous
 62
     7
370
    25
100
AcDbLine
 10
6.010964509983751
 20
2.999974519012994
 30
0.0
 11
40.00000178813889
 21
2.999974519012994
 31
0.0
  0
LINE
  5
C0
330
74
100
AcDbEntity
  8
NoLayerName_001
  6
Continuous
 62
     5
370
    25
100
AcDbLine
 10
65.53987726611012
 20
30.86025652920262
 30
0.0
 11
75.00001037420998
 21
10.99997771033759
 31
0.0
  0
LINE
  5
C1
330
74
100
AcDbEntity
  8
NoLayerName_001
  6
Continuous
 62
     5
370
    25
100
AcDbLine
 10
71.99997079372406
 20
3.000157579776442
 30
0.0
 11
71.99997079372406
 21
-0.0000254809860962
 31
0.0
  0
LINE
  5
C2
330
74
100
AcDbEntity
  8
NoLayerName_001
  6
Continuous
 62
     5
370
    25
100
AcDbLine
 10
75.0000012665987
 20
3.999913424253918
 30
0.0
 11
75.0000012665987
 21
11.00003539025647
 31
0.0
  0
ARC
  5
C3
330
74
100
AcDbEntity
  8
NoLayerName_001
  6
Continuous
 62
     5
370
    25
100
AcDbCircle
 10
63.74008322149166
 20
29.99997407197816
 30
0.0
 40
1.99999999999989
100
AcDbArc
 50
25.4629948583632
 51
89.9982967784212
  0
ARC
  5
C4
330
74
100
AcDbEntity
  8
NoLayerName_001
  6
Continuous
 62
     5
370
    25
100
AcDbCircle
 10
74.0000928342306
 20
3.999913424253918
 30
0.0
 40
1.000000000000001
100
AcDbArc
 50
270.0000111271729
 51
0.0
  0
LINE
  5
C5
330
74
100
AcDbEntity
  8
NoLayerName_001
  6
Continuous
 62
     7
370
    25
100
AcDbLine
 10
73.98903906629494
 20
2.999974519012994
 30
0.0
 11
40.0000017881398
 21
2.999974519012994
 31
0.0
  0
ENDBLK
  5
76
330
74
100
AcDbEntity
  8
0
100
AcDbBlockEnd
  0
BLOCK
  5
78
330
77
100
AcDbEntity
  8
0
100
AcDbBlockBegin
  2
JZB_0002
 70
     0
 10
0.0
 20
0.0
 30
0.0
  3
JZB_0002
  1
JZB_0002
  0
ARC
  5
C6
330
77
100
AcDbEntity
  8
NoLayerName_001
  6
Continuous
 62
     7
370
    25
100
AcDbCircle
 10
5.000001788139343
 20
144.999974519013
 30
0.0
 40
5.0
100
AcDbArc
 50
90.0
 51
180.0
  0
LINE
  5
C7
330
77
100
AcDbEntity
  8
NoLayerName_001
  6
Continuous
 62
     7
370
    25
100
AcDbLine
 10
75.00000178813934
 20
149.999974519013
 30
0.0
 11
5.000001788139357
 21
149.999974519013
 31
0.0
  0
ARC
  5
C8
330
77
100
AcDbEntity
  8
NoLayerName_001
  6
Continuous
 62
     7
370
    25
100
AcDbCircle
 10
75.00000178813934
 20
144.999974519013
 30
0.0
 40
5.0
100
AcDbArc
 50
0.0
 51
90.0
  0
CIRCLE
  5
C9
330
77
100
AcDbEntity
  8
NoLayerName_001
  6
Continuous
 62
     7
370
    25
100
AcDbCircle
 10
60.00000178813934
 20
124.999974519013
 30
0.0
 40
7.0
  0
CIRCLE
  5
CA
330
77
100
AcDbEntity
  8
NoLayerName_001
  6
Continuous
 62
     7
370
    25
100
AcDbCircle
 10
20.00000178813934
 20
124.999974519013
 30
0.0
 40
7.0
  0
LINE
  5
CB
330
77
100
AcDbEntity
  8
NoLayerName_001
  6
CENTER
 62
     1
370
    25
100
AcDbLine
 10
50.20000178814007
 20
124.999974519013
 30
0.0
 11
69.80000178814007
 21
124.999974519013
 31
0.0
  0
LINE
  5
CC
330
77
100
AcDbEntity
  8
NoLayerName_001
  6
CENTER
 62
     1
370
    25
100
AcDbLine
 10
60.00000178813934
 20
115.1999745190128
 30
0.0
 11
60.00000178813934
 21
134.7999745190128
 31
0.0
  0
LINE
  5
CD
330
77
100
AcDbEntity
  8
NoLayerName_001
  6
CENTER
 62
     1
370
    25
100
AcDbLine
 10
10.20000178814007
 20
124.999974519013
 30
0.0
 11
29.80000178814007
 21
124.999974519013
 31
0.0
  0
LINE
  5
CE
330
77
100
AcDbEntity
  8
NoLayerName_001
  6
CENTER
 62
     1
370
    25
100
AcDbLine
 10
20.00000178813934
 20
115.1999745190128
 30
0.0
 11
20.00000178813934
 21
134.7999745190128
 31
0.0
  0
ARC
  5
CF
330
77
100
AcDbEntity
  8
NoLayerName_001
  6
Continuous
 62
     7
370
    25
100
AcDbCircle
 10
18.00210805107781
 20
40.41831864892583
 30
0.0
 40
5.0
100
AcDbArc
 50
95.0
 51
113.6045156509201
  0
ARC
  5
D0
330
77
100
AcDbEntity
  8
NoLayerName_001
  6
Continuous
 62
     7
370
    25
100
AcDbCircle
 10
61.99789552520087
 20
40.41831864892583
 30
0.0
 40
5.0
100
AcDbArc
 50
66.39548434907991
 51
85.00000000000001
  0
LINE
  5
D1
330
77
100
AcDbEntity
  8
NoLayerName_001
  6
Continuous
 62
     7
370
    25
100
AcDbLine
 10
17.56632933733999
 20
45.39929213938512
 30
0.0
 11
37.00000178814008
 21
46.94809976288472
 31
0.0
  0
LINE
  5
D2
330
77
100
AcDbEntity
  8
NoLayerName_001
  6
Continuous
 62
     7
370
    25
100
AcDbLine
 10
62.43367423893869
 20
45.39929213938512
 30
0.0
 11
43.0000017881386
 21
46.94809976288472
 31
0.0
  0
LINE
  5
D3
330
77
100
AcDbEntity
  8
NoLayerName_001
  6
Continuous
 62
     7
370
    25
100
AcDbLine
 10
64.00000178813934
 20
44.99997451901299
 30
0.0
 11
16.00000178813934
 21
44.99997451901299
 31
0.0
  0
CIRCLE
  5
D4
330
77
100
AcDbEntity
  8
NoLayerName_001
  6
Continuous
 62
     7
370
    25
100
AcDbCircle
 10
60.00000178813934
 20
84.999974519013
 30
0.0
 40
7.0
  0
CIRCLE
  5
D5
330
77
100
AcDbEntity
  8
NoLayerName_001
  6
Continuous
 62
     7
370
    25
100
AcDbCircle
 10
20.00000178813934
 20
84.999974519013
 30
0.0
 40
7.0
  0
LINE
  5
D6
330
77
100
AcDbEntity
  8
NoLayerName_001
  6
CENTER
 62
     1
370
    25
100
AcDbLine
 10
50.20000178814007
 20
84.999974519013
 30
0.0
 11
69.80000178814007
 21
84.999974519013
 31
0.0
  0
LINE
  5
D7
330
77
100
AcDbEntity
  8
NoLayerName_001
  6
CENTER
 62
     1
370
    25
100
AcDbLine
 10
60.00000178813934
 20
75.19997451901281
 30
0.0
 11
60.00000178813934
 21
94.7999745190128
 31
0.0
  0
LINE
  5
D8
330
77
100
AcDbEntity
  8
NoLayerName_001
  6
CENTER
 62
     1
370
    25
100
AcDbLine
 10
10.20000178814007
 20
84.999974519013
 30
0.0
 11
29.80000178814007
 21
84.999974519013
 31
0.0
  0
LINE
  5
D9
330
77
100
AcDbEntity
  8
NoLayerName_001
  6
CENTER
 62
     1
370
    25
100
AcDbLine
 10
20.00000178813934
 20
75.19997451901281
 30
0.0
 11
20.00000178813934
 21
94.7999745190128
 31
0.0
  0
LINE
  5
DA
330
77
100
AcDbEntity
  8
NoLayerName_001
  6
Continuous
 62
     1
370
    25
100
AcDbLine
 10
15.00000178813934
 20
35.49997451901299
 30
0.0
 11
15.00000178813934
 21
42.92890670714752
 31
0.0
  0
LINE
  5
DB
330
77
100
AcDbEntity
  8
NoLayerName_001
  6
Continuous
 62
     7
370
    25
100
AcDbLine
 10
15.50000178813934
 20
34.99997451901299
 30
0.0
 11
64.50000178813934
 21
34.99997451901299
 31
0.0
  0
LINE
  5
DC
330
77
100
AcDbEntity
  8
NoLayerName_001
  6
Continuous
 62
     7
370
    25
100
AcDbLine
 10
15.50000178813934
 20
34.99997451901299
 30
0.0
 11
15.00000178813934
 21
35.49997451901299
 31
0.0
  0
LINE
  5
DD
330
77
100
AcDbEntity
  8
NoLayerName_001
  6
Continuous
 62
     7
370
    25
100
AcDbLine
 10
0.0000017881393433
 20
62.07104233087875
 30
0.0
 11
0.0000017881393433
 21
144.9999745190133
 31
0.0
  0
LINE
  5
DE
330
77
100
AcDbEntity
  8
NoLayerName_001
  6
Continuous
 62
     7
370
    25
100
AcDbLine
 10
13.53553569407086
 20
46.46444061308057
 30
0.0
 11
1.464467882205405
 21
58.53550842494602
 31
0.0
  0
ARC
  5
DF
330
77
100
AcDbEntity
  8
NoLayerName_001
  6
Continuous
 62
     7
370
    25
100
AcDbCircle
 10
5.000001788139343
 20
62.07104233087875
 30
0.0
 40
5.0
100
AcDbArc
 50
180.0
 51
225.0
  0
ARC
  5
E0
330
77
100
AcDbEntity
  8
NoLayerName_001
  6
Continuous
 62
     7
370
    25
100
AcDbCircle
 10
10.00000178813934
 20
42.92890670714723
 30
0.0
 40
5.0
100
AcDbArc
 50
0.0
 51
45.00000000000001
  0
LINE
  5
E1
330
77
100
AcDbEntity
  8
NoLayerName_001
  6
Continuous
 62
     7
370
    25
100
AcDbLine
 10
80.00000178813934
 20
62.07104233087875
 30
0.0
 11
80.00000178813934
 21
144.9999745190133
 31
0.0
  0
LINE
  5
E2
330
77
100
AcDbEntity
  8
NoLayerName_001
  6
Continuous
 62
     7
370
    25
100
AcDbLine
 10
66.46446788220601
 20
46.46444061308057
 30
0.0
 11
78.53553569407146
 21
58.53550842494602
 31
0.0
  0
ARC
  5
E3
330
77
100
AcDbEntity
  8
NoLayerName_001
  6
Continuous
 62
     7
370
    25
100
AcDbCircle
 10
75.00000178813934
 20
62.07104233087875
 30
0.0
 40
5.0
100
AcDbArc
 50
315.0
 51
0.0
  0
ARC
  5
E4
330
77
100
AcDbEntity
  8
NoLayerName_001
  6
Continuous
 62
     7
370
    25
100
AcDbCircle
 10
70.00000178813934
 20
42.92890670714723
 30
0.0
 40
5.0
100
AcDbArc
 50
135.0
 51
180.0
  0
LINE
  5
E5
330
77
100
AcDbEntity
  8
NoLayerName_001
  6
Continuous
 62
     1
370
    25
100
AcDbLine
 10
65.00000178813934
 20
42.92890670714723
 30
0.0
 11
65.00000178813934
 21
35.49997451901265
 31
0.0
  0
LINE
  5
E6
330
77
100
AcDbEntity
  8
NoLayerName_001
  6
Continuous
 62
     7
370
    25
100
AcDbLine
 10
64.50000178813934
 20
34.99997451901299
 30
0.0
 11
65.00000178813934
 21
35.49997451901299
 31
0.0
  0
LINE
  5
E7
330
77
100
AcDbEntity
  8
NoLayerName_001
  6
Continuous
 62
     7
370
    25
100
AcDbLine
 10
16.25986090113838
 20
31.99997451901299
 30
0.0
 11
63.7399899124116
 21
31.99997451901299
 31
0.0
  0
LINE
  5
E8
330
77
100
AcDbEntity
  8
NoLayerName_001
  6
Continuous
 62
     5
370
    25
100
AcDbLine
 10
63.00003196299076
 20
32.00009611248652
 30
0.0
 11
63.00003196299076
 21
34.99997399747235
 31
0.0
  0
LINE
  5
E9
330
77
100
AcDbEntity
  8
NoLayerName_001
  6
Continuous
 62
     5
370
    25
100
AcDbLine
 10
14.46012631016856
 20
30.86025652920262
 30
0.0
 11
4.999993202068708
 21
10.99997771033759
 31
0.0
  0
LINE
  5
EA
330
77
100
AcDbEntity
  8
NoLayerName_001
  6
Continuous
 62
     5
370
    25
100
AcDbLine
 10
16.99997161329156
 20
32.00009611248652
 30
0.0
 11
16.99997161329156
 21
34.99997399747235
 31
0.0
  0
LINE
  5
EB
330
77
100
AcDbEntity
  8
NoLayerName_001
  6
Continuous
 62
     5
370
    25
100
AcDbLine
 10
16.99997161329156
 20
32.00009611248652
 30
0.0
 11
16.99997161329156
 21
34.99997399747235
 31
0.0
  0
LINE
  5
EC
330
77
100
AcDbEntity
  8
NoLayerName_001
  6
Continuous
 62
     5
370
    25
100
AcDbLine
 10
8.000032782554626
 20
3.000157579776442
 30
0.0
 11
8.000032782554626
 21
-0.0000254809860962
 31
0.0
  0
LINE
  5
ED
330
77
100
AcDbEntity
  8
NoLayerName_001
  6
Continuous
 62
     5
370
    25
100
AcDbLine
 10
5.000002309679985
 20
3.999913424253918
 30
0.0
 11
5.000002309679985
 21
11.00003539025647
 31
0.0
  0
ARC
  5
EE
330
77
100
AcDbEntity
  8
NoLayerName_001
  6
Continuous
 62
     5
370
    25
100
AcDbCircle
 10
16.25992035478703
 20
29.99997407197816
 30
0.0
 40
1.99999999999989
100
AcDbArc
 50
90.0017032215788
 51
154.5370051416368
  0
ARC
  5
EF
330
77
100
AcDbEntity
  8
NoLayerName_001
  6
Continuous
 62
     5
370
    25
100
AcDbCircle
 10
5.999910742048087
 20
3.999913424253918
 30
0.0
 40
1.000000000000001
100
AcDbArc
 50
180.0000086226908
 51
269.9999974955179
  0
LINE
  5
F0
330
77
100
AcDbEntity
  8
NoLayerName_001
  6
Continuous
 62
     7
370
    25
100
AcDbLine
 10
6.010964509983751
 20
2.999974519012994
 30
0.0
 11
40.00000178813889
 21
2.999974519012994
 31
0.0
  0
LINE
  5
F1
330
77
100
AcDbEntity
  8
NoLayerName_001
  6
Continuous
 62
     5
370
    25
100
AcDbLine
 10
65.53987726611012
 20
30.86025652920262
 30
0.0
 11
75.00001037420998
 21
10.99997771033759
 31
0.0
  0
LINE
  5
F2
330
77
100
AcDbEntity
  8
NoLayerName_001
  6
Continuous
 62
     5
370
    25
100
AcDbLine
 10
71.99997079372406
 20
3.000157579776442
 30
0.0
 11
71.99997079372406
 21
-0.0000254809860962
 31
0.0
  0
LINE
  5
F3
330
77
100
AcDbEntity
  8
NoLayerName_001
  6
Continuous
 62
     5
370
    25
100
AcDbLine
 10
75.0000012665987
 20
3.999913424253918
 30
0.0
 11
75.0000012665987
 21
11.00003539025647
 31
0.0
  0
ARC
  5
F4
330
77
100
AcDbEntity
  8
NoLayerName_001
  6
Continuous
 62
     5
370
    25
100
AcDbCircle
 10
63.74008322149166
 20
29.99997407197816
 30
0.0
 40
1.99999999999989
100
AcDbArc
 50
25.4629948583632
 51
89.9982967784212
  0
ARC
  5
F5
330
77
100
AcDbEntity
  8
NoLayerName_001
  6
Continuous
 62
     5
370
    25
100
AcDbCircle
 10
74.0000928342306
 20
3.999913424253918
 30
0.0
 40
1.000000000000001
100
AcDbArc
 50
270.0000111271729
 51
0.0
  0
LINE
  5
F6
330
77
100
AcDbEntity
  8
NoLayerName_001
  6
Continuous
 62
     7
370
    25
100
AcDbLine
 10
73.98903906629494
 20
2.999974519012994
 30
0.0
 11
40.0000017881398
 21
2.999974519012994
 31
0.0
  0
ENDBLK
  5
79
330
77
100
AcDbEntity
  8
0
100
AcDbBlockEnd
  0
BLOCK
  5
7B
330
7A
100
AcDbEntity
  8
0
100
AcDbBlockBegin
  2
JZB_0003
 70
     0
 10
0.0
 20
0.0
 30
0.0
  3
JZB_0003
  1
JZB_0003
  0
ARC
  5
F7
330
7A
100
AcDbEntity
  8
NoLayerName_001
  6
Continuous
 62
     7
370
    25
100
AcDbCircle
 10
5.000001788139343
 20
144.999974519013
 30
0.0
 40
5.0
100
AcDbArc
 50
90.0
 51
180.0
  0
LINE
  5
F8
330
7A
100
AcDbEntity
  8
NoLayerName_001
  6
Continuous
 62
     7
370
    25
100
AcDbLine
 10
75.00000178813934
 20
149.999974519013
 30
0.0
 11
5.000001788139357
 21
149.999974519013
 31
0.0
  0
ARC
  5
F9
330
7A
100
AcDbEntity
  8
NoLayerName_001
  6
Continuous
 62
     7
370
    25
100
AcDbCircle
 10
75.00000178813934
 20
144.999974519013
 30
0.0
 40
5.0
100
AcDbArc
 50
0.0
 51
90.0
  0
CIRCLE
  5
FA
330
7A
100
AcDbEntity
  8
NoLayerName_001
  6
Continuous
 62
     7
370
    25
100
AcDbCircle
 10
60.00000178813934
 20
124.999974519013
 30
0.0
 40
7.0
  0
CIRCLE
  5
FB
330
7A
100
AcDbEntity
  8
NoLayerName_001
  6
Continuous
 62
     7
370
    25
100
AcDbCircle
 10
20.00000178813934
 20
124.999974519013
 30
0.0
 40
7.0
  0
LINE
  5
FC
330
7A
100
AcDbEntity
  8
NoLayerName_001
  6
CENTER
 62
     1
370
    25
100
AcDbLine
 10
50.20000178814007
 20
124.999974519013
 30
0.0
 11
69.80000178814007
 21
124.999974519013
 31
0.0
  0
LINE
  5
FD
330
7A
100
AcDbEntity
  8
NoLayerName_001
  6
CENTER
 62
     1
370
    25
100
AcDbLine
 10
60.00000178813934
 20
115.1999745190128
 30
0.0
 11
60.00000178813934
 21
134.7999745190128
 31
0.0
  0
LINE
  5
FE
330
7A
100
AcDbEntity
  8
NoLayerName_001
  6
CENTER
 62
     1
370
    25
100
AcDbLine
 10
10.20000178814007
 20
124.999974519013
 30
0.0
 11
29.80000178814007
 21
124.999974519013
 31
0.0
  0
LINE
  5
FF
330
7A
100
AcDbEntity
  8
NoLayerName_001
  6
CENTER
 62
     1
370
    25
100
AcDbLine
 10
20.00000178813934
 20
115.1999745190128
 30
0.0
 11
20.00000178813934
 21
134.7999745190128
 31
0.0
  0
ARC
  5
100
330
7A
100
AcDbEntity
  8
NoLayerName_001
  6
Continuous
 62
     7
370
    25
100
AcDbCircle
 10
18.00210805107781
 20
40.41831864892583
 30
0.0
 40
5.0
100
AcDbArc
 50
95.0
 51
113.6045156509201
  0
ARC
  5
101
330
7A
100
AcDbEntity
  8
NoLayerName_001
  6
Continuous
 62
     7
370
    25
100
AcDbCircle
 10
61.99789552520087
 20
40.41831864892583
 30
0.0
 40
5.0
100
AcDbArc
 50
66.39548434907991
 51
85.00000000000001
  0
LINE
  5
102
330
7A
100
AcDbEntity
  8
NoLayerName_001
  6
Continuous
 62
     7
370
    25
100
AcDbLine
 10
17.56632933733999
 20
45.39929213938512
 30
0.0
 11
37.00000178814008
 21
46.94809976288472
 31
0.0
  0
LINE
  5
103
330
7A
100
AcDbEntity
  8
NoLayerName_001
  6
Continuous
 62
     7
370
    25
100
AcDbLine
 10
62.43367423893869
 20
45.39929213938512
 30
0.0
 11
43.0000017881386
 21
46.94809976288472
 31
0.0
  0
LINE
  5
104
330
7A
100
AcDbEntity
  8
NoLayerName_001
  6
Continuous
 62
     7
370
    25
100
AcDbLine
 10
64.00000178813934
 20
44.99997451901299
 30
0.0
 11
16.00000178813934
 21
44.99997451901299
 31
0.0
  0
CIRCLE
  5
105
330
7A
100
AcDbEntity
  8
NoLayerName_001
  6
Continuous
 62
     7
370
    25
100
AcDbCircle
 10
60.00000178813934
 20
84.999974519013
 30
0.0
 40
7.0
  0
CIRCLE
  5
106
330
7A
100
AcDbEntity
  8
NoLayerName_001
  6
Continuous
 62
     7
370
    25
100
AcDbCircle
 10
20.00000178813934
 20
84.999974519013
 30
0.0
 40
7.0
  0
LINE
  5
107
330
7A
100
AcDbEntity
  8
NoLayerName_001
  6
CENTER
 62
     1
370
    25
100
AcDbLine
 10
50.20000178814007
 20
84.999974519013
 30
0.0
 11
69.80000178814007
 21
84.999974519013
 31
0.0
  0
LINE
  5
108
330
7A
100
AcDbEntity
  8
NoLayerName_001
  6
CENTER
 62
     1
370
    25
100
AcDbLine
 10
60.00000178813934
 20
75.19997451901281
 30
0.0
 11
60.00000178813934
 21
94.7999745190128
 31
0.0
  0
LINE
  5
109
330
7A
100
AcDbEntity
  8
NoLayerName_001
  6
CENTER
 62
     1
370
    25
100
AcDbLine
 10
10.20000178814007
 20
84.999974519013
 30
0.0
 11
29.80000178814007
 21
84.999974519013
 31
0.0
  0
LINE
  5
10A
330
7A
100
AcDbEntity
  8
NoLayerName_001
  6
CENTER
 62
     1
370
    25
100
AcDbLine
 10
20.00000178813934
 20
75.19997451901281
 30
0.0
 11
20.00000178813934
 21
94.7999745190128
 31
0.0
  0
LINE
  5
10B
330
7A
100
AcDbEntity
  8
NoLayerName_001
  6
Continuous
 62
     1
370
    25
100
AcDbLine
 10
15.00000178813934
 20
35.49997451901299
 30
0.0
 11
15.00000178813934
 21
42.92890670714752
 31
0.0
  0
LINE
  5
10C
330
7A
100
AcDbEntity
  8
NoLayerName_001
  6
Continuous
 62
     7
370
    25
100
AcDbLine
 10
15.50000178813934
 20
34.99997451901299
 30
0.0
 11
64.50000178813934
 21
34.99997451901299
 31
0.0
  0
LINE
  5
10D
330
7A
100
AcDbEntity
  8
NoLayerName_001
  6
Continuous
 62
     7
370
    25
100
AcDbLine
 10
15.50000178813934
 20
34.99997451901299
 30
0.0
 11
15.00000178813934
 21
35.49997451901299
 31
0.0
  0
LINE
  5
10E
330
7A
100
AcDbEntity
  8
NoLayerName_001
  6
Continuous
 62
     7
370
    25
100
AcDbLine
 10
0.0000017881393433
 20
62.07104233087875
 30
0.0
 11
0.0000017881393433
 21
144.9999745190133
 31
0.0
  0
LINE
  5
10F
330
7A
100
AcDbEntity
  8
NoLayerName_001
  6
Continuous
 62
     7
370
    25
100
AcDbLine
 10
13.53553569407086
 20
46.46444061308057
 30
0.0
 11
1.464467882205405
 21
58.53550842494602
 31
0.0
  0
ARC
  5
110
330
7A
100
AcDbEntity
  8
NoLayerName_001
  6
Continuous
 62
     7
370
    25
100
AcDbCircle
 10
5.000001788139343
 20
62.07104233087875
 30
0.0
 40
5.0
100
AcDbArc
 50
180.0
 51
225.0
  0
ARC
  5
111
330
7A
100
AcDbEntity
  8
NoLayerName_001
  6
Continuous
 62
     7
370
    25
100
AcDbCircle
 10
10.00000178813934
 20
42.92890670714723
 30
0.0
 40
5.0
100
AcDbArc
 50
0.0
 51
45.00000000000001
  0
LINE
  5
112
330
7A
100
AcDbEntity
  8
NoLayerName_001
  6
Continuous
 62
     7
370
    25
100
AcDbLine
 10
80.00000178813934
 20
62.07104233087875
 30
0.0
 11
80.00000178813934
 21
144.9999745190133
 31
0.0
  0
LINE
  5
113
330
7A
100
AcDbEntity
  8
NoLayerName_001
  6
Continuous
 62
     7
370
    25
100
AcDbLine
 10
66.46446788220601
 20
46.46444061308057
 30
0.0
 11
78.53553569407146
 21
58.53550842494602
 31
0.0
  0
ARC
  5
114
330
7A
100
AcDbEntity
  8
NoLayerName_001
  6
Continuous
 62
     7
370
    25
100
AcDbCircle
 10
75.00000178813934
 20
62.07104233087875
 30
0.0
 40
5.0
100
AcDbArc
 50
315.0
 51
0.0
  0
ARC
  5
115
330
7A
100
AcDbEntity
  8
NoLayerName_001
  6
Continuous
 62
     7
370
    25
100
AcDbCircle
 10
70.00000178813934
 20
42.92890670714723
 30
0.0
 40
5.0
100
AcDbArc
 50
135.0
 51
180.0
  0
LINE
  5
116
330
7A
100
AcDbEntity
  8
NoLayerName_001
  6
Continuous
 62
     1
370
    25
100
AcDbLine
 10
65.00000178813934
 20
42.92890670714723
 30
0.0
 11
65.00000178813934
 21
35.49997451901265
 31
0.0
  0
LINE
  5
117
330
7A
100
AcDbEntity
  8
NoLayerName_001
  6
Continuous
 62
     7
370
    25
100
AcDbLine
 10
64.50000178813934
 20
34.99997451901299
 30
0.0
 11
65.00000178813934
 21
35.49997451901299
 31
0.0
  0
LINE
  5
118
330
7A
100
AcDbEntity
  8
NoLayerName_001
  6
Continuous
 62
     7
370
    25
100
AcDbLine
 10
16.25986090113838
 20
31.99997451901299
 30
0.0
 11
63.7399899124116
 21
31.99997451901299
 31
0.0
  0
LINE
  5
119
330
7A
100
AcDbEntity
  8
NoLayerName_001
  6
Continuous
 62
     5
370
    25
100
AcDbLine
 10
63.00003196299076
 20
32.00009611248652
 30
0.0
 11
63.00003196299076
 21
34.99997399747235
 31
0.0
  0
LINE
  5
11A
330
7A
100
AcDbEntity
  8
NoLayerName_001
  6
Continuous
 62
     5
370
    25
100
AcDbLine
 10
14.46012631016856
 20
30.86025652920262
 30
0.0
 11
4.999993202068708
 21
10.99997771033759
 31
0.0
  0
LINE
  5
11B
330
7A
100
AcDbEntity
  8
NoLayerName_001
  6
Continuous
 62
     5
370
    25
100
AcDbLine
 10
16.99997161329156
 20
32.00009611248652
 30
0.0
 11
16.99997161329156
 21
34.99997399747235
 31
0.0
  0
LINE
  5
11C
330
7A
100
AcDbEntity
  8
NoLayerName_001
  6
Continuous
 62
     5
370
    25
100
AcDbLine
 10
16.99997161329156
 20
32.00009611248652
 30
0.0
 11
16.99997161329156
 21
34.99997399747235
 31
0.0
  0
LINE
  5
11D
330
7A
100
AcDbEntity
  8
NoLayerName_001
  6
Continuous
 62
     5
370
    25
100
AcDbLine
 10
8.000032782554626
 20
3.000157579776442
 30
0.0
 11
8.000032782554626
 21
-0.0000254809860962
 31
0.0
  0
LINE
  5
11E
330
7A
100
AcDbEntity
  8
NoLayerName_001
  6
Continuous
 62
     5
370
    25
100
AcDbLine
 10
5.000002309679985
 20
3.999913424253918
 30
0.0
 11
5.000002309679985
 21
11.00003539025647
 31
0.0
  0
ARC
  5
11F
330
7A
100
AcDbEntity
  8
NoLayerName_001
  6
Continuous
 62
     5
370
    25
100
AcDbCircle
 10
16.25992035478703
 20
29.99997407197816
 30
0.0
 40
1.99999999999989
100
AcDbArc
 50
90.0017032215788
 51
154.5370051416368
  0
ARC
  5
120
330
7A
100
AcDbEntity
  8
NoLayerName_001
  6
Continuous
 62
     5
370
    25
100
AcDbCircle
 10
5.999910742048087
 20
3.999913424253918
 30
0.0
 40
1.000000000000001
100
AcDbArc
 50
180.0000086226908
 51
269.9999974955179
  0
LINE
  5
121
330
7A
100
AcDbEntity
  8
NoLayerName_001
  6
Continuous
 62
     7
370
    25
100
AcDbLine
 10
6.010964509983751
 20
2.999974519012994
 30
0.0
 11
40.00000178813889
 21
2.999974519012994
 31
0.0
  0
LINE
  5
122
330
7A
100
AcDbEntity
  8
NoLayerName_001
  6
Continuous
 62
     5
370
    25
100
AcDbLine
 10
65.53987726611012
 20
30.86025652920262
 30
0.0
 11
75.00001037420998
 21
10.99997771033759
 31
0.0
  0
LINE
  5
123
330
7A
100
AcDbEntity
  8
NoLayerName_001
  6
Continuous
 62
     5
370
    25
100
AcDbLine
 10
71.99997079372406
 20
3.000157579776442
 30
0.0
 11
71.99997079372406
 21
-0.0000254809860962
 31
0.0
  0
LINE
  5
124
330
7A
100
AcDbEntity
  8
NoLayerName_001
  6
Continuous
 62
     5
370
    25
100
AcDbLine
 10
75.0000012665987
 20
3.999913424253918
 30
0.0
 11
75.0000012665987
 21
11.00003539025647
 31
0.0
  0
ARC
  5
125
330
7A
100
AcDbEntity
  8
NoLayerName_001
  6
Continuous
 62
     5
370
    25
100
AcDbCircle
 10
63.74008322149166
 20
29.99997407197816
 30
0.0
 40
1.99999999999989
100
AcDbArc
 50
25.4629948583632
 51
89.9982967784212
  0
ARC
  5
126
330
7A
100
AcDbEntity
  8
NoLayerName_001
  6
Continuous
 62
     5
370
    25
100
AcDbCircle
 10
74.0000928342306
 20
3.999913424253918
 30
0.0
 40
1.000000000000001
100
AcDbArc
 50
270.0000111271729
 51
0.0
  0
LINE
  5
127
330
7A
100
AcDbEntity
  8
NoLayerName_001
  6
Continuous
 62
     7
370
    25
100
AcDbLine
 10
73.98903906629494
 20
2.999974519012994
 30
0.0
 11
40.0000017881398
 21
2.999974519012994
 31
0.0
  0
ENDBLK
  5
7C
330
7A
100
AcDbEntity
  8
0
100
AcDbBlockEnd
  0
BLOCK
  5
7E
330
7D
100
AcDbEntity
  8
0
100
AcDbBlockBegin
  2
JZB_0004
 70
     0
 10
0.0
 20
0.0
 30
0.0
  3
JZB_0004
  1
JZB_0004
  0
ARC
  5
128
330
7D
100
AcDbEntity
  8
NoLayerName_001
  6
Continuous
 62
     1
370
    25
100
AcDbCircle
 10
15.00000201165494
 20
46.36758920550756
 30
0.0
 40
5.0
100
AcDbArc
 50
90.0
 51
180.0
  0
ARC
  5
129
330
7D
100
AcDbEntity
  8
NoLayerName_001
  6
Continuous
 62
     1
370
    25
100
AcDbCircle
 10
55.00000201165494
 20
46.36758920550756
 30
0.0
 40
5.0
100
AcDbArc
 50
0.0
 51
90.0
  0
LINE
  5
12A
330
7D
100
AcDbEntity
  8
NoLayerName_001
  6
Continuous
 62
     7
370
    25
100
AcDbLine
 10
27.43578072539458
 20
52.45557886507731
 30
0.0
 11
15.00000201165629
 21
51.36758920550822
 31
0.0
  0
ARC
  5
12B
330
7D
100
AcDbEntity
  8
NoLayerName_001
  6
Continuous
 62
     7
370
    25
100
AcDbCircle
 10
27.00000201165494
 20
57.4365523555357
 30
0.0
 40
5.0
100
AcDbArc
 50
275.0
 51
0.0
  0
ARC
  5
12C
330
7D
100
AcDbEntity
  8
NoLayerName_001
  6
Continuous
 62
     7
370
    25
100
AcDbCircle
 10
43.00000201165494
 20
57.4365523555357
 30
0.0
 40
5.0
100
AcDbArc
 50
180.0
 51
265.0
  0
LINE
  5
12D
330
7D
100
AcDbEntity
  8
NoLayerName_001
  6
Continuous
 62
     7
370
    25
100
AcDbLine
 10
32.00000201165494
 20
50.36758920550756
 30
0.0
 11
38.00000201165494
 21
50.36758920550756
 31
0.0
  0
LINE
  5
12E
330
7D
100
AcDbEntity
  8
NoLayerName_001
  6
Continuous
 62
     7
370
    25
100
AcDbLine
 10
42.56422329791712
 20
52.45557886507731
 30
0.0
 11
55.00000201165542
 21
51.36758920550822
 31
0.0
  0
LINE
  5
12F
330
7D
100
AcDbEntity
  8
NoLayerName_001
  6
CENTER
 62
     1
370
    25
100
AcDbLine
 10
27.00000201165494
 20
131.3675892055076
 30
0.0
 11
43.00000201165494
 21
131.3675892055076
 31
0.0
  0
LINE
  5
130
330
7D
100
AcDbEntity
  8
NoLayerName_001
  6
CENTER
 62
     1
370
    25
100
AcDbLine
 10
27.00000201165494
 20
91.36758920550756
 30
0.0
 11
43.00000201165494
 21
91.36758920550756
 31
0.0
  0
LINE
  5
131
330
7D
100
AcDbEntity
  8
NoLayerName_001
  6
Continuous
 62
     7
370
    25
100
AcDbLine
 10
36.00000201165494
 20
156.3675892055085
 30
0.0
 11
34.00000201165494
 21
156.3675892055085
 31
0.0
  0
ARC
  5
132
330
7D
100
AcDbEntity
  8
NoLayerName_001
  6
Continuous
 62
     7
370
    25
100
AcDbCircle
 10
34.00000201165494
 20
154.3675892055085
 30
0.0
 40
2.0
100
AcDbArc
 50
90.0
 51
180.0
  0
ARC
  5
133
330
7D
100
AcDbEntity
  8
NoLayerName_001
  6
Continuous
 62
     7
370
    25
100
AcDbCircle
 10
36.00000201165494
 20
154.3675892055085
 30
0.0
 40
2.0
100
AcDbArc
 50
0.0
 51
90.0
  0
LINE
  5
134
330
7D
100
AcDbEntity
  8
NoLayerName_001
  6
Continuous
 62
     7
370
    25
100
AcDbLine
 10
38.00000201165494
 20
154.3675892055085
 30
0.0
 11
38.00000201165494
 21
50.36758920550847
 31
0.0
  0
LINE
  5
135
330
7D
100
AcDbEntity
  8
NoLayerName_001
  6
Continuous
 62
     7
370
    25
100
AcDbLine
 10
32.00000201165494
 20
154.3675892055085
 30
0.0
 11
32.00000201165494
 21
50.36758920550847
 31
0.0
  0
LINE
  5
136
330
7D
100
AcDbEntity
  8
NoLayerName_001
  6
Continuous
 62
     7
370
    25
100
AcDbLine
 10
55.00000201165494
 20
51.36758920550756
 30
0.0
 11
38.00000201165494
 21
51.36758920550756
 31
0.0
  0
LINE
  5
137
330
7D
100
AcDbEntity
  8
NoLayerName_001
  6
Continuous
 62
     7
370
    25
100
AcDbLine
 10
32.00000201165494
 20
51.36758920550756
 30
0.0
 11
15.00000201165494
 21
51.36758920550756
 31
0.0
  0
LINE
  5
138
330
7D
100
AcDbEntity
  8
NoLayerName_001
  6
Continuous
 62
     1
370
    25
100
AcDbLine
 10
10.00000201165494
 20
41.86758920550756
 30
0.0
 11
10.00000201165494
 21
46.36758920550756
 31
0.0
  0
LINE
  5
139
330
7D
100
AcDbEntity
  8
NoLayerName_001
  6
Continuous
 62
     7
370
    25
100
AcDbLine
 10
10.50000201165494
 20
41.36758920550756
 30
0.0
 11
59.50000201165494
 21
41.36758920550756
 31
0.0
  0
LINE
  5
13A
330
7D
100
AcDbEntity
  8
NoLayerName_001
  6
Continuous
 62
     1
370
    25
100
AcDbLine
 10
60.00000201165494
 20
41.86758920550756
 30
0.0
 11
60.00000201165494
 21
46.36758920550756
 31
0.0
  0
LINE
  5
13B
330
7D
100
AcDbEntity
  8
NoLayerName_001
  6
Continuous
 62
     7
370
    25
100
AcDbLine
 10
59.50000201165494
 20
41.36758920550756
 30
0.0
 11
60.00000201165494
 21
41.86758920550756
 31
0.0
  0
LINE
  5
13C
330
7D
100
AcDbEntity
  8
NoLayerName_001
  6
Continuous
 62
     7
370
    25
100
AcDbLine
 10
10.50000201165494
 20
41.36758920550756
 30
0.0
 11
10.00000201165494
 21
41.86758920550756
 31
0.0
  0
LINE
  5
13D
330
7D
100
AcDbEntity
  8
NoLayerName_001
  6
CENTER
 62
     1
370
    25
100
AcDbLine
 10
35.00000201165676
 20
161.3675892055085
 30
0.0
 11
35.00000201165676
 21
0.0000735859021006
 31
0.0
  0
LINE
  5
13E
330
7D
100
AcDbEntity
  8
NoLayerName_001
  6
Continuous
 62
     7
370
    25
100
AcDbLine
 10
11.25986112465398
 20
38.36758920550756
 30
0.0
 11
58.7399901359272
 21
38.36758920550756
 31
0.0
  0
LINE
  5
13F
330
7D
100
AcDbEntity
  8
NoLayerName_001
  6
Continuous
 62
     5
370
    25
100
AcDbLine
 10
58.00003218650818
 20
38.36771079898108
 30
0.0
 11
58.00003218650818
 21
41.36758868396691
 31
0.0
  0
LINE
  5
140
330
7D
100
AcDbEntity
  8
NoLayerName_001
  6
Continuous
 62
     5
370
    25
100
AcDbLine
 10
9.46012653368598
 20
37.22787121569718
 30
0.0
 11
-0.0000065744138738
 21
17.36759239683215
 31
0.0
  0
LINE
  5
141
330
7D
100
AcDbEntity
  8
NoLayerName_001
  6
Continuous
 62
     5
370
    25
100
AcDbLine
 10
11.99997183680898
 20
38.36771079898108
 30
0.0
 11
11.99997183680898
 21
41.36758868396691
 31
0.0
  0
LINE
  5
142
330
7D
100
AcDbEntity
  8
NoLayerName_001
  6
Continuous
 62
     5
370
    25
100
AcDbLine
 10
3.000033006072044
 20
9.367772266271004
 30
0.0
 11
3.000033006072044
 21
6.367589205508466
 31
0.0
  0
LINE
  5
143
330
7D
100
AcDbEntity
  8
NoLayerName_001
  6
Continuous
 62
     5
370
    25
100
AcDbLine
 10
0.000002533197403
 20
10.36752811074848
 30
0.0
 11
0.000002533197403
 21
17.36765007675103
 31
0.0
  0
ARC
  5
144
330
7D
100
AcDbEntity
  8
NoLayerName_001
  6
Continuous
 62
     5
370
    25
100
AcDbCircle
 10
11.25992057830445
 20
36.36758875847272
 30
0.0
 40
1.99999999999989
100
AcDbArc
 50
90.0017032215788
 51
154.5370051416368
  0
ARC
  5
145
330
7D
100
AcDbEntity
  8
NoLayerName_001
  6
Continuous
 62
     5
370
    25
100
AcDbCircle
 10
0.9999109655655047
 20
10.36752811074848
 30
0.0
 40
1.000000000000001
100
AcDbArc
 50
180.0000086226908
 51
269.9999974955179
  0
LINE
  5
146
330
7D
100
AcDbEntity
  8
NoLayerName_001
  6
Continuous
 62
     7
370
    25
100
AcDbLine
 10
1.010964733501169
 20
9.367589205507556
 30
0.0
 11
35.00000201165631
 21
9.367589205507556
 31
0.0
  0
LINE
  5
147
330
7D
100
AcDbEntity
  8
NoLayerName_001
  6
Continuous
 62
     5
370
    25
100
AcDbLine
 10
60.53987748962754
 20
37.22787121569718
 30
0.0
 11
70.0000105977274
 21
17.36759239683215
 31
0.0
  0
LINE
  5
148
330
7D
100
AcDbEntity
  8
NoLayerName_001
  6
Continuous
 62
     5
370
    25
100
AcDbLine
 10
66.99997101724148
 20
9.367772266271004
 30
0.0
 11
66.99997101724148
 21
6.367589205508466
 31
0.0
  0
LINE
  5
149
330
7D
100
AcDbEntity
  8
NoLayerName_001
  6
Continuous
 62
     5
370
    25
100
AcDbLine
 10
70.00000149011612
 20
10.36752811074848
 30
0.0
 11
70.00000149011612
 21
17.36765007675103
 31
0.0
  0
ARC
  5
14A
330
7D
100
AcDbEntity
  8
NoLayerName_001
  6
Continuous
 62
     5
370
    25
100
AcDbCircle
 10
58.74008344500908
 20
36.36758875847272
 30
0.0
 40
1.99999999999989
100
AcDbArc
 50
25.4629948583632
 51
89.9982967784212
  0
ARC
  5
14B
330
7D
100
AcDbEntity
  8
NoLayerName_001
  6
Continuous
 62
     5
370
    25
100
AcDbCircle
 10
69.00009305774802
 20
10.36752811074848
 30
0.0
 40
1.000000000000001
100
AcDbArc
 50
270.0000111271729
 51
0.0
  0
LINE
  5
14C
330
7D
100
AcDbEntity
  8
NoLayerName_001
  6
Continuous
 62
     7
370
    25
100
AcDbLine
 10
68.98903928981053
 20
9.367589205507556
 30
0.0
 11
35.0000020116554
 21
9.367589205507556
 31
0.0
  0
ENDBLK
  5
7F
330
7D
100
AcDbEntity
  8
0
100
AcDbBlockEnd
  0
BLOCK
  5
81
330
80
100
AcDbEntity
  8
0
100
AcDbBlockBegin
  2
JZB_0005
 70
     0
 10
0.0
 20
0.0
 30
0.0
  3
JZB_0005
  1
JZB_0005
  0
LINE
  5
14D
330
80
100
AcDbEntity
  8
NoLayerName_001
  6
Continuous
 62
     7
370
    25
100
AcDbLine
 10
2.0
 20
-0.0000254809851867
 30
0.0
 11
82.0
 21
-0.0000254809851867
 31
0.0
  0
LINE
  5
14E
330
80
100
AcDbEntity
  8
NoLayerName_001
  6
Continuous
 62
     7
370
    25
100
AcDbLine
 10
81.0
 20
48.49997451901481
 30
0.0
 11
3.0
 21
48.49997451901481
 31
0.0
  0
LINE
  5
14F
330
80
100
AcDbEntity
  8
NoLayerName_001
  6
Continuous
 62
     7
370
    25
100
AcDbLine
 10
84.0
 20
45.49997451901481
 30
0.0
 11
84.0
 21
40.99997451901481
 31
0.0
  0
LINE
  5
150
330
80
100
AcDbEntity
  8
NoLayerName_001
  6
Continuous
 62
     7
370
    25
100
AcDbLine
 10
0.0
 20
45.49997451901481
 30
0.0
 11
0.0
 21
40.99997451901481
 31
0.0
  0
ARC
  5
151
330
80
100
AcDbEntity
  8
NoLayerName_001
  6
Continuous
 62
     7
370
    25
100
AcDbCircle
 10
3.0
 20
45.49997451901481
 30
0.0
 40
3.0
100
AcDbArc
 50
90.0
 51
180.0
  0
ARC
  5
152
330
80
100
AcDbEntity
  8
NoLayerName_001
  6
Continuous
 62
     7
370
    25
100
AcDbCircle
 10
81.0
 20
45.49997451901481
 30
0.0
 40
3.0
100
AcDbArc
 50
0.0
 51
90.0
  0
LINE
  5
153
330
80
100
AcDbEntity
  8
NoLayerName_001
  6
Continuous
 62
     7
370
    25
100
AcDbLine
 10
39.0
 20
111.9999745190148
 30
0.0
 11
33.07179676972453
 21
107.9999745190148
 31
0.0
  0
LINE
  5
154
330
80
100
AcDbEntity
  8
NoLayerName_001
  6
Continuous
 62
     7
370
    25
100
AcDbLine
 10
45.0
 20
111.9999745190148
 30
0.0
 11
50.92820323027547
 21
107.9999745190148
 31
0.0
  0
LINE
  5
155
330
80
100
AcDbEntity
  8
NoLayerName_001
  6
Continuous
 62
     7
370
    25
100
AcDbLine
 10
33.07179676972555
 20
107.9999745190148
 30
0.0
 11
50.92820323027672
 21
107.9999745190148
 31
0.0
  0
LINE
  5
156
330
80
100
AcDbEntity
  8
NoLayerName_001
  6
Continuous
 62
     7
370
    25
100
AcDbLine
 10
45.0
 20
111.9999745190148
 30
0.0
 11
39.0
 21
111.9999745190148
 31
0.0
  0
LINE
  5
157
330
80
100
AcDbEntity
  8
NoLayerName_001
  6
Continuous
 62
     7
370
    25
100
AcDbLine
 10
16.0
 20
39.99997451901481
 30
0.0
 11
68.0
 21
39.99997451901481
 31
0.0
  0
LINE
  5
158
330
80
100
AcDbEntity
  8
NoLayerName_001
  6
Continuous
 62
     7
370
    25
100
AcDbLine
 10
0.0
 20
40.99997451901481
 30
0.0
 11
84.0
 21
40.99997451901481
 31
0.0
  0
LINE
  5
159
330
80
100
AcDbEntity
  8
NoLayerName_001
  6
Continuous
 62
     7
370
    25
100
AcDbLine
 10
2.0
 20
39.99997451901481
 30
0.0
 11
2.0
 21
-0.0000254809851867
 31
0.0
  0
LINE
  5
15A
330
80
100
AcDbEntity
  8
NoLayerName_001
  6
Continuous
 62
     7
370
    25
100
AcDbLine
 10
82.0
 20
-0.0000254809851867
 30
0.0
 11
82.0
 21
39.99997451901481
 31
0.0
  0
LINE
  5
15B
330
80
100
AcDbEntity
  8
NoLayerName_001
  6
Continuous
 62
     7
370
    25
100
AcDbLine
 10
82.0
 20
39.99997451901481
 30
0.0
 11
2.0
 21
39.99997451901481
 31
0.0
  0
ARC
  5
15C
330
80
100
AcDbEntity
  8
NoLayerName_001
  6
Continuous
 62
     7
370
    25
100
AcDbCircle
 10
20.0
 20
104.3999431240422
 30
0.0
 40
1.0
100
AcDbArc
 50
105.0
 51
180.0
  0
LINE
  5
15D
330
80
100
AcDbEntity
  8
NoLayerName_001
  6
Continuous
 62
     7
370
    25
100
AcDbLine
 10
19.74118095489757
 20
105.3658689503313
 30
0.0
 11
33.07179676972464
 21
107.9999745190148
 31
0.0
  0
LINE
  5
15E
330
80
100
AcDbEntity
  8
NoLayerName_001
  6
Continuous
 62
     7
370
    25
100
AcDbLine
 10
19.0
 20
104.3999431240422
 30
0.0
 11
19.0
 21
48.49997451901481
 31
0.0
  0
LINE
  5
15F
330
80
100
AcDbEntity
  8
NoLayerName_001
  6
Continuous
 62
     7
370
    25
100
AcDbLine
 10
65.0
 20
104.3999431240422
 30
0.0
 11
65.0
 21
103.9999745190148
 31
0.0
  0
ARC
  5
160
330
80
100
AcDbEntity
  8
NoLayerName_001
  6
Continuous
 62
     7
370
    25
100
AcDbCircle
 10
64.0
 20
104.3999431240422
 30
0.0
 40
1.0
100
AcDbArc
 50
0.0
 51
75.0
  0
LINE
  5
161
330
80
100
AcDbEntity
  8
NoLayerName_001
  6
Continuous
 62
     7
370
    25
100
AcDbLine
 10
64.25881904510243
 20
105.3658689503313
 30
0.0
 11
50.92820323027536
 21
107.9999745190148
 31
0.0
  0
LINE
  5
162
330
80
100
AcDbEntity
  8
NoLayerName_001
  6
Continuous
 62
     7
370
    25
100
AcDbLine
 10
65.0
 20
103.9999745190148
 30
0.0
 11
19.0
 21
103.9999745190148
 31
0.0
  0
LINE
  5
163
330
80
100
AcDbEntity
  8
NoLayerName_001
  6
Continuous
 62
     7
370
    25
100
AcDbLine
 10
65.0
 20
48.49997451901481
 30
0.0
 11
65.0
 21
103.9999745190148
 31
0.0
  0
ENDBLK
  5
82
330
80
100
AcDbEntity
  8
0
100
AcDbBlockEnd
  0
BLOCK
  5
84
330
83
100
AcDbEntity
  8
0
100
AcDbBlockBegin
  2
JZB_0006
 70
     0
 10
0.0
 20
0.0
 30
0.0
  3
JZB_0006
  1
JZB_0006
  0
LINE
  5
164
330
83
100
AcDbEntity
  8
NoLayerName_001
  6
Continuous
 62
     7
370
    50
100
AcDbLine
 10
79.99995880379902
 20
63.0
 30
0.0
 11
79.99995880379902
 21
0.0
 31
0.0
  0
LINE
  5
165
330
83
100
AcDbEntity
  8
NoLayerName_001
  6
Continuous
 62
     7
370
    50
100
AcDbLine
 10
79.99995880379902
 20
0.0
 30
0.0
 11
-0.0000411962009821
 21
-0.0000000000000049
 31
0.0
  0
LINE
  5
166
330
83
100
AcDbEntity
  8
NoLayerName_001
  6
Continuous
 62
     7
370
    50
100
AcDbLine
 10
-0.0000411962009821
 20
0.0
 30
0.0
 11
-0.0000411962009859
 21
63.0
 31
0.0
  0
LINE
  5
167
330
83
100
AcDbEntity
  8
NoLayerName_001
  6
Continuous
 62
     7
370
    50
100
AcDbLine
 10
-0.0000411962009821
 20
63.0
 30
0.0
 11
79.99995880379902
 21
63.00000000000001
 31
0.0
  0
ENDBLK
  5
85
330
83
100
AcDbEntity
  8
0
100
AcDbBlockEnd
  0
BLOCK
  5
87
330
86
100
AcDbEntity
  8
0
100
AcDbBlockBegin
  2
JZB_0007
 70
     0
 10
0.0
 20
0.0
 30
0.0
  3
JZB_0007
  1
JZB_0007
  0
CIRCLE
  5
168
330
86
100
AcDbEntity
  8
NoLayerName_001
  6
Continuous
 62
     7
370
    50
100
AcDbCircle
 10
39.36426033668067
 20
21.21301394703914
 30
0.0
 40
5.0
  0
LINE
  5
169
330
86
100
AcDbEntity
  8
NoLayerName_001
  6
Continuous
 62
     7
370
    50
100
AcDbLine
 10
39.36426033667885
 20
-0.0001894885554066
 30
0.0
 11
60.57746377227591
 21
21.21301394704142
 31
0.0
  0
LINE
  5
16A
330
86
100
AcDbEntity
  8
NoLayerName_001
  6
Continuous
 62
     7
370
    50
100
AcDbLine
 10
39.36426033668249
 20
-0.0001894885554066
 30
0.0
 11
-0.000032447029497
 21
39.36410329515732
 31
0.0
  0
LINE
  5
16B
330
86
100
AcDbEntity
  8
NoLayerName_001
  6
Continuous
 62
     7
370
    50
100
AcDbLine
 10
60.57746377227886
 20
21.21301394704096
 30
0.0
 11
21.21317098856724
 21
60.57730673075406
 31
0.0
  0
ENDBLK
  5
88
330
86
100
AcDbEntity
  8
0
100
AcDbBlockEnd
  0
BLOCK
  5
8A
330
89
100
AcDbEntity
  8
0
100
AcDbBlockBegin
  2
JZB_0008
 70
     0
 10
0.0
 20
0.0
 30
0.0
  3
JZB_0008
  1
JZB_0008
  0
LINE
  5
16C
330
89
100
AcDbEntity
  8
NoLayerName_001
  6
DOTSX
 62
     3
370
    25
100
AcDbLine
 10
-0.0000015472010091
 20
16.97043913096695
 30
0.0
 11
16.97056120127629
 21
-0.0001236175101305
 31
0.0
  0
LINE
  5
16D
330
89
100
AcDbEntity
  8
NoLayerName_001
  6
DOTSX
 62
     3
370
    25
100
AcDbLine
 10
31.11269682500688
 20
48.08313750317484
 30
0.0
 11
48.08325957348418
 21
31.11257475469776
 31
0.0
  0
LINE
  5
16E
330
89
100
AcDbEntity
  8
NoLayerName_001
  6
DOTSX
 62
     7
370
    25
100
AcDbLine
 10
31.11269682500688
 20
48.08313750317484
 30
0.0
 11
16.97056120127627
 21
-0.0001236175105532
 31
0.0
  0
LINE
  5
16F
330
89
100
AcDbEntity
  8
NoLayerName_001
  6
DOTSX
 62
     7
370
    25
100
AcDbLine
 10
-0.0000015472010091
 20
16.97043913096695
 30
0.0
 11
48.08325957348416
 21
31.11257475469813
 31
0.0
  0
LINE
  5
170
330
89
100
AcDbEntity
  8
NoLayerName_001
  6
DOTSX
 62
     7
370
    25
100
AcDbLine
 10
33.48150454197821
 20
45.71432978620396
 30
0.0
 11
41.82212497554481
 21
54.05495021976746
 31
0.0
  0
LINE
  5
171
330
89
100
AcDbEntity
  8
NoLayerName_001
  6
DOTSX
 62
     7
370
    25
100
AcDbLine
 10
45.71445185650737
 20
33.48138247167481
 30
0.0
 11
54.05507229007397
 21
41.82200290523829
 31
0.0
  0
ENDBLK
  5
8B
330
89
100
AcDbEntity
  8
0
100
AcDbBlockEnd
  0
BLOCK
  5
8D
330
8C
100
AcDbEntity
  8
0
100
AcDbBlockBegin
  2
JZB_0009
 70
     0
 10
0.0
 20
0.0
 30
0.0
  3
JZB_0009
  1
JZB_0009
  0
CIRCLE
  5
172
330
8C
100
AcDbEntity
  8
NoLayerName_001
  6
Continuous
 62
     7
370
    50
100
AcDbCircle
 10
39.36426033668067
 20
39.36413449046086
 30
0.0
 40
5.0
  0
LINE
  5
173
330
8C
100
AcDbEntity
  8
NoLayerName_001
  6
Continuous
 62
     7
370
    50
100
AcDbLine
 10
39.36426033667885
 20
60.57733792605541
 30
0.0
 11
60.57746377227591
 21
39.36413449045858
 31
0.0
  0
LINE
  5
174
330
8C
100
AcDbEntity
  8
NoLayerName_001
  6
Continuous
 62
     7
370
    50
100
AcDbLine
 10
39.36426033668249
 20
60.57733792605541
 30
0.0
 11
-0.000032447029497
 21
21.21304514234268
 31
0.0
  0
LINE
  5
175
330
8C
100
AcDbEntity
  8
NoLayerName_001
  6
Continuous
 62
     7
370
    50
100
AcDbLine
 10
60.57746377227886
 20
39.36413449045904
 30
0.0
 11
21.21317098856724
 21
-0.00015829325406
 31
0.0
  0
ENDBLK
  5
8E
330
8C
100
AcDbEntity
  8
0
100
AcDbBlockEnd
  0
BLOCK
  5
90
330
8F
100
AcDbEntity
  8
0
100
AcDbBlockBegin
  2
JZB_0010
 70
     0
 10
0.0
 20
0.0
 30
0.0
  3
JZB_0010
  1
JZB_0010
  0
CIRCLE
  5
176
330
8F
100
AcDbEntity
  8
NoLayerName_001
  6
Continuous
 62
     7
370
    50
100
AcDbCircle
 10
21.21325431175683
 20
39.36413449046086
 30
0.0
 40
5.0
  0
LINE
  5
177
330
8F
100
AcDbEntity
  8
NoLayerName_001
  6
Continuous
 62
     7
370
    50
100
AcDbLine
 10
21.21325431175865
 20
60.57733792605541
 30
0.0
 11
0.0000508761615947
 21
39.36413449045858
 31
0.0
  0
LINE
  5
178
330
8F
100
AcDbEntity
  8
NoLayerName_001
  6
Continuous
 62
     7
370
    50
100
AcDbLine
 10
21.21325431175501
 20
60.57733792605541
 30
0.0
 11
60.577547095467
 21
21.21304514234268
 31
0.0
  0
LINE
  5
179
330
8F
100
AcDbEntity
  8
NoLayerName_001
  6
Continuous
 62
     7
370
    50
100
AcDbLine
 10
0.0000508761586389
 20
39.36413449045904
 30
0.0
 11
39.36434365987026
 21
-0.00015829325406
 31
0.0
  0
ENDBLK
  5
91
330
8F
100
AcDbEntity
  8
0
100
AcDbBlockEnd
  0
BLOCK
  5
93
330
92
100
AcDbEntity
  8
0
100
AcDbBlockBegin
  2
JZB_0011
 70
     0
 10
0.0
 20
0.0
 30
0.0
  3
JZB_0011
  1
JZB_0011
  0
CIRCLE
  5
17A
330
92
100
AcDbEntity
  8
NoLayerName_001
  6
Continuous
 62
     7
370
    50
100
AcDbCircle
 10
21.21325431175683
 20
21.21301394703914
 30
0.0
 40
5.0
  0
LINE
  5
17B
330
92
100
AcDbEntity
  8
NoLayerName_001
  6
Continuous
 62
     7
370
    50
100
AcDbLine
 10
21.21325431175865
 20
-0.0001894885554066
 30
0.0
 11
0.0000508761615947
 21
21.21301394704142
 31
0.0
  0
LINE
  5
17C
330
92
100
AcDbEntity
  8
NoLayerName_001
  6
Continuous
 62
     7
370
    50
100
AcDbLine
 10
21.21325431175501
 20
-0.0001894885554066
 30
0.0
 11
60.577547095467
 21
39.36410329515732
 31
0.0
  0
LINE
  5
17D
330
92
100
AcDbEntity
  8
NoLayerName_001
  6
Continuous
 62
     7
370
    50
100
AcDbLine
 10
0.0000508761586389
 20
21.21301394704096
 30
0.0
 11
39.36434365987026
 21
60.57730673075406
 31
0.0
  0
ENDBLK
  5
94
330
92
100
AcDbEntity
  8
0
100
AcDbBlockEnd
  0
BLOCK
  5
2A9
330
2A5
100
AcDbEntity
  8
0
100
AcDbBlockBegin
  2
_OPEN30
 70
     0
 10
0.0
 20
0.0
 30
0.0
  3
_OPEN30
  1
_OPEN30
  0
LINE
  5
2A6
330
2A5
100
AcDbEntity
  8
0
  6
ByBlock
 62
     0
370
    -2
100
AcDbLine
 10
-1.0
 20
0.267949
 30
0.0
 11
0.0
 21
0.0
 31
0.0
  0
LINE
  5
2A7
330
2A5
100
AcDbEntity
  8
0
  6
ByBlock
 62
     0
370
    -2
100
AcDbLine
 10
0.0
 20
0.0
 30
0.0
 11
-1.0
 21
-0.267949
 31
0.0
  0
LINE
  5
2A8
330
2A5
100
AcDbEntity
  8
0
  6
ByBlock
 62
     0
370
    -2
100
AcDbLine
 10
0.0
 20
0.0
 30
0.0
 11
-1.0
 21
0.0
 31
0.0
  0
ENDBLK
  5
2AA
330
2A5
100
AcDbEntity
  8
0
100
AcDbBlockEnd
  0
BLOCK
  5
2AC
330
2AB
100
AcDbEntity
  8
0
100
AcDbBlockBegin
  2
*D13
 70
     1
 10
0.0
 20
0.0
 30
0.0
  3
*D13
  1
*D13
  0
LINE
  5
2AE
330
2AB
100
AcDbEntity
  8
NoLayerName_001
  6
Continuous
 62
     0
370
    25
100
AcDbLine
 10
3325.0
 20
2099.999974519015
 30
0.0
 11
3325.0
 21
1989.999974519015
 31
0.0
  0
LINE
  5
2AF
330
2AB
100
AcDbEntity
  8
NoLayerName_001
  6
Continuous
 62
     0
370
    25
100
AcDbLine
 10
2875.0
 20
2099.999974519015
 30
0.0
 11
2875.0
 21
1989.999974519015
 31
0.0
  0
LINE
  5
2B0
330
2AB
100
AcDbEntity
  8
NoLayerName_001
  6
Continuous
 62
     0
370
    25
100
AcDbLine
 10
3295.0
 20
2009.999974519015
 30
0.0
 11
2905.0
 21
2009.999974519015
 31
0.0
  0
INSERT
  5
2B1
330
2AB
100
AcDbEntity
  8
NoLayerName_001
 62
     0
370
    25
100
AcDbBlockReference
  2
_OPEN30
 10
3325.0
 20
2009.999974519015
 30
0.0
 41
30.0
 42
30.0
 43
30.0
  0
INSERT
  5
2B2
330
2AB
100
AcDbEntity
  8
NoLayerName_001
 62
     0
370
    25
100
AcDbBlockReference
  2
_OPEN30
 10
2875.0
 20
2009.999974519015
 30
0.0
 41
30.0
 42
30.0
 43
30.0
 50
180.0
  0
MTEXT
  5
2B3
330
2AB
100
AcDbEntity
  8
NoLayerName_001
 62
     0
370
    25
100
AcDbMText
 10
3100.0
 20
2061.999974519015
 30
0.0
 40
64.0
 41
0.0
 71
     5
 72
     1
  1
\W0.8000;450
 73
     1
 44
1.0
  0
POINT
  5
2B4
330
2AB
100
AcDbEntity
  8
Defpoints
 62
     0
100
AcDbPoint
 10
3325.0
 20
2109.999974519015
 30
0.0
  0
POINT
  5
2B5
330
2AB
100
AcDbEntity
  8
Defpoints
 62
     0
100
AcDbPoint
 10
2875.0
 20
2109.999974519015
 30
0.0
  0
POINT
  5
2B6
330
2AB
100
AcDbEntity
  8
Defpoints
 62
     0
100
AcDbPoint
 10
2875.0
 20
2009.999974519015
 30
0.0
  0
ENDBLK
  5
2AD
330
2AB
100
AcDbEntity
  8
0
100
AcDbBlockEnd
  0
BLOCK
  5
2BA
330
2B9
100
AcDbEntity
  8
0
100
AcDbBlockBegin
  2
*D14
 70
     1
 10
0.0
 20
0.0
 30
0.0
  3
*D14
  1
*D14
  0
LINE
  5
2BC
330
2B9
100
AcDbEntity
  8
NoLayerName_001
  6
Continuous
 62
     0
370
    25
100
AcDbLine
 10
3345.0
 20
2109.999974519019
 30
0.0
 11
3345.0
 21
1889.999974519015
 31
0.0
  0
LINE
  5
2BD
330
2B9
100
AcDbEntity
  8
NoLayerName_001
  6
Continuous
 62
     0
370
    25
100
AcDbLine
 10
2855.0
 20
2109.999974519019
 30
0.0
 11
2855.0
 21
1889.999974519015
 31
0.0
  0
LINE
  5
2BE
330
2B9
100
AcDbEntity
  8
NoLayerName_001
  6
Continuous
 62
     0
370
    25
100
AcDbLine
 10
3315.0
 20
1909.999974519015
 30
0.0
 11
2885.0
 21
1909.999974519015
 31
0.0
  0
INSERT
  5
2BF
330
2B9
100
AcDbEntity
  8
NoLayerName_001
 62
     0
370
    25
100
AcDbBlockReference
  2
_OPEN30
 10
3345.0
 20
1909.999974519015
 30
0.0
 41
30.0
 42
30.0
 43
30.0
  0
INSERT
  5
2C0
330
2B9
100
AcDbEntity
  8
NoLayerName_001
 62
     0
370
    25
100
AcDbBlockReference
  2
_OPEN30
 10
2855.0
 20
1909.999974519015
 30
0.0
 41
30.0
 42
30.0
 43
30.0
 50
180.0
  0
MTEXT
  5
2C1
330
2B9
100
AcDbEntity
  8
NoLayerName_001
 62
     0
370
    25
100
AcDbMText
 10
3100.0
 20
1961.999974519015
 30
0.0
 40
64.0
 41
0.0
 71
     5
 72
     1
  1
\W0.8000;490
 73
     1
 44
1.0
  0
POINT
  5
2C2
330
2B9
100
AcDbEntity
  8
Defpoints
 62
     0
100
AcDbPoint
 10
3345.0
 20
2119.999974519019
 30
0.0
  0
POINT
  5
2C3
330
2B9
100
AcDbEntity
  8
Defpoints
 62
     0
100
AcDbPoint
 10
2855.0
 20
2119.999974519019
 30
0.0
  0
POINT
  5
2C4
330
2B9
100
AcDbEntity
  8
Defpoints
 62
     0
100
AcDbPoint
 10
2855.0
 20
1909.999974519015
 30
0.0
  0
ENDBLK
  5
2BB
330
2B9
100
AcDbEntity
  8
0
100
AcDbBlockEnd
  0
BLOCK
  5
2C8
330
2C7
100
AcDbEntity
  8
0
100
AcDbBlockBegin
  2
*D15
 70
     1
 10
0.0
 20
0.0
 30
0.0
  3
*D15
  1
*D15
  0
LINE
  5
2CA
330
2C7
100
AcDbEntity
  8
NoLayerName_001
  6
Continuous
 62
     0
370
    25
100
AcDbLine
 10
1800.0
 20
2099.999974519015
 30
0.0
 11
1800.0
 21
1989.999974519015
 31
0.0
  0
LINE
  5
2CB
330
2C7
100
AcDbEntity
  8
NoLayerName_001
  6
Continuous
 62
     0
370
    25
100
AcDbLine
 10
1400.0
 20
2099.999974519015
 30
0.0
 11
1400.0
 21
1989.999974519015
 31
0.0
  0
LINE
  5
2CC
330
2C7
100
AcDbEntity
  8
NoLayerName_001
  6
Continuous
 62
     0
370
    25
100
AcDbLine
 10
1770.0
 20
2009.999974519015
 30
0.0
 11
1430.0
 21
2009.999974519015
 31
0.0
  0
INSERT
  5
2CD
330
2C7
100
AcDbEntity
  8
NoLayerName_001
 62
     0
370
    25
100
AcDbBlockReference
  2
_OPEN30
 10
1800.0
 20
2009.999974519015
 30
0.0
 41
30.0
 42
30.0
 43
30.0
  0
INSERT
  5
2CE
330
2C7
100
AcDbEntity
  8
NoLayerName_001
 62
     0
370
    25
100
AcDbBlockReference
  2
_OPEN30
 10
1400.0
 20
2009.999974519015
 30
0.0
 41
30.0
 42
30.0
 43
30.0
 50
180.0
  0
MTEXT
  5
2CF
330
2C7
100
AcDbEntity
  8
NoLayerName_001
 62
     0
370
    25
100
AcDbMText
 10
1600.0
 20
2061.999974519015
 30
0.0
 40
64.0
 41
0.0
 71
     5
 72
     1
  1
\W0.8000;400
 73
     1
 44
1.0
  0
POINT
  5
2D0
330
2C7
100
AcDbEntity
  8
Defpoints
 62
     0
100
AcDbPoint
 10
1800.0
 20
2109.999974519015
 30
0.0
  0
POINT
  5
2D1
330
2C7
100
AcDbEntity
  8
Defpoints
 62
     0
100
AcDbPoint
 10
1400.0
 20
2109.999974519015
 30
0.0
  0
POINT
  5
2D2
330
2C7
100
AcDbEntity
  8
Defpoints
 62
     0
100
AcDbPoint
 10
1400.0
 20
2009.999974519015
 30
0.0
  0
ENDBLK
  5
2C9
330
2C7
100
AcDbEntity
  8
0
100
AcDbBlockEnd
  0
BLOCK
  5
2D6
330
2D5
100
AcDbEntity
  8
0
100
AcDbBlockBegin
  2
*D16
 70
     1
 10
0.0
 20
0.0
 30
0.0
  3
*D16
  1
*D16
  0
LINE
  5
2D8
330
2D5
100
AcDbEntity
  8
NoLayerName_001
  6
Continuous
 62
     0
370
    25
100
AcDbLine
 10
1825.0
 20
2109.999974519015
 30
0.0
 11
1825.0
 21
1889.999974519015
 31
0.0
  0
LINE
  5
2D9
330
2D5
100
AcDbEntity
  8
NoLayerName_001
  6
Continuous
 62
     0
370
    25
100
AcDbLine
 10
1375.0
 20
2109.999974519015
 30
0.0
 11
1375.0
 21
1889.999974519015
 31
0.0
  0
LINE
  5
2DA
330
2D5
100
AcDbEntity
  8
NoLayerName_001
  6
Continuous
 62
     0
370
    25
100
AcDbLine
 10
1795.0
 20
1909.999974519015
 30
0.0
 11
1405.0
 21
1909.999974519015
 31
0.0
  0
INSERT
  5
2DB
330
2D5
100
AcDbEntity
  8
NoLayerName_001
 62
     0
370
    25
100
AcDbBlockReference
  2
_OPEN30
 10
1825.0
 20
1909.999974519015
 30
0.0
 41
30.0
 42
30.0
 43
30.0
  0
INSERT
  5
2DC
330
2D5
100
AcDbEntity
  8
NoLayerName_001
 62
     0
370
    25
100
AcDbBlockReference
  2
_OPEN30
 10
1375.0
 20
1909.999974519015
 30
0.0
 41
30.0
 42
30.0
 43
30.0
 50
180.0
  0
MTEXT
  5
2DD
330
2D5
100
AcDbEntity
  8
NoLayerName_001
 62
     0
370
    25
100
AcDbMText
 10
1600.0
 20
1961.999974519015
 30
0.0
 40
64.0
 41
0.0
 71
     5
 72
     1
  1
\W0.8000;450
 73
     1
 44
1.0
  0
POINT
  5
2DE
330
2D5
100
AcDbEntity
  8
Defpoints
 62
     0
100
AcDbPoint
 10
1825.0
 20
2119.999974519015
 30
0.0
  0
POINT
  5
2DF
330
2D5
100
AcDbEntity
  8
Defpoints
 62
     0
100
AcDbPoint
 10
1375.0
 20
2119.999974519015
 30
0.0
  0
POINT
  5
2E0
330
2D5
100
AcDbEntity
  8
Defpoints
 62
     0
100
AcDbPoint
 10
1375.0
 20
1909.999974519015
 30
0.0
  0
ENDBLK
  5
2D7
330
2D5
100
AcDbEntity
  8
0
100
AcDbBlockEnd
  0
BLOCK
  5
2E6
330
2E5
100
AcDbEntity
  8
0
100
AcDbBlockBegin
  2
*D17
 70
     1
 10
0.0
 20
0.0
 30
0.0
  3
*D17
  1
*D17
  0
LINE
  5
2E8
330
2E5
100
AcDbEntity
  8
NoLayerName_001
  6
Continuous
 62
     0
370
    25
100
AcDbLine
 10
3241.000211820001
 20
3131.999972507361
 30
0.0
 11
3477.5
 21
3131.999972507361
 31
0.0
  0
LINE
  5
2E9
330
2E5
100
AcDbEntity
  8
NoLayerName_001
  6
Continuous
 62
     0
370
    25
100
AcDbLine
 10
3361.1
 20
2996.999974519018
 30
0.0
 11
3477.5
 21
2996.999974519018
 31
0.0
  0
LINE
  5
2EA
330
2E5
100
AcDbEntity
  8
NoLayerName_001
  6
Continuous
 62
     0
370
    25
100
AcDbLine
 10
3457.5
 20
3101.999972507361
 30
0.0
 11
3457.5
 21
3026.999974519018
 31
0.0
  0
INSERT
  5
2EB
330
2E5
100
AcDbEntity
  8
NoLayerName_001
 62
     0
370
    25
100
AcDbBlockReference
  2
_OPEN30
 10
3457.5
 20
3131.999972507361
 30
0.0
 41
30.0
 42
30.0
 43
30.0
 50
90.0
  0
INSERT
  5
2EC
330
2E5
100
AcDbEntity
  8
NoLayerName_001
 62
     0
370
    25
100
AcDbBlockReference
  2
_OPEN30
 10
3457.5
 20
2996.999974519018
 30
0.0
 41
30.0
 42
30.0
 43
30.0
 50
270.0
  0
MTEXT
  5
2ED
330
2E5
100
AcDbEntity
  8
NoLayerName_001
 62
     0
370
    25
100
AcDbMText
 10
3405.5
 20
3064.499972114426
 30
0.0
 40
64.0
 41
0.0
 71
     5
 72
     1
  1
\W0.8000;\T0.7500;135
 11
0.0
 21
1.0
 31
0.0
 73
     1
 44
1.0
  0
POINT
  5
2EE
330
2E5
100
AcDbEntity
  8
Defpoints
 62
     0
100
AcDbPoint
 10
3231.000211820001
 20
3131.999972507361
 30
0.0
  0
POINT
  5
2EF
330
2E5
100
AcDbEntity
  8
Defpoints
 62
     0
100
AcDbPoint
 10
3351.1
 20
2996.999974519018
 30
0.0
  0
POINT
  5
2F0
330
2E5
100
AcDbEntity
  8
Defpoints
 62
     0
100
AcDbPoint
 10
3457.5
 20
2996.999974519018
 30
0.0
  0
ENDBLK
  5
2E7
330
2E5
100
AcDbEntity
  8
0
100
AcDbBlockEnd
  0
BLOCK
  5
2F4
330
2F3
100
AcDbEntity
  8
0
100
AcDbBlockBegin
  2
*D18
 70
     1
 10
0.0
 20
0.0
 30
0.0
  3
*D18
  1
*D18
  0
LINE
  5
2F6
330
2F3
100
AcDbEntity
  8
NoLayerName_001
  6
Continuous
 62
     0
370
    25
100
AcDbLine
 10
2950.99975793064
 20
3150.999911189083
 30
0.0
 11
2762.5
 21
3150.999911189083
 31
0.0
  0
LINE
  5
2F7
330
2F3
100
AcDbEntity
  8
NoLayerName_001
  6
Continuous
 62
     0
370
    25
100
AcDbLine
 10
2838.900000000001
 20
2996.999974519018
 30
0.0
 11
2762.5
 21
2996.999974519018
 31
0.0
  0
LINE
  5
2F8
330
2F3
100
AcDbEntity
  8
NoLayerName_001
  6
Continuous
 62
     0
370
    25
100
AcDbLine
 10
2782.5
 20
3120.999911189083
 30
0.0
 11
2782.5
 21
3026.999974519018
 31
0.0
  0
INSERT
  5
2F9
330
2F3
100
AcDbEntity
  8
NoLayerName_001
 62
     0
370
    25
100
AcDbBlockReference
  2
_OPEN30
 10
2782.5
 20
3150.999911189083
 30
0.0
 41
30.0
 42
30.0
 43
30.0
 50
90.0
  0
INSERT
  5
2FA
330
2F3
100
AcDbEntity
  8
NoLayerName_001
 62
     0
370
    25
100
AcDbBlockReference
  2
_OPEN30
 10
2782.5
 20
2996.999974519018
 30
0.0
 41
30.0
 42
30.0
 43
30.0
 50
270.0
  0
MTEXT
  5
2FB
330
2F3
100
AcDbEntity
  8
NoLayerName_001
 62
     0
370
    25
100
AcDbMText
 10
2730.5
 20
3073.999941455286
 30
0.0
 40
64.0
 41
0.0
 71
     5
 72
     1
  1
\W0.8000;\T0.7500;154
 11
0.0
 21
1.0
 31
0.0
 73
     1
 44
1.0
  0
POINT
  5
2FC
330
2F3
100
AcDbEntity
  8
Defpoints
 62
     0
100
AcDbPoint
 10
2960.99975793064
 20
3150.999911189083
 30
0.0
  0
POINT
  5
2FD
330
2F3
100
AcDbEntity
  8
Defpoints
 62
     0
100
AcDbPoint
 10
2848.900000000001
 20
2996.999974519018
 30
0.0
  0
POINT
  5
2FE
330
2F3
100
AcDbEntity
  8
Defpoints
 62
     0
100
AcDbPoint
 10
2782.5
 20
2996.999974519018
 30
0.0
  0
ENDBLK
  5
2F5
330
2F3
100
AcDbEntity
  8
0
100
AcDbBlockEnd
  0
BLOCK
  5
302
330
301
100
AcDbEntity
  8
0
100
AcDbBlockBegin
  2
*D19
 70
     1
 10
0.0
 20
0.0
 30
0.0
  3
*D19
  1
*D19
  0
LINE
  5
304
330
301
100
AcDbEntity
  8
NoLayerName_001
  6
Continuous
 62
     0
370
    25
100
AcDbLine
 10
2950.99975793064
 20
3150.999911189083
 30
0.0
 11
2642.5
 21
3150.999911189083
 31
0.0
  0
LINE
  5
305
330
301
100
AcDbEntity
  8
NoLayerName_001
  6
Continuous
 62
     0
370
    25
100
AcDbLine
 10
2845.0
 20
2119.999974519019
 30
0.0
 11
2642.5
 21
2119.999974519019
 31
0.0
  0
LINE
  5
306
330
301
100
AcDbEntity
  8
NoLayerName_001
  6
Continuous
 62
     0
370
    25
100
AcDbLine
 10
2662.5
 20
3120.999911189083
 30
0.0
 11
2662.5
 21
2149.999974519019
 31
0.0
  0
INSERT
  5
307
330
301
100
AcDbEntity
  8
NoLayerName_001
 62
     0
370
    25
100
AcDbBlockReference
  2
_OPEN30
 10
2662.5
 20
3150.999911189083
 30
0.0
 41
30.0
 42
30.0
 43
30.0
 50
90.0
  0
INSERT
  5
308
330
301
100
AcDbEntity
  8
NoLayerName_001
 62
     0
370
    25
100
AcDbBlockReference
  2
_OPEN30
 10
2662.5
 20
2119.999974519019
 30
0.0
 41
30.0
 42
30.0
 43
30.0
 50
270.0
  0
MTEXT
  5
309
330
301
100
AcDbEntity
  8
NoLayerName_001
 62
     0
370
    25
100
AcDbMText
 10
2610.5
 20
2635.499941455286
 30
0.0
 40
64.0
 41
0.0
 71
     5
 72
     1
  1
\W0.8000;1031
 11
0.0
 21
1.0
 31
0.0
 73
     1
 44
1.0
  0
POINT
  5
30A
330
301
100
AcDbEntity
  8
Defpoints
 62
     0
100
AcDbPoint
 10
2960.99975793064
 20
3150.999911189083
 30
0.0
  0
POINT
  5
30B
330
301
100
AcDbEntity
  8
Defpoints
 62
     0
100
AcDbPoint
 10
2855.0
 20
2119.999974519019
 30
0.0
  0
POINT
  5
30C
330
301
100
AcDbEntity
  8
Defpoints
 62
     0
100
AcDbPoint
 10
2662.5
 20
2119.999974519019
 30
0.0
  0
ENDBLK
  5
303
330
301
100
AcDbEntity
  8
0
100
AcDbBlockEnd
  0
BLOCK
  5
310
330
30F
100
AcDbEntity
  8
0
100
AcDbBlockBegin
  2
*D20
 70
     1
 10
0.0
 20
0.0
 30
0.0
  3
*D20
  1
*D20
  0
LINE
  5
312
330
30F
100
AcDbEntity
  8
NoLayerName_001
  6
Continuous
 62
     0
370
    25
100
AcDbLine
 10
3220.000150948759
 20
3151.999911412603
 30
0.0
 11
3220.000150948759
 21
3253.29337126635
 31
0.0
  0
LINE
  5
313
330
30F
100
AcDbEntity
  8
NoLayerName_001
  6
Continuous
 62
     0
370
    25
100
AcDbLine
 10
3100.0
 20
3151.999911412603
 30
0.0
 11
3100.0
 21
3253.29337126635
 31
0.0
  0
LINE
  5
314
330
30F
100
AcDbEntity
  8
NoLayerName_001
  6
Continuous
 62
     0
370
    25
100
AcDbLine
 10
3190.000150948759
 20
3233.29337126635
 30
0.0
 11
3130.0
 21
3233.29337126635
 31
0.0
  0
INSERT
  5
315
330
30F
100
AcDbEntity
  8
NoLayerName_001
 62
     0
370
    25
100
AcDbBlockReference
  2
_OPEN30
 10
3220.000150948759
 20
3233.29337126635
 30
0.0
 41
30.0
 42
30.0
 43
30.0
  0
INSERT
  5
316
330
30F
100
AcDbEntity
  8
NoLayerName_001
 62
     0
370
    25
100
AcDbBlockReference
  2
_OPEN30
 10
3100.0
 20
3233.29337126635
 30
0.0
 41
30.0
 42
30.0
 43
30.0
 50
180.0
  0
MTEXT
  5
317
330
30F
100
AcDbEntity
  8
NoLayerName_001
 62
     0
370
    25
100
AcDbMText
 10
3160.00007547438
 20
3285.29337126635
 30
0.0
 40
64.0
 41
0.0
 71
     5
 72
     1
  1
\W0.8000;\T0.7500;120
 73
     1
 44
1.0
  0
POINT
  5
318
330
30F
100
AcDbEntity
  8
Defpoints
 62
     0
100
AcDbPoint
 10
3220.000150948759
 20
3141.999911412603
 30
0.0
  0
POINT
  5
319
330
30F
100
AcDbEntity
  8
Defpoints
 62
     0
100
AcDbPoint
 10
3100.0
 20
3141.999911412603
 30
0.0
  0
POINT
  5
31A
330
30F
100
AcDbEntity
  8
Defpoints
 62
     0
100
AcDbPoint
 10
3100.0
 20
3233.29337126635
 30
0.0
  0
ENDBLK
  5
311
330
30F
100
AcDbEntity
  8
0
100
AcDbBlockEnd
  0
BLOCK
  5
31E
330
31D
100
AcDbEntity
  8
0
100
AcDbBlockBegin
  2
*D21
 70
     1
 10
0.0
 20
0.0
 30
0.0
  3
*D21
  1
*D21
  0
LINE
  5
320
330
31D
100
AcDbEntity
  8
NoLayerName_001
  6
Continuous
 62
     0
370
    25
100
AcDbLine
 10
2965.000002011657
 20
3170.999911189084
 30
0.0
 11
2965.000002011657
 21
3253.29337126635
 31
0.0
  0
LINE
  5
321
330
31D
100
AcDbEntity
  8
NoLayerName_001
  6
Continuous
 62
     0
370
    25
100
AcDbLine
 10
3100.0
 20
3151.999911412603
 30
0.0
 11
3100.0
 21
3253.29337126635
 31
0.0
  0
LINE
  5
322
330
31D
100
AcDbEntity
  8
NoLayerName_001
  6
Continuous
 62
     0
370
    25
100
AcDbLine
 10
2995.000002011657
 20
3233.29337126635
 30
0.0
 11
3070.0
 21
3233.29337126635
 31
0.0
  0
INSERT
  5
323
330
31D
100
AcDbEntity
  8
NoLayerName_001
 62
     0
370
    25
100
AcDbBlockReference
  2
_OPEN30
 10
2965.000002011657
 20
3233.29337126635
 30
0.0
 41
30.0
 42
30.0
 43
30.0
 50
180.0
  0
INSERT
  5
324
330
31D
100
AcDbEntity
  8
NoLayerName_001
 62
     0
370
    25
100
AcDbBlockReference
  2
_OPEN30
 10
3100.0
 20
3233.29337126635
 30
0.0
 41
30.0
 42
30.0
 43
30.0
  0
MTEXT
  5
325
330
31D
100
AcDbEntity
  8
NoLayerName_001
 62
     0
370
    25
100
AcDbMText
 10
3032.500001005828
 20
3285.29337126635
 30
0.0
 40
64.0
 41
0.0
 71
     5
 72
     1
  1
\W0.8000;\T0.7500;135
 73
     1
 44
1.0
  0
POINT
  5
326
330
31D
100
AcDbEntity
  8
Defpoints
 62
     0
100
AcDbPoint
 10
2965.000002011657
 20
3160.999911189084
 30
0.0
  0
POINT
  5
327
330
31D
100
AcDbEntity
  8
Defpoints
 62
     0
100
AcDbPoint
 10
3100.0
 20
3141.999911412603
 30
0.0
  0
POINT
  5
328
330
31D
100
AcDbEntity
  8
Defpoints
 62
     0
100
AcDbPoint
 10
3100.0
 20
3233.29337126635
 30
0.0
  0
ENDBLK
  5
31F
330
31D
100
AcDbEntity
  8
0
100
AcDbBlockEnd
  0
BLOCK
  5
32C
330
32B
100
AcDbEntity
  8
0
100
AcDbBlockBegin
  2
*D22
 70
     1
 10
0.0
 20
0.0
 30
0.0
  3
*D22
  1
*D22
  0
LINE
  5
32E
330
32B
100
AcDbEntity
  8
NoLayerName_001
  6
Continuous
 62
     0
370
    25
100
AcDbLine
 10
1669.999890384834
 20
4587.99978603956
 30
0.0
 11
1669.999890384834
 21
4747.499787082643
 31
0.0
  0
LINE
  5
32F
330
32B
100
AcDbEntity
  8
NoLayerName_001
  6
Continuous
 62
     0
370
    25
100
AcDbLine
 10
1529.999892470996
 20
4587.99978603956
 30
0.0
 11
1529.999892470996
 21
4747.499787082643
 31
0.0
  0
LINE
  5
330
330
32B
100
AcDbEntity
  8
NoLayerName_001
  6
Continuous
 62
     0
370
    25
100
AcDbLine
 10
1639.999890384834
 20
4727.499787082643
 30
0.0
 11
1559.999892470996
 21
4727.499787082643
 31
0.0
  0
INSERT
  5
331
330
32B
100
AcDbEntity
  8
NoLayerName_001
 62
     0
370
    25
100
AcDbBlockReference
  2
_OPEN30
 10
1669.999890384834
 20
4727.499787082643
 30
0.0
 41
30.0
 42
30.0
 43
30.0
  0
INSERT
  5
332
330
32B
100
AcDbEntity
  8
NoLayerName_001
 62
     0
370
    25
100
AcDbBlockReference
  2
_OPEN30
 10
1529.999892470996
 20
4727.499787082643
 30
0.0
 41
30.0
 42
30.0
 43
30.0
 50
180.0
  0
MTEXT
  5
333
330
32B
100
AcDbEntity
  8
NoLayerName_001
 62
     0
370
    25
100
AcDbMText
 10
1599.999891427915
 20
4779.499787082643
 30
0.0
 40
64.0
 41
0.0
 71
     5
 72
     1
  1
\W0.8000;\T0.7500;140
 73
     1
 44
1.0
  0
POINT
  5
334
330
32B
100
AcDbEntity
  8
Defpoints
 62
     0
100
AcDbPoint
 10
1669.999890384834
 20
4577.99978603956
 30
0.0
  0
POINT
  5
335
330
32B
100
AcDbEntity
  8
Defpoints
 62
     0
100
AcDbPoint
 10
1529.999892470996
 20
4577.99978603956
 30
0.0
  0
POINT
  5
336
330
32B
100
AcDbEntity
  8
Defpoints
 62
     0
100
AcDbPoint
 10
1529.999892470996
 20
4727.499787082643
 30
0.0
  0
ENDBLK
  5
32D
330
32B
100
AcDbEntity
  8
0
100
AcDbBlockEnd
  0
BLOCK
  5
33A
330
339
100
AcDbEntity
  8
0
100
AcDbBlockBegin
  2
*D23
 70
     1
 10
0.0
 20
0.0
 30
0.0
  3
*D23
  1
*D23
  0
LINE
  5
33C
330
339
100
AcDbEntity
  8
NoLayerName_001
  6
Continuous
 62
     0
370
    25
100
AcDbLine
 10
1720.000001490114
 20
4220.000000521541
 30
0.0
 11
1720.000001490114
 21
4012.49978708264
 31
0.0
  0
LINE
  5
33D
330
339
100
AcDbEntity
  8
NoLayerName_001
  6
Continuous
 62
     0
370
    25
100
AcDbLine
 10
1600.0
 20
4116.499787082644
 30
0.0
 11
1600.0
 21
4012.49978708264
 31
0.0
  0
LINE
  5
33E
330
339
100
AcDbEntity
  8
NoLayerName_001
  6
Continuous
 62
     0
370
    25
100
AcDbLine
 10
1690.000001490114
 20
4032.49978708264
 30
0.0
 11
1630.0
 21
4032.49978708264
 31
0.0
  0
INSERT
  5
33F
330
339
100
AcDbEntity
  8
NoLayerName_001
 62
     0
370
    25
100
AcDbBlockReference
  2
_OPEN30
 10
1720.000001490114
 20
4032.49978708264
 30
0.0
 41
30.0
 42
30.0
 43
30.0
  0
INSERT
  5
340
330
339
100
AcDbEntity
  8
NoLayerName_001
 62
     0
370
    25
100
AcDbBlockReference
  2
_OPEN30
 10
1600.0
 20
4032.49978708264
 30
0.0
 41
30.0
 42
30.0
 43
30.0
 50
180.0
  0
MTEXT
  5
341
330
339
100
AcDbEntity
  8
NoLayerName_001
 62
     0
370
    25
100
AcDbMText
 10
1660.000000745058
 20
4084.49978708264
 30
0.0
 40
64.0
 41
0.0
 71
     5
 72
     1
  1
\W0.8000;\T0.7500;120
 73
     1
 44
1.0
  0
POINT
  5
342
330
339
100
AcDbEntity
  8
Defpoints
 62
     0
100
AcDbPoint
 10
1720.000001490114
 20
4230.000000521541
 30
0.0
  0
POINT
  5
343
330
339
100
AcDbEntity
  8
Defpoints
 62
     0
100
AcDbPoint
 10
1600.0
 20
4126.499787082644
 30
0.0
  0
POINT
  5
344
330
339
100
AcDbEntity
  8
Defpoints
 62
     0
100
AcDbPoint
 10
1600.0
 20
4032.49978708264
 30
0.0
  0
ENDBLK
  5
33B
330
339
100
AcDbEntity
  8
0
100
AcDbBlockEnd
  0
BLOCK
  5
348
330
347
100
AcDbEntity
  8
0
100
AcDbBlockBegin
  2
*D24
 70
     1
 10
0.0
 20
0.0
 30
0.0
  3
*D24
  1
*D24
  0
LINE
  5
34A
330
347
100
AcDbEntity
  8
NoLayerName_001
  6
Continuous
 62
     0
370
    25
100
AcDbLine
 10
1600.0
 20
4116.499787082644
 30
0.0
 11
1600.0
 21
4012.49978708264
 31
0.0
  0
LINE
  5
34B
330
347
100
AcDbEntity
  8
NoLayerName_001
  6
Continuous
 62
     0
370
    25
100
AcDbLine
 10
1480.000001490114
 20
4220.000000521541
 30
0.0
 11
1480.000001490114
 21
4012.49978708264
 31
0.0
  0
LINE
  5
34C
330
347
100
AcDbEntity
  8
NoLayerName_001
  6
Continuous
 62
     0
370
    25
100
AcDbLine
 10
1570.0
 20
4032.49978708264
 30
0.0
 11
1510.000001490114
 21
4032.49978708264
 31
0.0
  0
INSERT
  5
34D
330
347
100
AcDbEntity
  8
NoLayerName_001
 62
     0
370
    25
100
AcDbBlockReference
  2
_OPEN30
 10
1600.0
 20
4032.49978708264
 30
0.0
 41
30.0
 42
30.0
 43
30.0
  0
INSERT
  5
34E
330
347
100
AcDbEntity
  8
NoLayerName_001
 62
     0
370
    25
100
AcDbBlockReference
  2
_OPEN30
 10
1480.000001490114
 20
4032.49978708264
 30
0.0
 41
30.0
 42
30.0
 43
30.0
 50
180.0
  0
MTEXT
  5
34F
330
347
100
AcDbEntity
  8
NoLayerName_001
 62
     0
370
    25
100
AcDbMText
 10
1540.000000745058
 20
4084.49978708264
 30
0.0
 40
64.0
 41
0.0
 71
     5
 72
     1
  1
\W0.8000;\T0.7500;120
 73
     1
 44
1.0
  0
POINT
  5
350
330
347
100
AcDbEntity
  8
Defpoints
 62
     0
100
AcDbPoint
 10
1600.0
 20
4126.499787082644
 30
0.0
  0
POINT
  5
351
330
347
100
AcDbEntity
  8
Defpoints
 62
     0
100
AcDbPoint
 10
1480.000001490114
 20
4230.000000521541
 30
0.0
  0
POINT
  5
352
330
347
100
AcDbEntity
  8
Defpoints
 62
     0
100
AcDbPoint
 10
1480.000001490114
 20
4032.49978708264
 30
0.0
  0
ENDBLK
  5
349
330
347
100
AcDbEntity
  8
0
100
AcDbBlockEnd
  0
BLOCK
  5
356
330
355
100
AcDbEntity
  8
0
100
AcDbBlockBegin
  2
*D25
 70
     1
 10
0.0
 20
0.0
 30
0.0
  3
*D25
  1
*D25
  0
LINE
  5
358
330
355
100
AcDbEntity
  8
NoLayerName_001
  6
Continuous
 62
     0
370
    25
100
AcDbLine
 10
1422.499890384834
 20
4146.499787082644
 30
0.0
 11
1099.999890384834
 21
4146.499787082644
 31
0.0
  0
LINE
  5
359
330
355
100
AcDbEntity
  8
NoLayerName_001
  6
Continuous
 62
     0
370
    25
100
AcDbLine
 10
1422.499890384834
 20
4673.500212917355
 30
0.0
 11
1099.999890384834
 21
4673.500212917355
 31
0.0
  0
LINE
  5
35A
330
355
100
AcDbEntity
  8
NoLayerName_001
  6
Continuous
 62
     0
370
    25
100
AcDbLine
 10
1119.999890384834
 20
4176.499787082644
 30
0.0
 11
1119.999890384834
 21
4643.500212917355
 31
0.0
  0
INSERT
  5
35B
330
355
100
AcDbEntity
  8
NoLayerName_001
 62
     0
370
    25
100
AcDbBlockReference
  2
_OPEN30
 10
1119.999890384834
 20
4146.499787082644
 30
0.0
 41
30.0
 42
30.0
 43
30.0
 50
270.0
  0
INSERT
  5
35C
330
355
100
AcDbEntity
  8
NoLayerName_001
 62
     0
370
    25
100
AcDbBlockReference
  2
_OPEN30
 10
1119.999890384834
 20
4673.500212917355
 30
0.0
 41
30.0
 42
30.0
 43
30.0
 50
90.0
  0
MTEXT
  5
35D
330
355
100
AcDbEntity
  8
NoLayerName_001
 62
     0
370
    25
100
AcDbMText
 10
1067.999890384834
 20
4409.999998601235
 30
0.0
 40
64.0
 41
0.0
 71
     5
 72
     1
  1
\W0.8000;５３０
 11
0.0
 21
1.0
 31
0.0
 73
     1
 44
1.0
  0
POINT
  5
35E
330
355
100
AcDbEntity
  8
Defpoints
 62
     0
100
AcDbPoint
 10
1432.499890384834
 20
4146.499787082644
 30
0.0
  0
POINT
  5
35F
330
355
100
AcDbEntity
  8
Defpoints
 62
     0
100
AcDbPoint
 10
1432.499890384834
 20
4673.500212917355
 30
0.0
  0
POINT
  5
360
330
355
100
AcDbEntity
  8
Defpoints
 62
     0
100
AcDbPoint
 10
1119.999890384834
 20
4673.500212917355
 30
0.0
  0
ENDBLK
  5
357
330
355
100
AcDbEntity
  8
0
100
AcDbBlockEnd
  0
BLOCK
  5
364
330
363
100
AcDbEntity
  8
0
100
AcDbBlockBegin
  2
*D26
 70
     1
 10
0.0
 20
0.0
 30
0.0
  3
*D26
  1
*D26
  0
LINE
  5
366
330
363
100
AcDbEntity
  8
NoLayerName_001
  6
Continuous
 62
     0
370
    25
100
AcDbLine
 10
1264.000109615165
 20
4537.499787082641
 30
0.0
 11
1264.000109615165
 21
4867.499787082641
 31
0.0
  0
LINE
  5
367
330
363
100
AcDbEntity
  8
NoLayerName_001
  6
Continuous
 62
     0
370
    25
100
AcDbLine
 10
1935.999890384834
 20
4537.499787082641
 30
0.0
 11
1935.999890384834
 21
4867.499787082641
 31
0.0
  0
LINE
  5
368
330
363
100
AcDbEntity
  8
NoLayerName_001
  6
Continuous
 62
     0
370
    25
100
AcDbLine
 10
1294.000109615165
 20
4847.499787082641
 30
0.0
 11
1905.999890384834
 21
4847.499787082641
 31
0.0
  0
INSERT
  5
369
330
363
100
AcDbEntity
  8
NoLayerName_001
 62
     0
370
    25
100
AcDbBlockReference
  2
_OPEN30
 10
1264.000109615165
 20
4847.499787082641
 30
0.0
 41
30.0
 42
30.0
 43
30.0
 50
180.0
  0
INSERT
  5
36A
330
363
100
AcDbEntity
  8
NoLayerName_001
 62
     0
370
    25
100
AcDbBlockReference
  2
_OPEN30
 10
1935.999890384834
 20
4847.499787082641
 30
0.0
 41
30.0
 42
30.0
 43
30.0
  0
MTEXT
  5
36B
330
363
100
AcDbEntity
  8
NoLayerName_001
 62
     0
370
    25
100
AcDbMText
 10
1600.0
 20
4899.499787082641
 30
0.0
 40
64.0
 41
0.0
 71
     5
 72
     1
  1
\W0.8000;６７５
 73
     1
 44
1.0
  0
POINT
  5
36C
330
363
100
AcDbEntity
  8
Defpoints
 62
     0
100
AcDbPoint
 10
1264.000109615165
 20
4527.499787082641
 30
0.0
  0
POINT
  5
36D
330
363
100
AcDbEntity
  8
Defpoints
 62
     0
100
AcDbPoint
 10
1935.999890384834
 20
4527.499787082641
 30
0.0
  0
POINT
  5
36E
330
363
100
AcDbEntity
  8
Defpoints
 62
     0
100
AcDbPoint
 10
1935.999890384834
 20
4847.499787082641
 30
0.0
  0
ENDBLK
  5
365
330
363
100
AcDbEntity
  8
0
100
AcDbBlockEnd
  0
ENDSEC
  0
SECTION
  2
ENTITIES
  0
POINT
  5
17E
330
1F
100
AcDbEntity
  8
NoLayerName_001
  6
Continuous
 62
     7
 60
     1
370
    50
100
AcDbPoint
 10
0.0
 20
0.0
 30
0.0
  0
LINE
  5
17F
330
1F
100
AcDbEntity
  8
NoLayerName_001
  6
Continuous
 62
     7
370
    25
100
AcDbLine
 10
1311.100000000002
 20
2193.199974519016
 30
0.0
 11
1302.300000000002
 21
2193.199974519016
 31
0.0
  0
LINE
  5
180
330
1F
100
AcDbEntity
  8
NoLayerName_001
  6
Continuous
 62
     7
370
    25
100
AcDbLine
 10
1302.299999999999
 20
2193.199974519016
 30
0.0
 11
1302.299999999999
 21
2196.399974519015
 31
0.0
  0
LINE
  5
181
330
1F
100
AcDbEntity
  8
NoLayerName_001
  6
Continuous
 62
     7
370
    25
100
AcDbLine
 10
1311.100000000002
 20
2196.399974519016
 30
0.0
 11
1302.300000000002
 21
2196.399974519016
 31
0.0
  0
ARC
  5
182
330
1F
100
AcDbEntity
  8
NoLayerName_001
  6
Continuous
 62
     7
370
    50
100
AcDbCircle
 10
1311.100000000002
 20
2199.599974519015
 30
0.0
 40
3.2
100
AcDbArc
 50
270.0
 51
0.0
  0
LINE
  5
183
330
1F
100
AcDbEntity
  8
NoLayerName_001
  6
Continuous
 62
     7
370
    25
100
AcDbLine
 10
1888.900000000001
 20
2193.199974519016
 30
0.0
 11
1897.700000000002
 21
2193.199974519016
 31
0.0
  0
LINE
  5
184
330
1F
100
AcDbEntity
  8
NoLayerName_001
  6
Continuous
 62
     7
370
    25
100
AcDbLine
 10
1897.700000000001
 20
2193.199974519016
 30
0.0
 11
1897.700000000001
 21
2196.399974519015
 31
0.0
  0
LINE
  5
185
330
1F
100
AcDbEntity
  8
NoLayerName_001
  6
Continuous
 62
     7
370
    25
100
AcDbLine
 10
1888.900000000001
 20
2196.399974519016
 30
0.0
 11
1897.700000000002
 21
2196.399974519016
 31
0.0
  0
ARC
  5
186
330
1F
100
AcDbEntity
  8
NoLayerName_001
  6
Continuous
 62
     7
370
    50
100
AcDbCircle
 10
1888.900000000001
 20
2199.599974519015
 30
0.0
 40
3.2
100
AcDbArc
 50
180.0
 51
270.0
  0
LINE
  5
187
330
1F
100
AcDbEntity
  8
NoLayerName_001
  6
Continuous
 62
     7
370
    25
100
AcDbLine
 10
1888.900000000001
 20
2193.199974519016
 30
0.0
 11
1311.100000000005
 21
2193.199974519016
 31
0.0
  0
LINE
  5
188
330
1F
100
AcDbEntity
  8
NoLayerName_001
  6
Continuous
 62
     7
370
    25
100
AcDbLine
 10
1888.900000000001
 20
2196.399974519016
 30
0.0
 11
1311.100000000005
 21
2196.399974519016
 31
0.0
  0
LINE
  5
189
330
1F
100
AcDbEntity
  8
NoLayerName_001
  6
Continuous
 62
     7
370
    25
100
AcDbLine
 10
1346.849999999999
 20
2187.799974519016
 30
0.0
 11
1346.849999999999
 21
2189.999974519016
 31
0.0
  0
LINE
  5
18A
330
1F
100
AcDbEntity
  8
NoLayerName_001
  6
Continuous
 62
     7
370
    25
100
AcDbLine
 10
1310.5
 20
2189.999974519015
 30
0.0
 11
1310.5
 21
2193.199974519015
 31
0.0
  0
ARC
  5
18B
330
1F
100
AcDbEntity
  8
NoLayerName_001
  6
Continuous
 62
     7
370
    25
100
AcDbCircle
 10
1329.549999999999
 20
2187.799974519016
 30
0.0
 40
17.3
100
AcDbArc
 50
270.0
 51
0.0
  0
ARC
  5
18C
330
1F
100
AcDbEntity
  8
NoLayerName_001
  6
Continuous
 62
     7
370
    25
100
AcDbCircle
 10
1329.549999999999
 20
2187.799974519014
 30
0.0
 40
34.6
100
AcDbArc
 50
270.0
 51
0.0
  0
LINE
  5
18D
330
1F
100
AcDbEntity
  8
NoLayerName_001
  6
Continuous
 62
     7
370
    25
100
AcDbLine
 10
1364.150000000001
 20
2187.799974519014
 30
0.0
 11
1364.150000000001
 21
2189.999974519014
 31
0.0
  0
LINE
  5
18E
330
1F
100
AcDbEntity
  8
NoLayerName_001
  6
Continuous
 62
     7
370
    25
100
AcDbLine
 10
1889.5
 20
2189.999974519015
 30
0.0
 11
1889.5
 21
2193.199974519015
 31
0.0
  0
LINE
  5
18F
330
1F
100
AcDbEntity
  8
NoLayerName_001
  6
Continuous
 62
     7
370
    25
100
AcDbLine
 10
1889.5
 20
2189.999974519015
 30
0.0
 11
1310.5
 21
2189.999974519015
 31
0.0
  0
LINE
  5
190
330
1F
100
AcDbEntity
  8
NoLayerName_001
  6
Continuous
 62
     7
370
    25
100
AcDbLine
 10
1889.5
 20
2193.199974519016
 30
0.0
 11
1310.5
 21
2193.199974519016
 31
0.0
  0
LINE
  5
191
330
1F
100
AcDbEntity
  8
NoLayerName_001
  6
Continuous
 62
     7
370
    25
100
AcDbLine
 10
1774.0
 20
2125.999974519015
 30
0.0
 11
1825.0
 21
2125.999974519015
 31
0.0
  0
LINE
  5
192
330
1F
100
AcDbEntity
  8
NoLayerName_001
  6
Continuous
 62
     7
370
    25
100
AcDbLine
 10
1774.0
 20
2119.999974519015
 30
0.0
 11
1825.0
 21
2119.999974519015
 31
0.0
  0
LINE
  5
193
330
1F
100
AcDbEntity
  8
NoLayerName_001
  6
Continuous
 62
     7
370
    25
100
AcDbLine
 10
1771.0
 20
2128.999974519015
 30
0.0
 11
1771.0
 21
2189.999974519015
 31
0.0
  0
LINE
  5
194
330
1F
100
AcDbEntity
  8
NoLayerName_001
  6
Continuous
 62
     7
370
    25
100
AcDbLine
 10
1765.0
 20
2128.999974519015
 30
0.0
 11
1765.0
 21
2189.999974519015
 31
0.0
  0
ARC
  5
195
330
1F
100
AcDbEntity
  8
NoLayerName_001
  6
Continuous
 62
     7
370
    25
100
AcDbCircle
 10
1774.0
 20
2128.999974519015
 30
0.0
 40
3.0
100
AcDbArc
 50
180.0
 51
270.0
  0
ARC
  5
196
330
1F
100
AcDbEntity
  8
NoLayerName_001
  6
Continuous
 62
     7
370
    25
100
AcDbCircle
 10
1774.0
 20
2128.999974519015
 30
0.0
 40
9.0
100
AcDbArc
 50
180.0
 51
270.0
  0
LINE
  5
197
330
1F
100
AcDbEntity
  8
NoLayerName_001
  6
Continuous
 62
     7
370
    25
100
AcDbLine
 10
1765.0
 20
2169.999974519015
 30
0.0
 11
1745.0
 21
2189.999974519015
 31
0.0
  0
LWPOLYLINE
  5
198
330
1F
100
AcDbEntity
  8
NoLayerName_001
  6
Continuous
 62
     3
370
    25
100
AcDbPolyline
 90
        4
 70
     1
 43
0.0
 10
1765.0
 20
2131.000035837293
 10
1734.999969825149
 20
2131.000035837293
 10
1734.999969825149
 20
2149.999974519016
 10
1765.0
 20
2149.999974519016
  0
LINE
  5
199
330
1F
100
AcDbEntity
  8
NoLayerName_001
  6
Continuous
 62
     7
370
    25
100
AcDbLine
 10
1825.0
 20
2125.999974519015
 30
0.0
 11
1825.0
 21
2119.999974519015
 31
0.0
  0
LINE
  5
19A
330
1F
100
AcDbEntity
  8
NoLayerName_001
  6
CENTER
 62
     7
370
    25
100
AcDbLine
 10
1800.0
 20
2135.999974519015
 30
0.0
 11
1800.0
 21
2109.999974519015
 31
0.0
  0
LINE
  5
19B
330
1F
100
AcDbEntity
  8
NoLayerName_001
  6
Continuous
 62
     7
370
    25
100
AcDbLine
 10
1765.0
 20
2189.999974519015
 30
0.0
 11
1771.0
 21
2189.999974519015
 31
0.0
  0
LINE
  5
19C
330
1F
100
AcDbEntity
  8
NoLayerName_001
  6
Continuous
 62
     7
370
    25
100
AcDbLine
 10
1426.0
 20
2125.999974519015
 30
0.0
 11
1375.0
 21
2125.999974519015
 31
0.0
  0
LINE
  5
19D
330
1F
100
AcDbEntity
  8
NoLayerName_001
  6
Continuous
 62
     7
370
    25
100
AcDbLine
 10
1426.0
 20
2119.999974519015
 30
0.0
 11
1375.0
 21
2119.999974519015
 31
0.0
  0
LINE
  5
19E
330
1F
100
AcDbEntity
  8
NoLayerName_001
  6
Continuous
 62
     7
370
    25
100
AcDbLine
 10
1429.0
 20
2128.999974519015
 30
0.0
 11
1429.0
 21
2189.999974519015
 31
0.0
  0
LINE
  5
19F
330
1F
100
AcDbEntity
  8
NoLayerName_001
  6
Continuous
 62
     7
370
    25
100
AcDbLine
 10
1435.0
 20
2128.999974519015
 30
0.0
 11
1435.0
 21
2189.999974519015
 31
0.0
  0
ARC
  5
1A0
330
1F
100
AcDbEntity
  8
NoLayerName_001
  6
Continuous
 62
     7
370
    25
100
AcDbCircle
 10
1426.0
 20
2128.999974519015
 30
0.0
 40
3.0
100
AcDbArc
 50
270.0
 51
0.0
  0
ARC
  5
1A1
330
1F
100
AcDbEntity
  8
NoLayerName_001
  6
Continuous
 62
     7
370
    25
100
AcDbCircle
 10
1426.0
 20
2128.999974519015
 30
0.0
 40
9.0
100
AcDbArc
 50
270.0
 51
0.0
  0
LWPOLYLINE
  5
1A2
330
1F
100
AcDbEntity
  8
NoLayerName_001
  6
Continuous
 62
     3
370
    25
100
AcDbPolyline
 90
        4
 70
     1
 43
0.0
 10
1435.0
 20
2131.000035837293
 10
1465.000030174851
 20
2131.000035837293
 10
1465.000030174851
 20
2149.999974519016
 10
1435.0
 20
2149.999974519016
  0
LINE
  5
1A3
330
1F
100
AcDbEntity
  8
NoLayerName_001
  6
Continuous
 62
     7
370
    25
100
AcDbLine
 10
1435.0
 20
2189.999974519015
 30
0.0
 11
1429.0
 21
2189.999974519015
 31
0.0
  0
LINE
  5
1A4
330
1F
100
AcDbEntity
  8
NoLayerName_001
  6
Continuous
 62
     7
370
    25
100
AcDbLine
 10
1435.0
 20
2169.999974519015
 30
0.0
 11
1455.0
 21
2189.999974519015
 31
0.0
  0
LINE
  5
1A5
330
1F
100
AcDbEntity
  8
NoLayerName_001
  6
Continuous
 62
     7
370
    25
100
AcDbLine
 10
1765.0
 20
2151.999974519015
 30
0.0
 11
1435.000000000001
 21
2151.999974519015
 31
0.0
  0
LINE
  5
1A6
330
1F
100
AcDbEntity
  8
NoLayerName_001
  6
Continuous
 62
     7
370
    25
100
AcDbLine
 10
1375.0
 20
2125.999974519015
 30
0.0
 11
1375.0
 21
2119.999974519015
 31
0.0
  0
LINE
  5
1A7
330
1F
100
AcDbEntity
  8
NoLayerName_001
  6
CENTER
 62
     7
370
    25
100
AcDbLine
 10
1400.0
 20
2135.999974519015
 30
0.0
 11
1400.0
 21
2109.999974519015
 31
0.0
  0
LINE
  5
1A8
330
1F
100
AcDbEntity
  8
NoLayerName_001
  6
Continuous
 62
     7
370
    25
100
AcDbLine
 10
1884.728486030548
 20
2189.999974519015
 30
0.0
 11
1807.428486030548
 21
2189.999974519015
 31
0.0
  0
LINE
  5
1A9
330
1F
100
AcDbEntity
  8
NoLayerName_001
  6
Continuous
 62
     7
370
    25
100
AcDbLine
 10
2883.600000000002
 20
2193.199974519018
 30
0.0
 11
2874.800000000002
 21
2193.199974519018
 31
0.0
  0
LINE
  5
1AA
330
1F
100
AcDbEntity
  8
NoLayerName_001
  6
Continuous
 62
     7
370
    25
100
AcDbLine
 10
2874.799999999999
 20
2193.199974519018
 30
0.0
 11
2874.799999999999
 21
2196.399974519018
 31
0.0
  0
LINE
  5
1AB
330
1F
100
AcDbEntity
  8
NoLayerName_001
  6
Continuous
 62
     7
370
    25
100
AcDbLine
 10
2883.600000000002
 20
2196.399974519019
 30
0.0
 11
2874.800000000002
 21
2196.399974519019
 31
0.0
  0
ARC
  5
1AC
330
1F
100
AcDbEntity
  8
NoLayerName_001
  6
Continuous
 62
     7
370
    50
100
AcDbCircle
 10
2883.600000000002
 20
2199.599974519018
 30
0.0
 40
3.2
100
AcDbArc
 50
270.0
 51
0.0
  0
LINE
  5
1AD
330
1F
100
AcDbEntity
  8
NoLayerName_001
  6
Continuous
 62
     7
370
    25
100
AcDbLine
 10
3316.400000000001
 20
2193.199974519018
 30
0.0
 11
3325.200000000002
 21
2193.199974519018
 31
0.0
  0
LINE
  5
1AE
330
1F
100
AcDbEntity
  8
NoLayerName_001
  6
Continuous
 62
     7
370
    25
100
AcDbLine
 10
3325.200000000001
 20
2193.199974519018
 30
0.0
 11
3325.200000000001
 21
2196.399974519018
 31
0.0
  0
LINE
  5
1AF
330
1F
100
AcDbEntity
  8
NoLayerName_001
  6
Continuous
 62
     7
370
    25
100
AcDbLine
 10
3316.400000000001
 20
2196.399974519019
 30
0.0
 11
3325.200000000002
 21
2196.399974519019
 31
0.0
  0
ARC
  5
1B0
330
1F
100
AcDbEntity
  8
NoLayerName_001
  6
Continuous
 62
     7
370
    50
100
AcDbCircle
 10
3316.400000000001
 20
2199.599974519018
 30
0.0
 40
3.2
100
AcDbArc
 50
180.0
 51
270.0
  0
LINE
  5
1B1
330
1F
100
AcDbEntity
  8
NoLayerName_001
  6
Continuous
 62
     7
370
    25
100
AcDbLine
 10
3316.400000000001
 20
2193.199974519018
 30
0.0
 11
2883.600000000005
 21
2193.199974519018
 31
0.0
  0
LINE
  5
1B2
330
1F
100
AcDbEntity
  8
NoLayerName_001
  6
Continuous
 62
     7
370
    25
100
AcDbLine
 10
3316.400000000001
 20
2196.399974519019
 30
0.0
 11
2883.600000000005
 21
2196.399974519019
 31
0.0
  0
LINE
  5
1B3
330
1F
100
AcDbEntity
  8
NoLayerName_001
  6
Continuous
 62
     7
370
    25
100
AcDbLine
 10
2883.0
 20
2189.999974519019
 30
0.0
 11
2883.0
 21
2193.199974519019
 31
0.0
  0
LINE
  5
1B4
330
1F
100
AcDbEntity
  8
NoLayerName_001
  6
Continuous
 62
     7
370
    25
100
AcDbLine
 10
2889.999999999996
 20
2189.999974519019
 30
0.0
 11
2889.999999999996
 21
2179.99997451902
 31
0.0
  0
LINE
  5
1B5
330
1F
100
AcDbEntity
  8
NoLayerName_001
  6
DOTSX
 62
     7
370
    25
100
AcDbLine
 10
3097.0
 20
2189.999974519019
 30
0.0
 11
3097.0
 21
2151.999974519018
 31
0.0
  0
LINE
  5
1B6
330
1F
100
AcDbEntity
  8
NoLayerName_001
  6
DOTSX
 62
     7
370
    25
100
AcDbLine
 10
3103.0
 20
2189.999974519019
 30
0.0
 11
3103.0
 21
2151.999974519018
 31
0.0
  0
LINE
  5
1B7
330
1F
100
AcDbEntity
  8
NoLayerName_001
  6
DOTSX
 62
     7
370
    25
100
AcDbLine
 10
3097.0
 20
2151.999974519019
 30
0.0
 11
3103.0
 21
2151.999974519019
 31
0.0
  0
LINE
  5
1B8
330
1F
100
AcDbEntity
  8
NoLayerName_001
  6
Continuous
 62
     7
370
    25
100
AcDbLine
 10
3177.5
 20
2189.999974519019
 30
0.0
 11
3183.5
 21
2189.999974519019
 31
0.0
  0
LINE
  5
1B9
330
1F
100
AcDbEntity
  8
NoLayerName_001
  6
Continuous
 62
     7
370
    25
100
AcDbLine
 10
3317.0
 20
2189.999974519019
 30
0.0
 11
3317.0
 21
2193.199974519019
 31
0.0
  0
LINE
  5
1BA
330
1F
100
AcDbEntity
  8
NoLayerName_001
  6
Continuous
 62
     7
370
    25
100
AcDbLine
 10
3310.0
 20
2189.999974519019
 30
0.0
 11
3310.0
 21
2179.99997451902
 31
0.0
  0
LINE
  5
1BB
330
1F
100
AcDbEntity
  8
NoLayerName_001
  6
Continuous
 62
     7
370
    25
100
AcDbLine
 10
3317.0
 20
2189.999974519019
 30
0.0
 11
2883.0
 21
2189.999974519019
 31
0.0
  0
LINE
  5
1BC
330
1F
100
AcDbEntity
  8
NoLayerName_001
  6
Continuous
 62
     7
370
    25
100
AcDbLine
 10
3317.0
 20
2193.199974519018
 30
0.0
 11
2883.0
 21
2193.199974519018
 31
0.0
  0
LINE
  5
1BD
330
1F
100
AcDbEntity
  8
NoLayerName_001
  6
Continuous
 62
     7
370
    25
100
AcDbLine
 10
3345.0
 20
2125.999974519019
 30
0.0
 11
3345.0
 21
2119.999974519019
 31
0.0
  0
LINE
  5
1BE
330
1F
100
AcDbEntity
  8
NoLayerName_001
  6
Continuous
 62
     7
370
    25
100
AcDbLine
 10
3344.999999999996
 20
2125.999974519018
 30
0.0
 11
3309.999999999998
 21
2179.999974519018
 31
0.0
  0
LINE
  5
1BF
330
1F
100
AcDbEntity
  8
NoLayerName_001
  6
Continuous
 62
     7
370
    25
100
AcDbLine
 10
2855.0
 20
2125.999974519019
 30
0.0
 11
2855.0
 21
2119.999974519019
 31
0.0
  0
LINE
  5
1C0
330
1F
100
AcDbEntity
  8
NoLayerName_001
  6
Continuous
 62
     7
370
    25
100
AcDbLine
 10
2855.0
 20
2125.999974519019
 30
0.0
 11
2889.999999999999
 21
2179.99997451902
 31
0.0
  0
LINE
  5
1C1
330
1F
100
AcDbEntity
  8
NoLayerName_001
  6
Continuous
 62
     7
370
    25
100
AcDbLine
 10
2855.0
 20
2125.999974519019
 30
0.0
 11
3345.0
 21
2125.999974519019
 31
0.0
  0
LINE
  5
1C2
330
1F
100
AcDbEntity
  8
NoLayerName_001
  6
Continuous
 62
     7
370
    25
100
AcDbLine
 10
2855.0
 20
2119.999974519019
 30
0.0
 11
3345.0
 21
2119.999974519019
 31
0.0
  0
LINE
  5
1C3
330
1F
100
AcDbEntity
  8
NoLayerName_001
  6
DOTSX
 62
     7
370
    25
100
AcDbLine
 10
2894.999999999996
 20
2149.999974519021
 30
0.0
 11
2894.999999999996
 21
2130.999974519021
 31
0.0
  0
LINE
  5
1C4
330
1F
100
AcDbEntity
  8
NoLayerName_001
  6
DOTSX
 62
     7
370
    25
100
AcDbLine
 10
2875.999999999996
 20
2149.999974519021
 30
0.0
 11
2875.999999999996
 21
2130.999974519021
 31
0.0
  0
LINE
  5
1C5
330
1F
100
AcDbEntity
  8
NoLayerName_001
  6
DOTSX
 62
     7
370
    25
100
AcDbLine
 10
2894.999999999996
 20
2130.999974519019
 30
0.0
 11
2875.999999999996
 21
2130.999974519019
 31
0.0
  0
LINE
  5
1C6
330
1F
100
AcDbEntity
  8
NoLayerName_001
  6
DOTSX
 62
     7
370
    25
100
AcDbLine
 10
2894.999999999996
 20
2149.999974519019
 30
0.0
 11
2875.999999999996
 21
2149.999974519019
 31
0.0
  0
LINE
  5
1C7
330
1F
100
AcDbEntity
  8
NoLayerName_001
  6
DOTSX
 62
     7
370
    25
100
AcDbLine
 10
3305.0
 20
2130.999974519019
 30
0.0
 11
3324.0
 21
2130.999974519019
 31
0.0
  0
LINE
  5
1C8
330
1F
100
AcDbEntity
  8
NoLayerName_001
  6
DOTSX
 62
     7
370
    25
100
AcDbLine
 10
3305.0
 20
2149.999974519019
 30
0.0
 11
3324.0
 21
2149.999974519019
 31
0.0
  0
LINE
  5
1C9
330
1F
100
AcDbEntity
  8
NoLayerName_001
  6
DOTSX
 62
     7
370
    25
100
AcDbLine
 10
3305.0
 20
2149.999974519021
 30
0.0
 11
3305.0
 21
2130.999974519021
 31
0.0
  0
LINE
  5
1CA
330
1F
100
AcDbEntity
  8
NoLayerName_001
  6
DOTSX
 62
     7
370
    25
100
AcDbLine
 10
3324.0
 20
2149.999974519021
 30
0.0
 11
3324.0
 21
2130.999974519021
 31
0.0
  0
LINE
  5
1CB
330
1F
100
AcDbEntity
  8
NoLayerName_001
  6
CENTER
 62
     7
370
    25
100
AcDbLine
 10
2875.0
 20
2135.999974519019
 30
0.0
 11
2875.0
 21
2109.999974519015
 31
0.0
  0
LINE
  5
1CC
330
1F
100
AcDbEntity
  8
NoLayerName_001
  6
CENTER
 62
     7
370
    25
100
AcDbLine
 10
3325.0
 20
2135.999974519019
 30
0.0
 11
3325.0
 21
2109.999974519015
 31
0.0
  0
LINE
  5
1CD
330
1F
100
AcDbEntity
  8
NoLayerName_001
  6
Continuous
 62
     7
370
    25
100
AcDbLine
 10
1329.549999999999
 20
2170.499974519015
 30
0.0
 11
1318.288786180722
 21
2170.499974519015
 31
0.0
  0
LINE
  5
1CE
330
1F
100
AcDbEntity
  8
NoLayerName_001
  6
Continuous
 62
     7
370
    25
100
AcDbLine
 10
1329.549999999999
 20
2153.199974519016
 30
0.0
 11
1318.288786180721
 21
2153.199974519016
 31
0.0
  0
LINE
  5
1CF
330
1F
100
AcDbEntity
  8
FRAME
  6
Continuous
 62
     3
370
    25
100
AcDbLine
 10
1274.288786180723
 20
2173.799971519015
 30
0.0
 11
1274.288786180722
 21
2149.899977519015
 31
0.0
  0
LINE
  5
1D0
330
1F
100
AcDbEntity
  8
FRAME
  6
Continuous
 62
     3
370
    25
100
AcDbLine
 10
1318.288786180721
 20
2173.799971519015
 30
0.0
 11
1318.288786180722
 21
2149.899977519015
 31
0.0
  0
LINE
  5
1D1
330
1F
100
AcDbEntity
  8
NoLayerName_001
  6
Continuous
 62
     7
370
    25
100
AcDbLine
 10
1318.288786180721
 20
2173.799971519014
 30
0.0
 11
1274.288786180721
 21
2149.899977519016
 31
0.0
  0
LINE
  5
1D2
330
1F
100
AcDbEntity
  8
NoLayerName_001
  6
Continuous
 62
     7
370
    25
100
AcDbLine
 10
1318.288786180723
 20
2149.899977519014
 30
0.0
 11
1274.288786180723
 21
2173.799971519016
 31
0.0
  0
LINE
  5
1D3
330
1F
100
AcDbEntity
  8
NoLayerName_001
  6
Continuous
 62
     7
370
    50
100
AcDbLine
 10
1314.300000000003
 20
2199.599974519015
 30
0.0
 11
1314.300000000003
 21
2293.199974519016
 31
0.0
  0
LINE
  5
1D4
330
1F
100
AcDbEntity
  8
NoLayerName_001
  6
Continuous
 62
     7
370
    50
100
AcDbLine
 10
1885.700000000001
 20
2199.599974519015
 30
0.0
 11
1885.700000000001
 21
2293.199974519016
 31
0.0
  0
LINE
  5
1D5
330
1F
100
AcDbEntity
  8
NoLayerName_001
  6
Continuous
 62
     7
370
    50
100
AcDbLine
 10
1270.0
 20
2990.599974519015
 30
0.0
 11
1270.0
 21
2971.999974519015
 31
0.0
  0
ARC
  5
1D6
330
1F
100
AcDbEntity
  8
NoLayerName_001
  6
Continuous
 62
     7
370
    50
100
AcDbCircle
 10
1276.400000000001
 20
2990.599974519015
 30
0.0
 40
6.4
100
AcDbArc
 50
90.0
 51
180.0
  0
LINE
  5
1D7
330
1F
100
AcDbEntity
  8
NoLayerName_001
  6
Continuous
 62
     7
370
    50
100
AcDbLine
 10
1370.0
 20
2971.999974519015
 30
0.0
 11
1370.0
 21
2996.999974519015
 31
0.0
  0
LINE
  5
1D8
330
1F
100
AcDbEntity
  8
NoLayerName_001
  6
Continuous
 62
     7
370
    50
100
AcDbLine
 10
1930.0
 20
2990.599974519015
 30
0.0
 11
1930.0
 21
2971.999974519015
 31
0.0
  0
ARC
  5
1D9
330
1F
100
AcDbEntity
  8
NoLayerName_001
  6
Continuous
 62
     7
370
    50
100
AcDbCircle
 10
1923.600000000002
 20
2990.599974519015
 30
0.0
 40
6.4
100
AcDbArc
 50
0.0
 51
90.0
  0
LINE
  5
1DA
330
1F
100
AcDbEntity
  8
NoLayerName_001
  6
Continuous
 62
     7
370
    50
100
AcDbLine
 10
1830.0
 20
2971.999974519015
 30
0.0
 11
1830.0
 21
2996.999974519015
 31
0.0
  0
LINE
  5
1DB
330
1F
100
AcDbEntity
  8
NoLayerName_001
  6
Continuous
 62
     7
370
    50
100
AcDbLine
 10
1923.600000000002
 20
2996.999974519015
 30
0.0
 11
1276.400000000002
 21
2996.999974519015
 31
0.0
  0
LINE
  5
1DC
330
1F
100
AcDbEntity
  8
NoLayerName_001
  6
Continuous
 62
     7
370
    50
100
AcDbLine
 10
1270.0
 20
2971.999974519015
 30
0.0
 11
1930.0
 21
2971.999974519015
 31
0.0
  0
LINE
  5
1DD
330
1F
100
AcDbEntity
  8
NoLayerName_001
  6
CENTER
 62
     3
370
    25
100
AcDbLine
 10
1480.000001788139
 20
3160.99991118908
 30
0.0
 11
1480.000001788139
 21
2996.999974519014
 31
0.0
  0
LINE
  5
1DE
330
1F
100
AcDbEntity
  8
NoLayerName_001
  6
CENTER
 62
     3
370
    25
100
AcDbLine
 10
1719.999998211861
 20
3160.99991118908
 30
0.0
 11
1719.999998211861
 21
2996.999974519014
 31
0.0
  0
LINE
  5
1DF
330
1F
100
AcDbEntity
  8
NoLayerName_001
  6
CENTER
 62
     1
370
    25
100
AcDbLine
 10
1600.0
 20
2109.999974519015
 30
0.0
 11
1600.0
 21
3160.99991118908
 31
0.0
  0
LINE
  5
1E0
330
1F
100
AcDbEntity
  8
NoLayerName_001
  6
Continuous
 62
     7
370
    50
100
AcDbLine
 10
2886.800000000003
 20
2199.599974519018
 30
0.0
 11
2886.800000000003
 21
2293.199974519018
 31
0.0
  0
LINE
  5
1E1
330
1F
100
AcDbEntity
  8
NoLayerName_001
  6
Continuous
 62
     7
370
    50
100
AcDbLine
 10
3313.200000000001
 20
2199.599974519018
 30
0.0
 11
3313.200000000001
 21
2293.199974519018
 31
0.0
  0
LINE
  5
1E2
330
1F
100
AcDbEntity
  8
NoLayerName_001
  6
Continuous
 62
     7
370
    50
100
AcDbLine
 10
3357.5
 20
2990.599974519019
 30
0.0
 11
3357.5
 21
2971.999974519019
 31
0.0
  0
ARC
  5
1E3
330
1F
100
AcDbEntity
  8
NoLayerName_001
  6
Continuous
 62
     7
370
    50
100
AcDbCircle
 10
3351.1
 20
2990.599974519019
 30
0.0
 40
6.4
100
AcDbArc
 50
0.0
 51
90.0
  0
LINE
  5
1E4
330
1F
100
AcDbEntity
  8
NoLayerName_001
  6
Continuous
 62
     7
370
    50
100
AcDbLine
 10
3257.5
 20
2971.999974519018
 30
0.0
 11
3257.5
 21
2996.999974519018
 31
0.0
  0
LINE
  5
1E5
330
1F
100
AcDbEntity
  8
NoLayerName_001
  6
Continuous
 62
     7
370
    50
100
AcDbLine
 10
2842.5
 20
2990.599974519019
 30
0.0
 11
2842.5
 21
2971.999974519019
 31
0.0
  0
ARC
  5
1E6
330
1F
100
AcDbEntity
  8
NoLayerName_001
  6
Continuous
 62
     7
370
    50
100
AcDbCircle
 10
2848.900000000001
 20
2990.599974519019
 30
0.0
 40
6.4
100
AcDbArc
 50
90.0
 51
180.0
  0
LINE
  5
1E7
330
1F
100
AcDbEntity
  8
NoLayerName_001
  6
Continuous
 62
     7
370
    50
100
AcDbLine
 10
2942.5
 20
2971.999974519018
 30
0.0
 11
2942.5
 21
2996.999974519018
 31
0.0
  0
LINE
  5
1E8
330
1F
100
AcDbEntity
  8
NoLayerName_001
  6
Continuous
 62
     7
370
    50
100
AcDbLine
 10
3351.1
 20
2996.999974519018
 30
0.0
 11
2848.900000000001
 21
2996.999974519018
 31
0.0
  0
LINE
  5
1E9
330
1F
100
AcDbEntity
  8
NoLayerName_001
  6
Continuous
 62
     7
370
    50
100
AcDbLine
 10
2842.5
 20
2971.999974519018
 30
0.0
 11
3357.5
 21
2971.999974519018
 31
0.0
  0
LINE
  5
1EA
330
1F
100
AcDbEntity
  8
NoLayerName_001
  6
Continuous
 62
     7
370
    25
100
AcDbLine
 10
3095.5
 20
3042.999974519017
 30
0.0
 11
3095.5
 21
2996.999974519018
 31
0.0
  0
LINE
  5
1EB
330
1F
100
AcDbEntity
  8
NoLayerName_001
  6
Continuous
 62
     7
370
    25
100
AcDbLine
 10
3104.5
 20
3042.999974519017
 30
0.0
 11
3104.5
 21
2996.999974519018
 31
0.0
  0
LINE
  5
1EC
330
1F
100
AcDbEntity
  8
NoLayerName_001
  6
Continuous
 62
     7
370
    25
100
AcDbLine
 10
3095.5
 20
3042.999974519018
 30
0.0
 11
3104.499999999998
 21
3042.999974519018
 31
0.0
  0
ARC
  5
1ED
330
1F
100
AcDbEntity
  8
NoLayerName_001
  6
Continuous
 62
     2
370
    25
100
AcDbCircle
 10
3161.000212714071
 20
3009.000096410515
 30
0.0
 40
7.199999582767473
100
AcDbArc
 50
0.0
 51
90.00160076874567
  0
ARC
  5
1EE
330
1F
100
AcDbEntity
  8
NoLayerName_001
  6
Continuous
 62
     2
370
    25
100
AcDbCircle
 10
3039.000092461703
 20
3009.000096410515
 30
0.0
 40
7.199999582767505
100
AcDbArc
 50
90.00619748605524
 51
180.0019994241367
  0
LWPOLYLINE
  5
1EF
330
1F
100
AcDbEntity
  8
NoLayerName_001
  6
Continuous
 62
     2
370
    25
100
AcDbPolyline
 90
        4
 70
     0
 43
0.0
 10
3031.80008036196
 20
3009.000096410515
 10
3031.80008036196
 20
2996.999974519018
 10
3168.200224813814
 20
2996.999974519018
 10
3168.200224813814
 20
3009.000096410515
  0
LINE
  5
1F0
330
1F
100
AcDbEntity
  8
NoLayerName_001
  6
Continuous
 62
     2
370
    25
100
AcDbLine
 10
3095.500000000002
 20
3016.200108510258
 30
0.0
 11
3039.000092461704
 21
3016.200108510258
 31
0.0
  0
LINE
  5
1F1
330
1F
100
AcDbEntity
  8
NoLayerName_001
  6
Continuous
 62
     2
370
    25
100
AcDbLine
 10
3161.000212714071
 20
3016.200108510258
 30
0.0
 11
3104.5
 21
3016.200108510258
 31
0.0
  0
LINE
  5
1F2
330
1F
100
AcDbEntity
  8
NoLayerName_001
  6
CENTER
 62
     3
370
    25
100
AcDbLine
 10
3252.500150464472
 20
3076.999973326924
 30
0.0
 11
3252.500150464472
 21
3000.000157579779
 31
0.0
  0
LINE
  5
1F3
330
1F
100
AcDbEntity
  8
NoLayerName_001
  6
Continuous
 62
     3
370
    25
100
AcDbLine
 10
3237.500150687989
 20
3087.390292996316
 30
0.0
 11
3237.500150687989
 21
3094.000095143916
 31
0.0
  0
LINE
  5
1F4
330
1F
100
AcDbEntity
  8
NoLayerName_001
  6
Continuous
 62
     3
370
    25
100
AcDbLine
 10
3202.50015120953
 20
3094.000095143915
 30
0.0
 11
3202.50015120953
 21
3087.390292996315
 31
0.0
  0
LINE
  5
1F5
330
1F
100
AcDbEntity
  8
NoLayerName_001
  6
Continuous
 62
     3
370
    25
100
AcDbLine
 10
3251.000005742038
 20
3079.590171573984
 30
0.0
 11
3237.500062765074
 21
3087.390138524084
 31
0.0
  0
LINE
  5
1F6
330
1F
100
AcDbEntity
  8
NoLayerName_001
  6
Continuous
 62
     3
370
    25
100
AcDbLine
 10
3188.999800527306
 20
3079.589915905166
 30
0.0
 11
3202.500404106888
 21
3087.390264536774
 31
0.0
  0
LINE
  5
1F7
330
1F
100
AcDbEntity
  8
NoLayerName_001
  6
Continuous
 62
     5
370
    25
100
AcDbLine
 10
3234.000089704987
 20
3127.500155679882
 30
0.0
 11
3234.000089704987
 21
3112.500155903399
 31
0.0
  0
LINE
  5
1F8
330
1F
100
AcDbEntity
  8
NoLayerName_001
  6
Continuous
 62
     5
370
    25
100
AcDbLine
 10
3229.000089779493
 20
3105.170138922781
 30
0.0
 11
3229.000089779493
 21
3103.260043736399
 31
0.0
  0
LINE
  5
1F9
330
1F
100
AcDbEntity
  8
NoLayerName_001
  6
Continuous
 62
     5
370
    25
100
AcDbLine
 10
3233.410128047703
 20
3110.410154183783
 30
0.0
 11
3229.580038303969
 21
3106.58006444005
 31
0.0
  0
LINE
  5
1FA
330
1F
100
AcDbEntity
  8
NoLayerName_001
  6
Continuous
 62
     5
370
    25
100
AcDbLine
 10
3234.000089704987
 20
3112.500155903399
 30
0.0
 11
3234.000089704987
 21
3111.820224272906
 31
0.0
  0
LINE
  5
1FB
330
1F
100
AcDbEntity
  8
NoLayerName_001
  6
Continuous
 62
     5
370
    25
100
AcDbLine
 10
3210.409992986899
 20
3106.580023979065
 30
0.0
 11
3206.579984165114
 21
3110.41003280085
 31
0.0
  0
LINE
  5
1FC
330
1F
100
AcDbEntity
  8
NoLayerName_001
  6
Continuous
 62
     5
370
    25
100
AcDbLine
 10
3211.000212118024
 20
3103.2600437364
 30
0.0
 11
3211.000212118024
 21
3105.170138922781
 31
0.0
  0
LINE
  5
1FD
330
1F
100
AcDbEntity
  8
NoLayerName_001
  6
Continuous
 62
     5
370
    25
100
AcDbLine
 10
3206.000212192532
 20
3100.000156089664
 30
0.0
 11
3234.000089704989
 21
3100.000156089664
 31
0.0
  0
LINE
  5
1FE
330
1F
100
AcDbEntity
  8
NoLayerName_001
  6
Continuous
 62
     3
370
    25
100
AcDbLine
 10
3256.500032522721
 20
3000.000073090254
 30
0.0
 11
3259.500038411528
 21
2997.000067201448
 31
0.0
  0
LINE
  5
1FF
330
1F
100
AcDbEntity
  8
NoLayerName_001
  6
Continuous
 62
     3
370
    25
100
AcDbLine
 10
3183.500134242129
 20
3000.000174242702
 30
0.0
 11
3180.499979996418
 21
2997.000019996991
 31
0.0
  0
LINE
  5
200
330
1F
100
AcDbEntity
  8
NoLayerName_001
  6
Continuous
 62
     3
370
    25
100
AcDbLine
 10
3256.500089369712
 20
3000.00015757978
 30
0.0
 11
3183.500212527808
 21
3000.00015757978
 31
0.0
  0
LINE
  5
201
330
1F
100
AcDbEntity
  8
NoLayerName_001
  6
Continuous
 62
     5
370
    25
100
AcDbLine
 10
3234.000089704987
 20
3112.500155903399
 30
0.0
 11
3234.000089704987
 21
3111.820224272906
 31
0.0
  0
LINE
  5
202
330
1F
100
AcDbEntity
  8
NoLayerName_001
  6
Continuous
 62
     5
370
    25
100
AcDbLine
 10
3234.000089704987
 20
3112.500155903399
 30
0.0
 11
3234.000089704987
 21
3111.820224272906
 31
0.0
  0
LINE
  5
203
330
1F
100
AcDbEntity
  8
NoLayerName_001
  6
Continuous
 62
     5
370
    25
100
AcDbLine
 10
3234.000089704987
 20
3112.500155903399
 30
0.0
 11
3234.000089704987
 21
3111.820224272906
 31
0.0
  0
LINE
  5
204
330
1F
100
AcDbEntity
  8
NoLayerName_001
  6
Continuous
 62
     5
370
    25
100
AcDbLine
 10
3234.000089704987
 20
3112.500155903399
 30
0.0
 11
3234.000089704987
 21
3111.820224272906
 31
0.0
  0
LINE
  5
205
330
1F
100
AcDbEntity
  8
NoLayerName_001
  6
Continuous
 62
     7
370
    25
100
AcDbLine
 10
3204.000090152023
 20
3094.000095143916
 30
0.0
 11
3202.50015120953
 21
3094.000095143916
 31
0.0
  0
LINE
  5
206
330
1F
100
AcDbEntity
  8
NoLayerName_001
  6
Continuous
 62
     5
370
    25
100
AcDbLine
 10
3234.000089704987
 20
3112.500155903399
 30
0.0
 11
3234.000089704987
 21
3111.820224272906
 31
0.0
  0
LINE
  5
207
330
1F
100
AcDbEntity
  8
NoLayerName_001
  6
Continuous
 62
     5
370
    25
100
AcDbLine
 10
3234.000089704987
 20
3112.500155903399
 30
0.0
 11
3234.000089704987
 21
3111.820224272906
 31
0.0
  0
LINE
  5
208
330
1F
100
AcDbEntity
  8
NoLayerName_001
  6
CENTER
 62
     7
370
    25
100
AcDbLine
 10
3187.500151433047
 20
3000.00015757978
 30
0.0
 11
3187.500151433047
 21
3076.999973326925
 31
0.0
  0
LINE
  5
209
330
1F
100
AcDbEntity
  8
NoLayerName_001
  6
Continuous
 62
     5
370
    25
100
AcDbLine
 10
3234.000089704987
 20
3112.500155903399
 30
0.0
 11
3234.000089704987
 21
3111.820224272906
 31
0.0
  0
LINE
  5
20A
330
1F
100
AcDbEntity
  8
NoLayerName_001
  6
Continuous
 62
     5
370
    25
100
AcDbLine
 10
3234.000089704987
 20
3112.500155903399
 30
0.0
 11
3234.000089704987
 21
3111.820224272906
 31
0.0
  0
LINE
  5
20B
330
1F
100
AcDbEntity
  8
NoLayerName_001
  6
Continuous
 62
     7
370
    25
100
AcDbLine
 10
3236.000211745497
 20
3094.000095143916
 30
0.0
 11
3237.50015068799
 21
3094.000095143916
 31
0.0
  0
LINE
  5
20C
330
1F
100
AcDbEntity
  8
NoLayerName_001
  6
Continuous
 62
     5
370
    25
100
AcDbLine
 10
3234.000089704987
 20
3112.500155903399
 30
0.0
 11
3234.000089704987
 21
3111.820224272906
 31
0.0
  0
LINE
  5
20D
330
1F
100
AcDbEntity
  8
NoLayerName_001
  6
Continuous
 62
     5
370
    25
100
AcDbLine
 10
3234.000089704987
 20
3112.500155903399
 30
0.0
 11
3234.000089704987
 21
3111.820224272906
 31
0.0
  0
LINE
  5
20E
330
1F
100
AcDbEntity
  8
NoLayerName_001
  6
Continuous
 62
     5
370
    25
100
AcDbLine
 10
3234.000089704987
 20
3112.500155903399
 30
0.0
 11
3234.000089704987
 21
3111.820224272906
 31
0.0
  0
ARC
  5
20F
330
1F
100
AcDbEntity
  8
NoLayerName_001
  6
Continuous
 62
     3
370
    25
100
AcDbCircle
 10
3249.500272579486
 20
3076.999973326926
 30
0.0
 40
3.000000074505631
100
AcDbArc
 50
0.0
 51
60.00000166965197
  0
ARC
  5
210
330
1F
100
AcDbEntity
  8
NoLayerName_001
  6
Continuous
 62
     3
370
    25
100
AcDbCircle
 10
3190.500029318033
 20
3076.999973326926
 30
0.0
 40
3.00000007450592
100
AcDbArc
 50
120.000003339308
 51
180.0010022168053
  0
CIRCLE
  5
211
330
1F
100
AcDbEntity
  8
NoLayerName_001
  6
Continuous
 62
     5
370
    25
100
AcDbCircle
 10
3220.000150948759
 20
3120.000155791641
 30
0.0
 40
4.999999925494195
  0
ARC
  5
212
330
1F
100
AcDbEntity
  8
NoLayerName_001
  6
Continuous
 62
     5
370
    25
100
AcDbCircle
 10
3232.000272840256
 20
3103.2600437364
 30
0.0
 40
3.00000007450562
100
AcDbArc
 50
180.0030002742976
 51
263.0069971062608
  0
ARC
  5
213
330
1F
100
AcDbEntity
  8
NoLayerName_001
  6
Continuous
 62
     5
370
    25
100
AcDbCircle
 10
3231.000211820001
 20
3105.170138922782
 30
0.0
 40
2.000000000000031
100
AcDbArc
 50
134.9940034355271
 51
180.0050047073652
  0
ARC
  5
214
330
1F
100
AcDbEntity
  8
NoLayerName_001
  6
Continuous
 62
     5
370
    25
100
AcDbCircle
 10
3232.000272840256
 20
3111.820224272906
 30
0.0
 40
2.000000000000163
100
AcDbArc
 50
315.0329988067343
 51
0.0193317998812843
  0
ARC
  5
215
330
1F
100
AcDbEntity
  8
NoLayerName_001
  6
Continuous
 62
     5
370
    25
100
AcDbCircle
 10
3208.000029057263
 20
3111.820224272906
 30
0.0
 40
1.999999999999892
100
AcDbArc
 50
179.9810034226844
 51
225.0060065823816
  0
ARC
  5
216
330
1F
100
AcDbEntity
  8
NoLayerName_001
  6
Continuous
 62
     5
370
    25
100
AcDbCircle
 10
3209.000090077516
 20
3105.170138922782
 30
0.0
 40
1.99999999999977
100
AcDbArc
 50
359.9670000010697
 51
44.96660162719787
  0
ARC
  5
217
330
1F
100
AcDbEntity
  8
NoLayerName_001
  6
Continuous
 62
     5
370
    25
100
AcDbCircle
 10
3208.000029057263
 20
3103.2600437364
 30
0.0
 40
3.000000074505806
100
AcDbArc
 50
277.0119994710483
 51
359.9999999999997
  0
ARC
  5
218
330
1F
100
AcDbEntity
  8
NoLayerName_001
  6
Continuous
 62
     5
370
    25
100
AcDbCircle
 10
3234.000089704987
 20
3098.000034049156
 30
0.0
 40
2.000000000000002
100
AcDbArc
 50
0.0
 51
90.00000250448173
  0
ARC
  5
219
330
1F
100
AcDbEntity
  8
NoLayerName_001
  6
Continuous
 62
     5
370
    25
100
AcDbCircle
 10
3206.00021219253
 20
3098.000034049156
 30
0.0
 40
2.000000000000008
100
AcDbArc
 50
90.00000250448173
 51
180.0000049783127
  0
ARC
  5
21A
330
1F
100
AcDbEntity
  8
NoLayerName_001
  6
Continuous
 62
     5
370
    25
100
AcDbCircle
 10
3209.000090077516
 20
3105.170138922782
 30
0.0
 40
1.99999999999977
100
AcDbArc
 50
359.9670000010697
 51
44.96660162719787
  0
ARC
  5
21B
330
1F
100
AcDbEntity
  8
NoLayerName_001
  6
Continuous
 62
     5
370
    25
100
AcDbCircle
 10
3231.000211820001
 20
3105.170138922782
 30
0.0
 40
2.000000000000031
100
AcDbArc
 50
134.9940034355271
 51
180.0050047073652
  0
ARC
  5
21C
330
1F
100
AcDbEntity
  8
NoLayerName_001
  6
Continuous
 62
     5
370
    25
100
AcDbCircle
 10
3231.000211820001
 20
3105.170138922782
 30
0.0
 40
2.000000000000031
100
AcDbArc
 50
134.9940034355271
 51
180.0050047073652
  0
ARC
  5
21D
330
1F
100
AcDbEntity
  8
NoLayerName_001
  6
Continuous
 62
     5
370
    25
100
AcDbCircle
 10
3209.000090077516
 20
3105.170138922782
 30
0.0
 40
1.99999999999977
100
AcDbArc
 50
359.9670000010697
 51
44.96660162719787
  0
ARC
  5
21E
330
1F
100
AcDbEntity
  8
NoLayerName_001
  6
Continuous
 62
     5
370
    25
100
AcDbCircle
 10
3231.000211820001
 20
3105.170138922782
 30
0.0
 40
2.000000000000031
100
AcDbArc
 50
134.9940034355271
 51
180.0050047073652
  0
ARC
  5
21F
330
1F
100
AcDbEntity
  8
NoLayerName_001
  6
Continuous
 62
     5
370
    25
100
AcDbCircle
 10
3209.000090077516
 20
3105.170138922782
 30
0.0
 40
1.99999999999977
100
AcDbArc
 50
359.9670000010697
 51
44.96660162719787
  0
ARC
  5
220
330
1F
100
AcDbEntity
  8
NoLayerName_001
  6
Continuous
 62
     5
370
    25
100
AcDbCircle
 10
3209.000090077516
 20
3105.170138922782
 30
0.0
 40
1.99999999999977
100
AcDbArc
 50
359.9670000010697
 51
44.96660162719787
  0
ARC
  5
221
330
1F
100
AcDbEntity
  8
NoLayerName_001
  6
Continuous
 62
     5
370
    25
100
AcDbCircle
 10
3231.000211820001
 20
3105.170138922782
 30
0.0
 40
2.000000000000031
100
AcDbArc
 50
134.9940034355271
 51
180.0050047073652
  0
ARC
  5
222
330
1F
100
AcDbEntity
  8
NoLayerName_001
  6
Continuous
 62
     5
370
    25
100
AcDbCircle
 10
3209.000090077516
 20
3105.170138922782
 30
0.0
 40
1.99999999999977
100
AcDbArc
 50
359.9670000010697
 51
44.96660162719787
  0
ARC
  5
223
330
1F
100
AcDbEntity
  8
NoLayerName_001
  6
Continuous
 62
     5
370
    25
100
AcDbCircle
 10
3231.000211820001
 20
3105.170138922782
 30
0.0
 40
2.000000000000031
100
AcDbArc
 50
134.9940034355271
 51
180.0050047073652
  0
ARC
  5
224
330
1F
100
AcDbEntity
  8
NoLayerName_001
  6
Continuous
 62
     5
370
    25
100
AcDbCircle
 10
3209.000090077516
 20
3105.170138922782
 30
0.0
 40
1.99999999999977
100
AcDbArc
 50
359.9670000010697
 51
44.96660162719787
  0
ARC
  5
225
330
1F
100
AcDbEntity
  8
NoLayerName_001
  6
Continuous
 62
     5
370
    25
100
AcDbCircle
 10
3231.000211820001
 20
3105.170138922782
 30
0.0
 40
2.000000000000031
100
AcDbArc
 50
134.9940034355271
 51
180.0050047073652
  0
ARC
  5
226
330
1F
100
AcDbEntity
  8
NoLayerName_001
  6
Continuous
 62
     5
370
    25
100
AcDbCircle
 10
3209.000090077516
 20
3105.170138922782
 30
0.0
 40
1.99999999999977
100
AcDbArc
 50
359.9670000010697
 51
44.96660162719787
  0
ARC
  5
227
330
1F
100
AcDbEntity
  8
NoLayerName_001
  6
Continuous
 62
     5
370
    25
100
AcDbCircle
 10
3231.000211820001
 20
3105.170138922782
 30
0.0
 40
2.000000000000031
100
AcDbArc
 50
134.9940034355271
 51
180.0050047073652
  0
ARC
  5
228
330
1F
100
AcDbEntity
  8
NoLayerName_001
  6
Continuous
 62
     5
370
    25
100
AcDbCircle
 10
3231.000211820001
 20
3105.170138922782
 30
0.0
 40
2.000000000000031
100
AcDbArc
 50
134.9940034355271
 51
180.0050047073652
  0
ARC
  5
229
330
1F
100
AcDbEntity
  8
NoLayerName_001
  6
Continuous
 62
     5
370
    25
100
AcDbCircle
 10
3209.000090077516
 20
3105.170138922782
 30
0.0
 40
1.99999999999977
100
AcDbArc
 50
359.9670000010697
 51
44.96660162719787
  0
ARC
  5
22A
330
1F
100
AcDbEntity
  8
NoLayerName_001
  6
Continuous
 62
     5
370
    25
100
AcDbCircle
 10
3209.000090077516
 20
3105.170138922782
 30
0.0
 40
1.99999999999977
100
AcDbArc
 50
359.9670000010697
 51
44.96660162719787
  0
ARC
  5
22B
330
1F
100
AcDbEntity
  8
NoLayerName_001
  6
Continuous
 62
     5
370
    25
100
AcDbCircle
 10
3209.000090077516
 20
3105.170138922782
 30
0.0
 40
1.99999999999977
100
AcDbArc
 50
359.9670000010697
 51
44.96660162719787
  0
ARC
  5
22C
330
1F
100
AcDbEntity
  8
NoLayerName_001
  6
Continuous
 62
     5
370
    25
100
AcDbCircle
 10
3231.000211820001
 20
3105.170138922782
 30
0.0
 40
2.000000000000031
100
AcDbArc
 50
134.9940034355271
 51
180.0050047073652
  0
ARC
  5
22D
330
1F
100
AcDbEntity
  8
NoLayerName_001
  6
Continuous
 62
     5
370
    25
100
AcDbCircle
 10
3231.000211820001
 20
3105.170138922782
 30
0.0
 40
2.000000000000031
100
AcDbArc
 50
134.9940034355271
 51
180.0050047073652
  0
ARC
  5
22E
330
1F
100
AcDbEntity
  8
NoLayerName_001
  6
Continuous
 62
     5
370
    25
100
AcDbCircle
 10
3209.000090077516
 20
3105.170138922782
 30
0.0
 40
1.99999999999977
100
AcDbArc
 50
359.9670000010697
 51
44.96660162719787
  0
ARC
  5
22F
330
1F
100
AcDbEntity
  8
NoLayerName_001
  6
Continuous
 62
     5
370
    25
100
AcDbCircle
 10
3231.000211820001
 20
3105.170138922782
 30
0.0
 40
2.000000000000031
100
AcDbArc
 50
134.9940034355271
 51
180.0050047073652
  0
LWPOLYLINE
  5
230
330
1F
100
AcDbEntity
  8
NoLayerName_001
  6
Continuous
 62
     5
370
    25
100
AcDbPolyline
 90
        6
 70
     1
 43
0.0
 10
3211.500090040263
 20
3115.090182720275
 10
3211.500090040263
 20
3124.900058062377
 10
3220.000150948758
 20
3129.799960333113
 10
3228.500211857254
 20
3124.900058062377
 10
3228.500211857254
 20
3115.090182720275
 10
3220.000150948758
 20
3110.20035125017
  0
LWPOLYLINE
  5
231
330
1F
100
AcDbEntity
  8
NoLayerName_001
  6
Continuous
 62
     5
370
    25
100
AcDbPolyline
 90
        6
 70
     0
 43
0.0
 10
3206.00021219253
 20
3111.820224272906
 10
3206.00021219253
 20
3129.000094622375
 10
3209.000090077516
 20
3131.999972507361
 10
3231.000211820001
 20
3131.999972507361
 10
3234.000089704987
 20
3129.000094622375
 10
3234.000089704987
 20
3127.500155679882
  0
LWPOLYLINE
  5
232
330
1F
100
AcDbEntity
  8
NoLayerName_001
  6
Continuous
 62
     5
370
    25
100
AcDbPolyline
 90
        3
 70
     0
 43
0.0
 10
3206.00021219253
 20
3100.000156089664
 10
3220.000150948758
 20
3101.720126767159
 10
3234.000089704987
 20
3100.000156089664
  0
LWPOLYLINE
  5
233
330
1F
100
AcDbEntity
  8
NoLayerName_001
  6
Continuous
 62
     5
370
    25
100
AcDbPolyline
 90
        4
 70
     0
 43
0.0
 10
3236.000211745495
 20
3098.000034049156
 10
3236.000211745495
 20
3094.000095143916
 10
3204.000090152022
 20
3094.000095143916
 10
3204.000090152022
 20
3098.000034049156
  0
LINE
  5
234
330
1F
100
AcDbEntity
  8
NoLayerName_001
  6
CENTER
 62
     3
370
    25
100
AcDbLine
 10
3220.000150948759
 20
2996.999974519018
 30
0.0
 11
3220.000150948759
 21
3141.999911412602
 31
0.0
  0
LINE
  5
235
330
1F
100
AcDbEntity
  8
NoLayerName_001
  6
CENTER
 62
     1
370
    25
100
AcDbLine
 10
3100.0
 20
3141.999911412603
 30
0.0
 11
3100.0
 21
2109.999974519015
 31
0.0
  0
LINE
  5
236
330
1F
100
AcDbEntity
  8
NoLayerName_001
  6
Continuous
 62
     7
370
    25
100
AcDbLine
 10
1455.000001788139
 20
3042.999974519014
 30
0.0
 11
1430.000000000002
 21
3042.999974519014
 31
0.0
  0
ARC
  5
237
330
1F
100
AcDbEntity
  8
NoLayerName_001
  6
DOTSX
 62
     7
370
    25
100
AcDbCircle
 10
1449.000000000004
 20
3019.999974519014
 30
0.0
 40
11.0
100
AcDbArc
 50
65.42030690448236
 51
248.6763266510466
  0
LINE
  5
238
330
1F
100
AcDbEntity
  8
NoLayerName_001
  6
Continuous
 62
     7
370
    25
100
AcDbLine
 10
1744.999998211861
 20
3042.999974519014
 30
0.0
 11
1769.999999999998
 21
3042.999974519014
 31
0.0
  0
ARC
  5
239
330
1F
100
AcDbEntity
  8
NoLayerName_001
  6
DOTSX
 62
     7
370
    25
100
AcDbCircle
 10
1751.0
 20
3019.999974519014
 30
0.0
 40
11.0
100
AcDbArc
 50
291.3236733489333
 51
114.5796930955346
  0
LINE
  5
23A
330
1F
100
AcDbEntity
  8
FRAME
  6
Continuous
 62
     7
370
    25
100
AcDbLine
 10
1269.299999999999
 20
2913.199974519016
 30
0.0
 11
1269.299999999999
 21
2293.199974519016
 31
0.0
  0
LINE
  5
23B
330
1F
100
AcDbEntity
  8
FRAME
  6
Continuous
 62
     7
370
    25
100
AcDbLine
 10
1930.700000000001
 20
2913.199974519016
 30
0.0
 11
1930.700000000001
 21
2293.199974519016
 31
0.0
  0
LINE
  5
23C
330
1F
100
AcDbEntity
  8
NoLayerName_001
  6
PHANTOM
 62
     7
370
    25
100
AcDbLine
 10
1930.700000000001
 20
2293.199974519016
 30
0.0
 11
1269.3
 21
2293.199974519016
 31
0.0
  0
LINE
  5
23D
330
1F
100
AcDbEntity
  8
NoLayerName_001
  6
PHANTOM
 62
     7
370
    25
100
AcDbLine
 10
1930.700000000001
 20
2913.199974519016
 30
0.0
 11
1269.3
 21
2913.199974519016
 31
0.0
  0
LINE
  5
23E
330
1F
100
AcDbEntity
  8
FRAME
  6
Continuous
 62
     7
370
    25
100
AcDbLine
 10
2841.799999999999
 20
2913.199974519018
 30
0.0
 11
2841.799999999999
 21
2293.199974519018
 31
0.0
  0
LINE
  5
23F
330
1F
100
AcDbEntity
  8
FRAME
  6
Continuous
 62
     7
370
    25
100
AcDbLine
 10
3358.200000000001
 20
2913.199974519018
 30
0.0
 11
3358.200000000001
 21
2293.199974519018
 31
0.0
  0
LINE
  5
240
330
1F
100
AcDbEntity
  8
NoLayerName_001
  6
PHANTOM
 62
     7
370
    25
100
AcDbLine
 10
3358.200000000001
 20
2913.199974519018
 30
0.0
 11
2841.8
 21
2913.199974519018
 31
0.0
  0
LINE
  5
241
330
1F
100
AcDbEntity
  8
NoLayerName_001
  6
PHANTOM
 62
     7
370
    25
100
AcDbLine
 10
3358.200000000001
 20
2293.199974519018
 30
0.0
 11
2841.8
 21
2293.199974519018
 31
0.0
  0
LINE
  5
242
330
1F
100
AcDbEntity
  8
NoLayerName_001
  6
Continuous
 62
     7
370
    25
100
AcDbLine
 10
1432.500000000002
 20
3000.999974519014
 30
0.0
 11
1432.500000000002
 21
2996.999974519014
 31
0.0
  0
LINE
  5
243
330
1F
100
AcDbEntity
  8
NoLayerName_001
  6
Continuous
 62
     7
370
    25
100
AcDbLine
 10
1430.0
 20
3042.999974519012
 30
0.0
 11
1430.0
 21
2996.999974519014
 31
0.0
  0
LINE
  5
244
330
1F
100
AcDbEntity
  8
NoLayerName_001
  6
Continuous
 62
     7
370
    25
100
AcDbLine
 10
1767.500000000002
 20
3000.999974519014
 30
0.0
 11
1767.500000000002
 21
2996.999974519014
 31
0.0
  0
LINE
  5
245
330
1F
100
AcDbEntity
  8
NoLayerName_001
  6
Continuous
 62
     7
370
    25
100
AcDbLine
 10
1432.500000000002
 20
3000.999974519014
 30
0.0
 11
1767.500000000002
 21
3000.999974519014
 31
0.0
  0
LINE
  5
246
330
1F
100
AcDbEntity
  8
NoLayerName_001
  6
Continuous
 62
     7
370
    25
100
AcDbLine
 10
1770.0
 20
3042.999974519012
 30
0.0
 11
1770.0
 21
2996.999974519014
 31
0.0
  0
LINE
  5
247
330
1F
100
AcDbEntity
  8
NoLayerName_001
  6
Continuous
 62
     7
370
    25
100
AcDbLine
 10
2917.500002011657
 20
2996.999974519018
 30
0.0
 11
3012.500002011657
 21
2996.999974519018
 31
0.0
  0
LINE
  5
248
330
1F
100
AcDbEntity
  8
NoLayerName_001
  6
Continuous
 62
     7
370
    25
100
AcDbLine
 10
3012.500002011657
 20
2996.999974519018
 30
0.0
 11
3012.500002011657
 21
3000.999974519018
 31
0.0
  0
LINE
  5
249
330
1F
100
AcDbEntity
  8
NoLayerName_001
  6
Continuous
 62
     7
370
    25
100
AcDbLine
 10
3012.500002011657
 20
3000.999974519018
 30
0.0
 11
2917.500002011657
 21
3000.999974519018
 31
0.0
  0
LINE
  5
24A
330
1F
100
AcDbEntity
  8
NoLayerName_001
  6
Continuous
 62
     7
370
    25
100
AcDbLine
 10
2917.500002011657
 20
3000.999974519018
 30
0.0
 11
2917.500002011657
 21
2996.999974519018
 31
0.0
  0
CIRCLE
  5
24B
330
1F
100
AcDbEntity
  8
NoLayerName_001
  6
Continuous
 62
     2
370
    25
100
AcDbCircle
 10
1530.0
 20
4530.0
 30
0.0
 40
37.99999895691873
  0
CIRCLE
  5
24C
330
1F
100
AcDbEntity
  8
NoLayerName_001
  6
Continuous
 62
     7
370
    25
100
AcDbCircle
 10
1670.0
 20
4530.0
 30
0.0
 40
38.0
  0
LINE
  5
24D
330
1F
100
AcDbEntity
  8
NoLayerName_001
  6
Continuous
 62
     7
370
    25
100
AcDbLine
 10
1515.000038146971
 20
4341.799999999999
 30
0.0
 11
1685.00003814697
 21
4341.799999999999
 31
0.0
  0
LINE
  5
24E
330
1F
100
AcDbEntity
  8
NoLayerName_001
  6
Continuous
 62
     7
370
    25
100
AcDbLine
 10
1515.000038146971
 20
4478.200000000001
 30
0.0
 11
1685.00003814697
 21
4478.200000000001
 31
0.0
  0
LINE
  5
24F
330
1F
100
AcDbEntity
  8
NoLayerName_001
  6
Continuous
 62
     7
370
    25
100
AcDbLine
 10
1708.200038146975
 20
4455.000000000004
 30
0.0
 11
1708.200038146975
 21
4365.000000000002
 31
0.0
  0
LINE
  5
250
330
1F
100
AcDbEntity
  8
NoLayerName_001
  6
Continuous
 62
     7
370
    25
100
AcDbLine
 10
1491.800038146972
 20
4455.000000000004
 30
0.0
 11
1491.800038146972
 21
4365.000000000002
 31
0.0
  0
ARC
  5
251
330
1F
100
AcDbEntity
  8
NoLayerName_001
  6
Continuous
 62
     7
370
    25
100
AcDbCircle
 10
1515.000038146973
 20
4365.0
 30
0.0
 40
23.19999999999982
100
AcDbArc
 50
180.0
 51
269.9999999999991
  0
ARC
  5
252
330
1F
100
AcDbEntity
  8
NoLayerName_001
  6
Continuous
 62
     7
370
    25
100
AcDbCircle
 10
1685.000038146973
 20
4455.0
 30
0.0
 40
23.19999999999982
100
AcDbArc
 50
0.0
 51
90.0
  0
ARC
  5
253
330
1F
100
AcDbEntity
  8
NoLayerName_001
  6
Continuous
 62
     7
370
    25
100
AcDbCircle
 10
1685.000038146973
 20
4365.0
 30
0.0
 40
23.20000000000005
100
AcDbArc
 50
269.9999999999991
 51
359.9999999999997
  0
ARC
  5
254
330
1F
100
AcDbEntity
  8
NoLayerName_001
  6
Continuous
 62
     7
370
    25
100
AcDbCircle
 10
1515.000038146973
 20
4455.0
 30
0.0
 40
23.20000000000005
100
AcDbArc
 50
90.0
 51
180.0
  0
LWPOLYLINE
  5
255
330
1F
100
AcDbEntity
  8
NoLayerName_001
  6
Continuous
 62
     3
370
    25
100
AcDbPolyline
 90
        4
 70
     0
 43
0.0
 10
1706.348997736734
 20
4291.772459868007
 10
1719.99999850988
 20
4254.999999478459
 10
1734.881468014692
 20
4291.83398330459
 10
1742.23400696763
 20
4287.734129850058
  0
CIRCLE
  5
256
330
1F
100
AcDbEntity
  8
NoLayerName_001
  6
Continuous
 62
     2
370
    25
100
AcDbCircle
 10
1480.000000000116
 20
4275.0
 30
0.0
 40
34.99999947845937
  0
CIRCLE
  5
257
330
1F
100
AcDbEntity
  8
NoLayerName_001
  6
Continuous
 62
     2
370
    25
100
AcDbCircle
 10
1599.999999999998
 20
4275.0
 30
0.0
 40
34.99999947845937
  0
LWPOLYLINE
  5
258
330
1F
100
AcDbEntity
  8
NoLayerName_001
  6
Continuous
 62
     3
370
    25
100
AcDbPolyline
 90
        7
 70
     0
 43
0.0
 10
1466.301878596929
 20
4291.893553616203
 10
1466.301878596929
 20
4263.404052087604
 10
1469.159056288729
 20
4257.689452563383
 10
1474.789915579822
 20
4254.999999478459
 10
1479.999998509998
 20
4254.999999478459
 10
1485.798826548589
 20
4257.94164982525
 10
1489.580686843798
 20
4263.067870451989
  0
LWPOLYLINE
  5
259
330
1F
100
AcDbEntity
  8
NoLayerName_001
  6
Continuous
 62
     3
370
    25
100
AcDbPolyline
 90
        5
 70
     0
 43
0.0
 10
1489.664915358167
 20
4292.313963766188
 10
1489.664915358167
 20
4259.033934965224
 10
1490.757322568452
 20
4256.849120544655
 10
1493.446775653376
 20
4255.336181114075
 10
1497.816770705445
 20
4255.336181114075
  0
LINE
  5
25A
330
1F
100
AcDbEntity
  8
NoLayerName_001
  6
CENTER
 62
     1
370
    25
100
AcDbLine
 10
1444.999999031541
 20
4274.999998509884
 30
0.0
 11
1434.999999031541
 21
4274.999998509884
 31
0.0
  0
LINE
  5
25B
330
1F
100
AcDbEntity
  8
NoLayerName_001
  6
CENTER
 62
     1
370
    25
100
AcDbLine
 10
1514.99999798846
 20
4275.000001490116
 30
0.0
 11
1524.99999798846
 21
4275.000001490116
 31
0.0
  0
LINE
  5
25C
330
1F
100
AcDbEntity
  8
NoLayerName_001
  6
CENTER
 62
     1
370
    25
100
AcDbLine
 10
1479.999997019884
 20
4309.999999478459
 30
0.0
 11
1479.999997019884
 21
4319.999999478459
 31
0.0
  0
LINE
  5
25D
330
1F
100
AcDbEntity
  8
NoLayerName_001
  6
CENTER
 62
     1
370
    25
100
AcDbLine
 10
1480.000000000116
 20
4240.000000521541
 30
0.0
 11
1480.000000000116
 21
4230.000000521541
 31
0.0
  0
LINE
  5
25E
330
1F
100
AcDbEntity
  8
NoLayerName_001
  6
CENTER
 62
     1
370
    25
100
AcDbLine
 10
1565.000000521539
 20
4274.999998509884
 30
0.0
 11
1555.000000521539
 21
4274.999998509884
 31
0.0
  0
LINE
  5
25F
330
1F
100
AcDbEntity
  8
NoLayerName_001
  6
CENTER
 62
     1
370
    25
100
AcDbLine
 10
1634.999999478458
 20
4275.000001490116
 30
0.0
 11
1644.999999478458
 21
4275.000001490116
 31
0.0
  0
LINE
  5
260
330
1F
100
AcDbEntity
  8
NoLayerName_001
  6
Continuous
 62
     7
370
    50
100
AcDbLine
 10
1270.0
 20
4567.5
 30
0.0
 11
1370.0
 21
4667.5
 31
0.0
  0
LINE
  5
261
330
1F
100
AcDbEntity
  8
NoLayerName_001
  6
Continuous
 62
     1
370
    50
100
AcDbLine
 10
1830.0
 20
4667.5
 30
0.0
 11
1370.0
 21
4667.5
 31
0.0
  0
LINE
  5
262
330
1F
100
AcDbEntity
  8
NoLayerName_001
  6
Continuous
 62
     7
370
    50
100
AcDbLine
 10
1930.0
 20
4567.5
 30
0.0
 11
1830.0
 21
4667.5
 31
0.0
  0
LINE
  5
263
330
1F
100
AcDbEntity
  8
NoLayerName_001
  6
Continuous
 62
     1
370
    50
100
AcDbLine
 10
1830.0
 20
4152.5
 30
0.0
 11
1930.0
 21
4252.5
 31
0.0
  0
LINE
  5
264
330
1F
100
AcDbEntity
  8
NoLayerName_001
  6
Continuous
 62
     1
370
    50
100
AcDbLine
 10
1830.0
 20
4152.5
 30
0.0
 11
1370.0
 21
4152.5
 31
0.0
  0
LINE
  5
265
330
1F
100
AcDbEntity
  8
NoLayerName_001
  6
Continuous
 62
     7
370
    50
100
AcDbLine
 10
1930.0
 20
4567.5
 30
0.0
 11
1930.0
 21
4252.5
 31
0.0
  0
LINE
  5
266
330
1F
100
AcDbEntity
  8
NoLayerName_001
  6
Continuous
 62
     1
370
    50
100
AcDbLine
 10
1370.0
 20
4152.5
 30
0.0
 11
1270.0
 21
4252.5
 31
0.0
  0
LINE
  5
267
330
1F
100
AcDbEntity
  8
NoLayerName_001
  6
Continuous
 62
     7
370
    50
100
AcDbLine
 10
1270.0
 20
4252.499999999998
 30
0.0
 11
1270.0
 21
4567.499999999998
 31
0.0
  0
LINE
  5
268
330
1F
100
AcDbEntity
  8
NoLayerName_001
  6
Continuous
 62
     7
370
    25
100
AcDbLine
 10
1468.0
 20
4414.500000000002
 30
0.0
 11
1430.000000000002
 21
4414.500000000002
 31
0.0
  0
LINE
  5
269
330
1F
100
AcDbEntity
  8
NoLayerName_001
  6
Continuous
 62
     7
370
    25
100
AcDbLine
 10
1468.0
 20
4405.5
 30
0.0
 11
1430.000000000002
 21
4405.5
 31
0.0
  0
LINE
  5
26A
330
1F
100
AcDbEntity
  8
NoLayerName_001
  6
Continuous
 62
     7
370
    25
100
AcDbLine
 10
1430.0
 20
4414.499999999998
 30
0.0
 11
1430.0
 21
4405.499999999998
 31
0.0
  0
LINE
  5
26B
330
1F
100
AcDbEntity
  8
NoLayerName_001
  6
Continuous
 62
     7
370
    25
100
AcDbLine
 10
1468.0
 20
4414.499999999998
 30
0.0
 11
1468.0
 21
4405.499999999998
 31
0.0
  0
LINE
  5
26C
330
1F
100
AcDbEntity
  8
NoLayerName_001
  6
Continuous
 62
     7
370
    25
100
AcDbLine
 10
1732.0
 20
4414.500000000002
 30
0.0
 11
1769.999999999998
 21
4414.500000000002
 31
0.0
  0
LINE
  5
26D
330
1F
100
AcDbEntity
  8
NoLayerName_001
  6
Continuous
 62
     7
370
    25
100
AcDbLine
 10
1732.0
 20
4405.5
 30
0.0
 11
1769.999999999998
 21
4405.5
 31
0.0
  0
LINE
  5
26E
330
1F
100
AcDbEntity
  8
NoLayerName_001
  6
Continuous
 62
     7
370
    25
100
AcDbLine
 10
1770.0
 20
4414.499999999998
 30
0.0
 11
1770.0
 21
4405.499999999998
 31
0.0
  0
LINE
  5
26F
330
1F
100
AcDbEntity
  8
NoLayerName_001
  6
Continuous
 62
     7
370
    25
100
AcDbLine
 10
1732.0
 20
4414.499999999998
 30
0.0
 11
1732.0
 21
4405.499999999998
 31
0.0
  0
CIRCLE
  5
270
330
1F
100
AcDbEntity
  8
NoLayerName_001
  6
Continuous
 62
     7
370
    25
100
AcDbCircle
 10
1350.0
 20
4517.500000000002
 30
0.0
 40
16.0
  0
CIRCLE
  5
271
330
1F
100
AcDbEntity
  8
NoLayerName_001
  6
Continuous
 62
     7
370
    25
100
AcDbCircle
 10
1350.0
 20
4352.5
 30
0.0
 40
42.0
  0
CIRCLE
  5
272
330
1F
100
AcDbEntity
  8
NoLayerName_001
  6
Continuous
 62
     7
370
    25
100
AcDbCircle
 10
1350.0
 20
4352.5
 30
0.0
 40
23.0
  0
CIRCLE
  5
273
330
1F
100
AcDbEntity
  8
NoLayerName_001
  6
Continuous
 62
     7
370
    25
100
AcDbCircle
 10
1350.0
 20
4352.5
 30
0.0
 40
9.0
  0
LINE
  5
274
330
1F
100
AcDbEntity
  8
NoLayerName_001
  6
PHANTOM
 62
     7
370
    25
100
AcDbLine
 10
1930.699999999999
 20
4437.0
 30
0.0
 11
1930.699999999999
 21
4524.0
 31
0.0
  0
LINE
  5
275
330
1F
100
AcDbEntity
  8
NoLayerName_001
  6
PHANTOM
 62
     7
370
    25
100
AcDbLine
 10
1269.300000000001
 20
4526.0
 30
0.0
 11
1269.300000000001
 21
4294.0
 31
0.0
  0
LINE
  5
276
330
1F
100
AcDbEntity
  8
NoLayerName_001
  6
PHANTOM
 62
     7
370
    25
100
AcDbLine
 10
1269.300000000001
 20
4294.0
 30
0.0
 11
1272.328137570024
 21
4259.246794608382
 31
0.0
  0
LINE
  5
277
330
1F
100
AcDbEntity
  8
NoLayerName_001
  6
PHANTOM
 62
     7
370
    25
100
AcDbLine
 10
1272.328137570024
 20
4259.246794608382
 30
0.0
 11
1286.625785256561
 21
4216.007706838439
 31
0.0
  0
LINE
  5
278
330
1F
100
AcDbEntity
  8
NoLayerName_001
  6
PHANTOM
 62
     7
370
    25
100
AcDbLine
 10
1930.699999999999
 20
4296.0
 30
0.0
 11
1930.699999999999
 21
4383.0
 31
0.0
  0
LINE
  5
279
330
1F
100
AcDbEntity
  8
NoLayerName_001
  6
PHANTOM
 62
     7
370
    25
100
AcDbLine
 10
1398.0
 20
4151.800000000001
 30
0.0
 11
1804.0
 21
4151.800000000001
 31
0.0
  0
LINE
  5
27A
330
1F
100
AcDbEntity
  8
NoLayerName_001
  6
PHANTOM
 62
     7
370
    25
100
AcDbLine
 10
1804.0
 20
4668.199999999999
 30
0.0
 11
1398.0
 21
4668.199999999999
 31
0.0
  0
LINE
  5
27B
330
1F
100
AcDbEntity
  8
NoLayerName_001
  6
PHANTOM
 62
     7
370
    25
100
AcDbLine
 10
1847.714747909567
 20
4661.451767056449
 30
0.0
 11
1833.918512013609
 21
4663.581487986389
 31
0.0
  0
LINE
  5
27C
330
1F
100
AcDbEntity
  8
NoLayerName_001
  6
PHANTOM
 62
     7
370
    25
100
AcDbLine
 10
1808.534568351839
 20
4667.5
 30
0.0
 11
1804.0
 21
4668.199999999999
 31
0.0
  0
LINE
  5
27D
330
1F
100
AcDbEntity
  8
NoLayerName_001
  6
PHANTOM
 62
     7
370
    25
100
AcDbLine
 10
1398.0
 20
4668.199999999999
 30
0.0
 11
1392.796471650288
 21
4667.5
 31
0.0
  0
LINE
  5
27E
330
1F
100
AcDbEntity
  8
NoLayerName_001
  6
PHANTOM
 62
     7
370
    25
100
AcDbLine
 10
1366.456660441319
 20
4663.956660441319
 30
0.0
 11
1355.334370454259
 21
4662.460444322624
 31
0.0
  0
LINE
  5
27F
330
1F
100
AcDbEntity
  8
NoLayerName_001
  6
PHANTOM
 62
     7
370
    25
100
AcDbLine
 10
1355.937708596235
 20
4159.446381072225
 30
0.0
 11
1364.63460172168
 21
4157.86539827832
 31
0.0
  0
LINE
  5
280
330
1F
100
AcDbEntity
  8
NoLayerName_001
  6
PHANTOM
 62
     7
370
    25
100
AcDbLine
 10
1394.149341276026
 20
4152.5
 30
0.0
 11
1398.000000000001
 21
4151.800000000001
 31
0.0
  0
LINE
  5
281
330
1F
100
AcDbEntity
  8
NoLayerName_001
  6
PHANTOM
 62
     7
370
    25
100
AcDbLine
 10
1804.0
 20
4151.800000000001
 30
0.0
 11
1808.534568351839
 21
4152.5
 31
0.0
  0
LINE
  5
282
330
1F
100
AcDbEntity
  8
NoLayerName_001
  6
PHANTOM
 62
     7
370
    25
100
AcDbLine
 10
1833.91851201361
 20
4156.41851201361
 30
0.0
 11
1847.714747909568
 21
4158.54823294355
 31
0.0
  0
LINE
  5
283
330
1F
100
AcDbEntity
  8
NoLayerName_001
  6
PHANTOM
 62
     7
370
    25
100
AcDbLine
 10
1916.647825443782
 20
4217.859889736778
 30
0.0
 11
1925.857756348583
 21
4248.357756348582
 31
0.0
  0
LINE
  5
284
330
1F
100
AcDbEntity
  8
NoLayerName_001
  6
PHANTOM
 62
     7
370
    25
100
AcDbLine
 10
1930.0
 20
4260.620048362756
 30
0.0
 11
1930.699999999999
 21
4296.0
 31
0.0
  0
ARC
  5
285
330
1F
100
AcDbEntity
  8
NoLayerName_001
  6
PHANTOM
 62
     7
370
    25
100
AcDbCircle
 10
1927.199999999999
 20
4383.0
 30
0.0
 40
3.5
100
AcDbArc
 50
0.0
 51
36.86989764581424
  0
ARC
  5
286
330
1F
100
AcDbEntity
  8
NoLayerName_001
  6
PHANTOM
 62
     7
370
    25
100
AcDbCircle
 10
1927.199999999999
 20
4437.0
 30
0.0
 40
3.5
100
AcDbArc
 50
323.1301023541857
 51
0.0
  0
LINE
  5
287
330
1F
100
AcDbEntity
  8
NoLayerName_001
  6
PHANTOM
 62
     7
370
    25
100
AcDbLine
 10
1930.699999999999
 20
4524.0
 30
0.0
 11
1930.0
 21
4559.379951637244
 31
0.0
  0
LINE
  5
288
330
1F
100
AcDbEntity
  8
NoLayerName_001
  6
PHANTOM
 62
     7
370
    25
100
AcDbLine
 10
1925.857756348583
 20
4571.642243651417
 30
0.0
 11
1916.647825443783
 21
4602.140110263222
 31
0.0
  0
LINE
  5
289
330
1F
100
AcDbEntity
  8
NoLayerName_001
  6
PHANTOM
 62
     7
370
    25
100
AcDbLine
 10
1284.878686003371
 20
4604.965763345745
 30
0.0
 11
1273.720220039715
 21
4571.220220039713
 31
0.0
  0
LINE
  5
28A
330
1F
100
AcDbEntity
  8
NoLayerName_001
  6
PHANTOM
 62
     7
370
    25
100
AcDbLine
 10
1270.0
 20
4549.451467377687
 30
0.0
 11
1269.300000000001
 21
4526.0
 31
0.0
  0
LINE
  5
28B
330
1F
100
AcDbEntity
  8
NoLayerName_001
  6
PHANTOM
 62
     7
370
    25
100
AcDbLine
 10
1847.714747909567
 20
4158.54823294355
 30
0.0
 11
1882.659982562186
 21
4178.626817778129
 31
0.0
  0
LINE
  5
28C
330
1F
100
AcDbEntity
  8
NoLayerName_001
  6
PHANTOM
 62
     7
370
    25
100
AcDbLine
 10
1903.015337809957
 20
4200.697869401552
 30
0.0
 11
1916.647825443784
 21
4217.859889736778
 31
0.0
  0
LINE
  5
28D
330
1F
100
AcDbEntity
  8
NoLayerName_001
  6
PHANTOM
 62
     7
370
    25
100
AcDbLine
 10
1296.932735280463
 20
4619.35405750803
 30
0.0
 11
1284.878686003371
 21
4604.965763345745
 31
0.0
  0
LINE
  5
28E
330
1F
100
AcDbEntity
  8
NoLayerName_001
  6
PHANTOM
 62
     7
370
    25
100
AcDbLine
 10
1355.33437045426
 20
4662.460444322624
 30
0.0
 11
1316.97968598822
 21
4641.733513671466
 31
0.0
  0
LINE
  5
28F
330
1F
100
AcDbEntity
  8
NoLayerName_001
  6
CENTER
 62
     1
370
    25
100
AcDbLine
 10
1600.0
 20
4693.500212917355
 30
0.0
 11
1600.0
 21
4309.999786560928
 31
0.0
  0
LINE
  5
290
330
1F
100
AcDbEntity
  8
NoLayerName_001
  6
CENTER
 62
     1
370
    25
100
AcDbLine
 10
1949.999890384834
 20
4410.0
 30
0.0
 11
1249.999890384834
 21
4410.0
 31
0.0
  0
LINE
  5
291
330
1F
100
AcDbEntity
  8
NoLayerName_001
  6
CENTER
 62
     1
370
    25
100
AcDbLine
 10
1600.0
 20
4239.999787604353
 30
0.0
 11
1600.0
 21
4126.499787082644
 31
0.0
  0
CIRCLE
  5
292
330
1F
100
AcDbEntity
  8
NoLayerName_001
  6
Continuous
 62
     2
370
    25
100
AcDbCircle
 10
1720.000000000116
 20
4275.0
 30
0.0
 40
34.99999947845937
  0
LINE
  5
293
330
1F
100
AcDbEntity
  8
NoLayerName_001
  6
CENTER
 62
     1
370
    25
100
AcDbLine
 10
1684.999999031541
 20
4274.999998509884
 30
0.0
 11
1674.999999031541
 21
4274.999998509884
 31
0.0
  0
LINE
  5
294
330
1F
100
AcDbEntity
  8
NoLayerName_001
  6
CENTER
 62
     1
370
    25
100
AcDbLine
 10
1754.99999798846
 20
4275.000001490116
 30
0.0
 11
1764.99999798846
 21
4275.000001490116
 31
0.0
  0
LINE
  5
295
330
1F
100
AcDbEntity
  8
NoLayerName_001
  6
CENTER
 62
     1
370
    25
100
AcDbLine
 10
1719.999997019884
 20
4309.999999478459
 30
0.0
 11
1719.999997019884
 21
4319.999999478459
 31
0.0
  0
LINE
  5
296
330
1F
100
AcDbEntity
  8
NoLayerName_001
  6
CENTER
 62
     1
370
    25
100
AcDbLine
 10
1720.000000000116
 20
4240.000000521541
 30
0.0
 11
1720.000000000116
 21
4230.000000521541
 31
0.0
  0
LINE
  5
297
330
1F
100
AcDbEntity
  8
NoLayerName_001
  6
CENTER
 62
     1
370
    25
100
AcDbLine
 10
1670.0
 20
4482.000001043081
 30
0.0
 11
1670.0
 21
4492.0
 31
0.0
  0
LINE
  5
298
330
1F
100
AcDbEntity
  8
NoLayerName_001
  6
CENTER
 62
     1
370
    25
100
AcDbLine
 10
1670.0
 20
4568.0
 30
0.0
 11
1670.0
 21
4577.999998956919
 31
0.0
  0
LINE
  5
299
330
1F
100
AcDbEntity
  8
NoLayerName_001
  6
CENTER
 62
     1
370
    25
100
AcDbLine
 10
1622.000001043081
 20
4530.0
 30
0.0
 11
1632.0
 21
4530.0
 31
0.0
  0
LINE
  5
29A
330
1F
100
AcDbEntity
  8
NoLayerName_001
  6
CENTER
 62
     1
370
    25
100
AcDbLine
 10
1708.0
 20
4530.0
 30
0.0
 11
1717.999998956919
 21
4530.0
 31
0.0
  0
LINE
  5
29B
330
1F
100
AcDbEntity
  8
NoLayerName_001
  6
CENTER
 62
     1
370
    25
100
AcDbLine
 10
1482.000001043081
 20
4530.0
 30
0.0
 11
1492.000001043081
 21
4530.0
 31
0.0
  0
LINE
  5
29C
330
1F
100
AcDbEntity
  8
NoLayerName_001
  6
CENTER
 62
     1
370
    25
100
AcDbLine
 10
1567.999998956919
 20
4530.0
 30
0.0
 11
1577.999998956919
 21
4530.0
 31
0.0
  0
LINE
  5
29D
330
1F
100
AcDbEntity
  8
NoLayerName_001
  6
CENTER
 62
     1
370
    25
100
AcDbLine
 10
1530.0
 20
4482.000001043081
 30
0.0
 11
1530.0
 21
4492.000001043081
 31
0.0
  0
LINE
  5
29E
330
1F
100
AcDbEntity
  8
NoLayerName_001
  6
CENTER
 62
     1
370
    25
100
AcDbLine
 10
1530.0
 20
4567.999998956919
 30
0.0
 11
1530.0
 21
4577.999998956919
 31
0.0
  0
LINE
  5
29F
330
1F
100
AcDbEntity
  8
NoLayerName_001
  6
PHANTOM
 62
     7
370
    25
100
AcDbLine
 10
1318.429223784524
 20
4179.716024124839
 30
0.0
 11
1355.937708596235
 21
4159.446381072225
 31
0.0
  0
LINE
  5
2A0
330
1F
100
AcDbEntity
  8
NoLayerName_001
  6
PHANTOM
 62
     7
370
    25
100
AcDbLine
 10
1286.625785256561
 20
4216.007706838439
 30
0.0
 11
1298.327166739992
 21
4202.0403739515
 31
0.0
  0
LINE
  5
2A1
330
1F
100
AcDbEntity
  8
NoLayerName_001
  6
PHANTOM
 62
     7
370
    25
100
AcDbLine
 10
1916.647825443782
 20
4602.140110263221
 30
0.0
 11
1903.015337809956
 21
4619.302130598447
 31
0.0
  0
LINE
  5
2A2
330
1F
100
AcDbEntity
  8
NoLayerName_001
  6
PHANTOM
 62
     7
370
    25
100
AcDbLine
 10
1882.659982562185
 20
4641.37318222187
 30
0.0
 11
1847.714747909567
 21
4661.451767056449
 31
0.0
  0
DIMENSION
  5
2A3
102
{ACAD_XDICTIONARY
360
2A4
102
}
330
1F
100
AcDbEntity
  8
NoLayerName_001
  6
Continuous
 62
     7
370
    25
100
AcDbDimension
  2
*D13
 10
2875.0
 20
2009.999974519015
 30
0.0
 11
3100.0
 21
2009.999974519015
 31
0.0
 70
   160
  1
\W0.8000;<>
 71
     5
 42
450.0
  3
Standard
100
AcDbAlignedDimension
 13
3325.0
 23
2109.999974519015
 33
0.0
 14
2875.0
 24
2109.999974519015
 34
0.0
 50
180.0
100
AcDbRotatedDimension
1001
ACAD
1000
DSTYLE
1002
{
1070
   347
1005
16
1070
   372
1070
    25
1070
   346
1005
16
1070
   371
1070
    25
1070
   345
1005
16
1070
   178
1070
     0
1070
   177
1070
     0
1070
   176
1070
     0
1070
    47
1040
0.0
1070
    48
1040
0.0
1070
    78
1070
     8
1070
   271
1070
     1
1070
    41
1040
30.0
1070
   342
1005
2A5
1070
    42
1040
10.0
1070
    44
1040
20.0
1070
   147
1040
20.0
1070
   140
1040
64.0
1002
}
1001
ACAD_DSTYLE_DIM_LINETYPE
1070
   380
1005
16
1001
ACAD_DSTYLE_DIM_EXT1_LINETYPE
1070
   381
1005
16
1001
ACAD_DSTYLE_DIM_EXT2_LINETYPE
1070
   382
1005
16
  0
DIMENSION
  5
2B7
102
{ACAD_XDICTIONARY
360
2B8
102
}
330
1F
100
AcDbEntity
  8
NoLayerName_001
  6
Continuous
 62
     7
370
    25
100
AcDbDimension
  2
*D14
 10
2855.0
 20
1909.999974519015
 30
0.0
 11
3100.0
 21
1909.999974519015
 31
0.0
 70
   160
  1
\W0.8000;<>
 71
     5
 42
490.0
  3
Standard
100
AcDbAlignedDimension
 13
3345.0
 23
2119.999974519019
 33
0.0
 14
2855.0
 24
2119.999974519019
 34
0.0
 50
180.0
100
AcDbRotatedDimension
1001
ACAD
1000
DSTYLE
1002
{
1070
   347
1005
16
1070
   372
1070
    25
1070
   346
1005
16
1070
   371
1070
    25
1070
   345
1005
16
1070
   178
1070
     0
1070
   177
1070
     0
1070
   176
1070
     0
1070
    47
1040
0.0
1070
    48
1040
0.0
1070
    78
1070
     8
1070
   271
1070
     1
1070
    41
1040
30.0
1070
   342
1005
2A5
1070
    42
1040
10.0
1070
    44
1040
20.0
1070
   147
1040
20.0
1070
   140
1040
64.0
1002
}
1001
ACAD_DSTYLE_DIM_LINETYPE
1070
   380
1005
16
1001
ACAD_DSTYLE_DIM_EXT1_LINETYPE
1070
   381
1005
16
1001
ACAD_DSTYLE_DIM_EXT2_LINETYPE
1070
   382
1005
16
  0
DIMENSION
  5
2C5
102
{ACAD_XDICTIONARY
360
2C6
102
}
330
1F
100
AcDbEntity
  8
NoLayerName_001
  6
Continuous
 62
     7
370
    25
100
AcDbDimension
  2
*D15
 10
1400.0
 20
2009.999974519015
 30
0.0
 11
1600.0
 21
2009.999974519015
 31
0.0
 70
   160
  1
\W0.8000;<>
 71
     5
 42
400.0
  3
Standard
100
AcDbAlignedDimension
 13
1800.0
 23
2109.999974519015
 33
0.0
 14
1400.0
 24
2109.999974519015
 34
0.0
 50
180.0
100
AcDbRotatedDimension
1001
ACAD
1000
DSTYLE
1002
{
1070
   347
1005
16
1070
   372
1070
    25
1070
   346
1005
16
1070
   371
1070
    25
1070
   345
1005
16
1070
   178
1070
     0
1070
   177
1070
     0
1070
   176
1070
     0
1070
    47
1040
0.0
1070
    48
1040
0.0
1070
    78
1070
     8
1070
   271
1070
     1
1070
    41
1040
30.0
1070
   342
1005
2A5
1070
    42
1040
10.0
1070
    44
1040
20.0
1070
   147
1040
20.0
1070
   140
1040
64.0
1002
}
1001
ACAD_DSTYLE_DIM_LINETYPE
1070
   380
1005
16
1001
ACAD_DSTYLE_DIM_EXT1_LINETYPE
1070
   381
1005
16
1001
ACAD_DSTYLE_DIM_EXT2_LINETYPE
1070
   382
1005
16
  0
DIMENSION
  5
2D3
102
{ACAD_XDICTIONARY
360
2D4
102
}
330
1F
100
AcDbEntity
  8
NoLayerName_001
  6
Continuous
 62
     7
370
    25
100
AcDbDimension
  2
*D16
 10
1375.0
 20
1909.999974519015
 30
0.0
 11
1600.0
 21
1909.999974519015
 31
0.0
 70
   160
  1
\W0.8000;<>
 71
     5
 42
450.0
  3
Standard
100
AcDbAlignedDimension
 13
1825.0
 23
2119.999974519015
 33
0.0
 14
1375.0
 24
2119.999974519015
 34
0.0
 50
180.0
100
AcDbRotatedDimension
1001
ACAD
1000
DSTYLE
1002
{
1070
   347
1005
16
1070
   372
1070
    25
1070
   346
1005
16
1070
   371
1070
    25
1070
   345
1005
16
1070
   178
1070
     0
1070
   177
1070
     0
1070
   176
1070
     0
1070
    47
1040
0.0
1070
    48
1040
0.0
1070
    78
1070
     8
1070
   271
1070
     1
1070
    41
1040
30.0
1070
   342
1005
2A5
1070
    42
1040
10.0
1070
    44
1040
20.0
1070
   147
1040
20.0
1070
   140
1040
64.0
1002
}
1001
ACAD_DSTYLE_DIM_LINETYPE
1070
   380
1005
16
1001
ACAD_DSTYLE_DIM_EXT1_LINETYPE
1070
   381
1005
16
1001
ACAD_DSTYLE_DIM_EXT2_LINETYPE
1070
   382
1005
16
  0
MTEXT
  5
2E1
102
{ACAD_REACTORS
330
2E2
102
}
330
1F
100
AcDbEntity
  8
NoLayerName_001
  6
Continuous
 62
     7
370
    25
100
AcDbMText
 10
3424.200000000001
 20
1989.999974519019
 30
0.0
 40
64.0
 41
0.0
 71
     7
 72
     5
  1
\A1;\W0.6667;\T0.7500;４－φ１５
 73
     1
 44
0.7875
1001
ACAD
1000
ACAD_MTEXT_DEFINED_HEIGHT_BEGIN
1070
    46
1040
64.0
1000
ACAD_MTEXT_DEFINED_HEIGHT_END
  0
LEADER
  5
2E2
330
1F
100
AcDbEntity
  8
NoLayerName_001
  6
Continuous
 62
     7
370
    25
100
AcDbLeader
  3
Standard
 73
     0
 74
     0
 75
     1
 40
64.0
 41
134.1019428571429
 76
     3
 10
3325.0
 20
2119.999974519019
 30
0.0
 10
3393.575000000001
 20
1989.374974519019
 30
0.0
 10
3423.575000000001
 20
1989.374974519019
 30
0.0
340
2E1
1001
ACAD
1000
DSTYLE
1002
{
1070
   140
1040
64.0
1070
    41
1040
30.0
1070
   341
1005
2A5
1002
}
  0
DIMENSION
  5
2E3
102
{ACAD_XDICTIONARY
360
2E4
102
}
330
1F
100
AcDbEntity
  8
NoLayerName_001
  6
Continuous
 62
     7
370
    25
100
AcDbDimension
  2
*D17
 10
3457.5
 20
2996.999974519018
 30
0.0
 11
3457.5
 21
3064.499972114426
 31
0.0
 70
   160
  1
\W0.8000;\T0.7500;<>
 71
     5
 42
134.9999979883423
  3
Standard
100
AcDbAlignedDimension
 13
3231.000211820001
 23
3131.999972507361
 33
0.0
 14
3351.1
 24
2996.999974519018
 34
0.0
 50
-90.0
100
AcDbRotatedDimension
1001
ACAD
1000
DSTYLE
1002
{
1070
   347
1005
16
1070
   372
1070
    25
1070
   346
1005
16
1070
   371
1070
    25
1070
   345
1005
16
1070
   178
1070
     0
1070
   177
1070
     0
1070
   176
1070
     0
1070
    47
1040
0.0
1070
    48
1040
0.0
1070
    78
1070
     8
1070
   271
1070
     1
1070
    41
1040
30.0
1070
   342
1005
2A5
1070
    42
1040
10.0
1070
    44
1040
20.0
1070
   147
1040
20.0
1070
   140
1040
64.0
1002
}
1001
ACAD_DSTYLE_DIM_LINETYPE
1070
   380
1005
16
1001
ACAD_DSTYLE_DIM_EXT1_LINETYPE
1070
   381
1005
16
1001
ACAD_DSTYLE_DIM_EXT2_LINETYPE
1070
   382
1005
16
  0
DIMENSION
  5
2F1
102
{ACAD_XDICTIONARY
360
2F2
102
}
330
1F
100
AcDbEntity
  8
NoLayerName_001
  6
Continuous
 62
     7
370
    25
100
AcDbDimension
  2
*D18
 10
2782.5
 20
2996.999974519018
 30
0.0
 11
2782.5
 21
3073.999941455286
 31
0.0
 70
   160
  1
\W0.8000;\T0.7500;<>
 71
     5
 42
153.9999366700649
  3
Standard
100
AcDbAlignedDimension
 13
2960.99975793064
 23
3150.999911189083
 33
0.0
 14
2848.900000000001
 24
2996.999974519018
 34
0.0
 50
-90.0
100
AcDbRotatedDimension
1001
ACAD
1000
DSTYLE
1002
{
1070
   347
1005
16
1070
   372
1070
    25
1070
   346
1005
16
1070
   371
1070
    25
1070
   345
1005
16
1070
   178
1070
     0
1070
   177
1070
     0
1070
   176
1070
     0
1070
    47
1040
0.0
1070
    48
1040
0.0
1070
    78
1070
     8
1070
   271
1070
     1
1070
    41
1040
30.0
1070
   342
1005
2A5
1070
    42
1040
10.0
1070
    44
1040
20.0
1070
   147
1040
20.0
1070
   140
1040
64.0
1002
}
1001
ACAD_DSTYLE_DIM_LINETYPE
1070
   380
1005
16
1001
ACAD_DSTYLE_DIM_EXT1_LINETYPE
1070
   381
1005
16
1001
ACAD_DSTYLE_DIM_EXT2_LINETYPE
1070
   382
1005
16
  0
DIMENSION
  5
2FF
102
{ACAD_XDICTIONARY
360
300
102
}
330
1F
100
AcDbEntity
  8
NoLayerName_001
  6
Continuous
 62
     7
370
    25
100
AcDbDimension
  2
*D19
 10
2662.5
 20
2119.999974519019
 30
0.0
 11
2662.5
 21
2635.499941455286
 31
0.0
 70
   160
  1
\W0.8000;<>
 71
     5
 42
1030.999936670064
  3
Standard
100
AcDbAlignedDimension
 13
2960.99975793064
 23
3150.999911189083
 33
0.0
 14
2855.0
 24
2119.999974519019
 34
0.0
 50
-90.0
100
AcDbRotatedDimension
1001
ACAD
1000
DSTYLE
1002
{
1070
   347
1005
16
1070
   372
1070
    25
1070
   346
1005
16
1070
   371
1070
    25
1070
   345
1005
16
1070
   178
1070
     0
1070
   177
1070
     0
1070
   176
1070
     0
1070
    47
1040
0.0
1070
    48
1040
0.0
1070
    78
1070
     8
1070
   271
1070
     1
1070
    41
1040
30.0
1070
   342
1005
2A5
1070
    42
1040
10.0
1070
    44
1040
20.0
1070
   147
1040
20.0
1070
   140
1040
64.0
1002
}
1001
ACAD_DSTYLE_DIM_LINETYPE
1070
   380
1005
16
1001
ACAD_DSTYLE_DIM_EXT1_LINETYPE
1070
   381
1005
16
1001
ACAD_DSTYLE_DIM_EXT2_LINETYPE
1070
   382
1005
16
  0
DIMENSION
  5
30D
102
{ACAD_XDICTIONARY
360
30E
102
}
330
1F
100
AcDbEntity
  8
NoLayerName_001
  6
Continuous
 62
     7
370
    25
100
AcDbDimension
  2
*D20
 10
3100.0
 20
3233.29337126635
 30
0.0
 11
3160.00007547438
 21
3233.29337126635
 31
0.0
 70
   160
  1
\W0.8000;\T0.7500;<>
 71
     5
 42
120.0001509487593
  3
Standard
100
AcDbAlignedDimension
 13
3220.000150948759
 23
3141.999911412603
 33
0.0
 14
3100.0
 24
3141.999911412603
 34
0.0
 50
180.0
100
AcDbRotatedDimension
1001
ACAD
1000
DSTYLE
1002
{
1070
   347
1005
16
1070
   372
1070
    25
1070
   346
1005
16
1070
   371
1070
    25
1070
   345
1005
16
1070
   178
1070
     0
1070
   177
1070
     0
1070
   176
1070
     0
1070
    47
1040
0.0
1070
    48
1040
0.0
1070
    78
1070
     8
1070
   271
1070
     1
1070
    41
1040
30.0
1070
   342
1005
2A5
1070
    42
1040
10.0
1070
    44
1040
20.0
1070
   147
1040
20.0
1070
   140
1040
64.0
1002
}
1001
ACAD_DSTYLE_DIM_LINETYPE
1070
   380
1005
16
1001
ACAD_DSTYLE_DIM_EXT1_LINETYPE
1070
   381
1005
16
1001
ACAD_DSTYLE_DIM_EXT2_LINETYPE
1070
   382
1005
16
  0
DIMENSION
  5
31B
102
{ACAD_XDICTIONARY
360
31C
102
}
330
1F
100
AcDbEntity
  8
NoLayerName_001
  6
Continuous
 62
     7
370
    25
100
AcDbDimension
  2
*D21
 10
3100.0
 20
3233.29337126635
 30
0.0
 11
3032.500001005828
 21
3233.29337126635
 31
0.0
 70
   160
  1
\W0.8000;\T0.7500;<>
 71
     5
 42
134.9999979883432
  3
Standard
100
AcDbAlignedDimension
 13
2965.000002011657
 23
3160.999911189084
 33
0.0
 14
3100.0
 24
3141.999911412603
 34
0.0
100
AcDbRotatedDimension
1001
ACAD
1000
DSTYLE
1002
{
1070
   347
1005
16
1070
   372
1070
    25
1070
   346
1005
16
1070
   371
1070
    25
1070
   345
1005
16
1070
   178
1070
     0
1070
   177
1070
     0
1070
   176
1070
     0
1070
    47
1040
0.0
1070
    48
1040
0.0
1070
    78
1070
     8
1070
   271
1070
     1
1070
    41
1040
30.0
1070
   342
1005
2A5
1070
    42
1040
10.0
1070
    44
1040
20.0
1070
   147
1040
20.0
1070
   140
1040
64.0
1002
}
1001
ACAD_DSTYLE_DIM_LINETYPE
1070
   380
1005
16
1001
ACAD_DSTYLE_DIM_EXT1_LINETYPE
1070
   381
1005
16
1001
ACAD_DSTYLE_DIM_EXT2_LINETYPE
1070
   382
1005
16
  0
DIMENSION
  5
329
102
{ACAD_XDICTIONARY
360
32A
102
}
330
1F
100
AcDbEntity
  8
NoLayerName_001
  6
Continuous
 62
     7
370
    25
100
AcDbDimension
  2
*D22
 10
1529.999892470996
 20
4727.499787082643
 30
0.0
 11
1599.999891427915
 21
4727.499787082643
 31
0.0
 70
   160
  1
\W0.8000;\T0.7500;<>
 71
     5
 42
139.9999979138374
  3
Standard
100
AcDbAlignedDimension
 13
1669.999890384834
 23
4577.99978603956
 33
0.0
 14
1529.999892470996
 24
4577.99978603956
 34
0.0
 50
180.0
100
AcDbRotatedDimension
1001
ACAD
1000
DSTYLE
1002
{
1070
   347
1005
16
1070
   372
1070
    25
1070
   346
1005
16
1070
   371
1070
    25
1070
   345
1005
16
1070
   178
1070
     0
1070
   177
1070
     0
1070
   176
1070
     0
1070
    47
1040
0.0
1070
    48
1040
0.0
1070
    78
1070
     8
1070
   271
1070
     1
1070
    41
1040
30.0
1070
   342
1005
2A5
1070
    42
1040
10.0
1070
    44
1040
20.0
1070
   147
1040
20.0
1070
   140
1040
64.0
1002
}
1001
ACAD_DSTYLE_DIM_LINETYPE
1070
   380
1005
16
1001
ACAD_DSTYLE_DIM_EXT1_LINETYPE
1070
   381
1005
16
1001
ACAD_DSTYLE_DIM_EXT2_LINETYPE
1070
   382
1005
16
  0
DIMENSION
  5
337
102
{ACAD_XDICTIONARY
360
338
102
}
330
1F
100
AcDbEntity
  8
NoLayerName_001
  6
Continuous
 62
     7
370
    25
100
AcDbDimension
  2
*D23
 10
1600.0
 20
4032.49978708264
 30
0.0
 11
1660.000000745058
 21
4032.49978708264
 31
0.0
 70
   160
  1
\W0.8000;\T0.7500;<>
 71
     5
 42
120.0000014901143
  3
Standard
100
AcDbAlignedDimension
 13
1720.000001490114
 23
4230.000000521541
 33
0.0
 14
1600.0
 24
4126.499787082644
 34
0.0
 50
180.0
100
AcDbRotatedDimension
1001
ACAD
1000
DSTYLE
1002
{
1070
   347
1005
16
1070
   372
1070
    25
1070
   346
1005
16
1070
   371
1070
    25
1070
   345
1005
16
1070
   178
1070
     0
1070
   177
1070
     0
1070
   176
1070
     0
1070
    47
1040
0.0
1070
    48
1040
0.0
1070
    78
1070
     8
1070
   271
1070
     1
1070
    41
1040
30.0
1070
   342
1005
2A5
1070
    42
1040
10.0
1070
    44
1040
20.0
1070
   147
1040
20.0
1070
   140
1040
64.0
1002
}
1001
ACAD_DSTYLE_DIM_LINETYPE
1070
   380
1005
16
1001
ACAD_DSTYLE_DIM_EXT1_LINETYPE
1070
   381
1005
16
1001
ACAD_DSTYLE_DIM_EXT2_LINETYPE
1070
   382
1005
16
  0
DIMENSION
  5
345
102
{ACAD_XDICTIONARY
360
346
102
}
330
1F
100
AcDbEntity
  8
NoLayerName_001
  6
Continuous
 62
     7
370
    25
100
AcDbDimension
  2
*D24
 10
1480.000001490114
 20
4032.49978708264
 30
0.0
 11
1540.000000745058
 21
4032.49978708264
 31
0.0
 70
   160
  1
\W0.8000;\T0.7500;<>
 71
     5
 42
119.9999985098857
  3
Standard
100
AcDbAlignedDimension
 13
1600.0
 23
4126.499787082644
 33
0.0
 14
1480.000001490114
 24
4230.000000521541
 34
0.0
 50
180.0
100
AcDbRotatedDimension
1001
ACAD
1000
DSTYLE
1002
{
1070
   347
1005
16
1070
   372
1070
    25
1070
   346
1005
16
1070
   371
1070
    25
1070
   345
1005
16
1070
   178
1070
     0
1070
   177
1070
     0
1070
   176
1070
     0
1070
    47
1040
0.0
1070
    48
1040
0.0
1070
    78
1070
     8
1070
   271
1070
     1
1070
    41
1040
30.0
1070
   342
1005
2A5
1070
    42
1040
10.0
1070
    44
1040
20.0
1070
   147
1040
20.0
1070
   140
1040
64.0
1002
}
1001
ACAD_DSTYLE_DIM_LINETYPE
1070
   380
1005
16
1001
ACAD_DSTYLE_DIM_EXT1_LINETYPE
1070
   381
1005
16
1001
ACAD_DSTYLE_DIM_EXT2_LINETYPE
1070
   382
1005
16
  0
DIMENSION
  5
353
102
{ACAD_XDICTIONARY
360
354
102
}
330
1F
100
AcDbEntity
  8
NoLayerName_001
  6
Continuous
 62
     7
370
    25
100
AcDbDimension
  2
*D25
 10
1119.999890384834
 20
4673.500212917355
 30
0.0
 11
1119.999890384834
 21
4409.999998601235
 31
0.0
 70
   160
  1
\W0.8000;５３０
 71
     5
 42
527.0004258347117
  3
Standard
100
AcDbAlignedDimension
 13
1432.499890384834
 23
4146.499787082644
 33
0.0
 14
1432.499890384834
 24
4673.500212917355
 34
0.0
 50
90.0
100
AcDbRotatedDimension
1001
ACAD
1000
DSTYLE
1002
{
1070
   347
1005
16
1070
   372
1070
    25
1070
   346
1005
16
1070
   371
1070
    25
1070
   345
1005
16
1070
   178
1070
     0
1070
   177
1070
     0
1070
   176
1070
     0
1070
    47
1040
0.0
1070
    48
1040
0.0
1070
    78
1070
     8
1070
   271
1070
     1
1070
    41
1040
30.0
1070
   342
1005
2A5
1070
    42
1040
10.0
1070
    44
1040
20.0
1070
   147
1040
20.0
1070
   140
1040
64.0
1002
}
1001
ACAD_DSTYLE_DIM_LINETYPE
1070
   380
1005
16
1001
ACAD_DSTYLE_DIM_EXT1_LINETYPE
1070
   381
1005
16
1001
ACAD_DSTYLE_DIM_EXT2_LINETYPE
1070
   382
1005
16
  0
DIMENSION
  5
361
102
{ACAD_XDICTIONARY
360
362
102
}
330
1F
100
AcDbEntity
  8
NoLayerName_001
  6
Continuous
 62
     7
370
    25
100
AcDbDimension
  2
*D26
 10
1935.999890384834
 20
4847.499787082641
 30
0.0
 11
1600.0
 21
4847.499787082641
 31
0.0
 70
   160
  1
\W0.8000;６７５
 71
     5
 42
671.9997807696691
  3
Standard
100
AcDbAlignedDimension
 13
1264.000109615165
 23
4527.499787082641
 33
0.0
 14
1935.999890384834
 24
4527.499787082641
 34
0.0
100
AcDbRotatedDimension
1001
ACAD
1000
DSTYLE
1002
{
1070
   347
1005
16
1070
   372
1070
    25
1070
   346
1005
16
1070
   371
1070
    25
1070
   345
1005
16
1070
   178
1070
     0
1070
   177
1070
     0
1070
   176
1070
     0
1070
    47
1040
0.0
1070
    48
1040
0.0
1070
    78
1070
     8
1070
   271
1070
     1
1070
    41
1040
30.0
1070
   342
1005
2A5
1070
    42
1040
10.0
1070
    44
1040
20.0
1070
   147
1040
20.0
1070
   140
1040
64.0
1002
}
1001
ACAD_DSTYLE_DIM_LINETYPE
1070
   380
1005
16
1001
ACAD_DSTYLE_DIM_EXT1_LINETYPE
1070
   381
1005
16
1001
ACAD_DSTYLE_DIM_EXT2_LINETYPE
1070
   382
1005
16
  0
MTEXT
  5
36F
330
1F
100
AcDbEntity
  8
NoLayerName_001
 62
     7
370
    25
100
AcDbMText
 10
1670.0
 20
4495.0
 30
0.0
 40
64.0
 41
0.0
 71
     8
 72
     5
  1
\A1;\W0.6510;Ｖ
 73
     1
 44
1.0
1001
ACAD
1000
ACAD_MTEXT_DEFINED_HEIGHT_BEGIN
1070
    46
1040
64.0
1000
ACAD_MTEXT_DEFINED_HEIGHT_END
  0
MTEXT
  5
370
330
1F
100
AcDbEntity
  8
NoLayerName_001
 62
     7
370
    25
100
AcDbMText
 10
1529.999996870756
 20
4495.0
 30
0.0
 40
64.0
 41
0.0
 71
     8
 72
     5
  1
\A1;\W0.6510;Ｕ
 73
     1
 44
1.0
1001
ACAD
1000
ACAD_MTEXT_DEFINED_HEIGHT_BEGIN
1070
    46
1040
64.0
1000
ACAD_MTEXT_DEFINED_HEIGHT_END
  0
MTEXT
  5
371
330
1F
100
AcDbEntity
  8
NoLayerName_001
 62
     7
370
    25
100
AcDbMText
 10
1599.999999999998
 20
4248.665991599606
 30
0.0
 40
50.0
 41
0.0
 71
     8
 72
     5
  1
\A1;\W0.7500;Ｏ
 73
     1
 44
1.0
1001
ACAD
1000
ACAD_MTEXT_DEFINED_HEIGHT_BEGIN
1070
    46
1040
50.0
1000
ACAD_MTEXT_DEFINED_HEIGHT_END
  0
INSERT
  5
372
330
1F
100
AcDbEntity
  8
NoLayerName_001
100
AcDbBlockReference
  2
JZB_0001
 10
1440.0
 20
3001.0
 30
0.0
  0
INSERT
  5
373
330
1F
100
AcDbEntity
  8
NoLayerName_001
100
AcDbBlockReference
  2
JZB_0002
 10
1560.0
 20
3001.0
 30
0.0
  0
INSERT
  5
374
330
1F
100
AcDbEntity
  8
NoLayerName_001
100
AcDbBlockReference
  2
JZB_0003
 10
1680.0
 20
3001.0
 30
0.0
  0
INSERT
  5
375
330
1F
100
AcDbEntity
  8
NoLayerName_001
100
AcDbBlockReference
  2
JZB_0004
 10
2930.0
 20
2994.63232421875
 30
0.0
  0
INSERT
  5
376
330
1F
100
AcDbEntity
  8
NoLayerName_001
100
AcDbBlockReference
  2
JZB_0005
 10
1308.0
 20
2997.0
 30
0.0
  0
INSERT
  5
377
330
1F
100
AcDbEntity
  8
NoLayerName_001
100
AcDbBlockReference
  2
JZB_0006
 10
1324.899536132812
 20
4549.5
 30
0.0
  0
INSERT
  5
378
330
1F
100
AcDbEntity
  8
NoLayerName_001
100
AcDbBlockReference
  2
JZB_0007
 10
1869.393432617188
 20
4152.529296875
 30
0.0
  0
INSERT
  5
379
330
1F
100
AcDbEntity
  8
NoLayerName_001
100
AcDbBlockReference
  2
JZB_0008
 10
1272.061401367188
 20
4154.5615234375
 30
0.0
  0
INSERT
  5
37A
330
1F
100
AcDbEntity
  8
NoLayerName_001
100
AcDbBlockReference
  2
JZB_0009
 10
1869.393432617188
 20
4606.8935546875
 30
0.0
  0
INSERT
  5
37B
330
1F
100
AcDbEntity
  8
NoLayerName_001
100
AcDbBlockReference
  2
JZB_0010
 10
1270.029052734375
 20
4606.8935546875
 30
0.0
  0
INSERT
  5
37C
330
1F
100
AcDbEntity
  8
NoLayerName_001
100
AcDbBlockReference
  2
JZB_0011
 10
1270.029052734375
 20
4152.529296875
 30
0.0
  0
POINT
  5
37D
330
1F
100
AcDbEntity
  8
NoLayerName_001
  6
Continuous
 62
     7
 60
     1
370
    50
100
AcDbPoint
 10
0.0
 20
0.0
 30
0.0
  0
ENDSEC
  0
SECTION
  2
OBJECTS
  0
DICTIONARY
  5
C
330
0
100
AcDbDictionary
281
     1
  3
ACAD_GROUP
350
D
  3
ACAD_LAYOUT
350
1A
  3
ACAD_MATERIAL
350
43
  3
ACAD_MLEADERSTYLE
350
380
  3
ACAD_MLINESTYLE
350
17
  3
ACAD_PLOTSETTINGS
350
19
  3
ACAD_PLOTSTYLENAME
350
E
  3
ACAD_SCALELIST
350
47
  3
ACAD_VISUALSTYLE
350
2A
  3
AcDbVariableDictionary
350
37E
  3
DWGPROPS
350
387
  0
DICTIONARY
  5
2A4
330
2A3
100
AcDbDictionary
280
     1
281
     1
  0
DICTIONARY
  5
2B8
330
2B7
100
AcDbDictionary
280
     1
281
     1
  0
DICTIONARY
  5
2C6
330
2C5
100
AcDbDictionary
280
     1
281
     1
  0
DICTIONARY
  5
2D4
330
2D3
100
AcDbDictionary
280
     1
281
     1
  0
DICTIONARY
  5
2E4
330
2E3
100
AcDbDictionary
280
     1
281
     1
  0
DICTIONARY
  5
2F2
330
2F1
100
AcDbDictionary
280
     1
281
     1
  0
DICTIONARY
  5
300
330
2FF
100
AcDbDictionary
280
     1
281
     1
  0
DICTIONARY
  5
30E
330
30D
100
AcDbDictionary
280
     1
281
     1
  0
DICTIONARY
  5
31C
330
31B
100
AcDbDictionary
280
     1
281
     1
  0
DICTIONARY
  5
32A
330
329
100
AcDbDictionary
280
     1
281
     1
  0
DICTIONARY
  5
338
330
337
100
AcDbDictionary
280
     1
281
     1
  0
DICTIONARY
  5
346
330
345
100
AcDbDictionary
280
     1
281
     1
  0
DICTIONARY
  5
354
330
353
100
AcDbDictionary
280
     1
281
     1
  0
DICTIONARY
  5
362
330
361
100
AcDbDictionary
280
     1
281
     1
  0
DICTIONARY
  5
D
102
{ACAD_REACTORS
330
C
102
}
330
C
100
AcDbDictionary
281
     1
  0
DICTIONARY
  5
1A
102
{ACAD_REACTORS
330
C
102
}
330
C
100
AcDbDictionary
281
     1
  3
Layout1
350
1E
  3
Model
350
22
  0
DICTIONARY
  5
43
102
{ACAD_REACTORS
330
C
102
}
330
C
100
AcDbDictionary
281
     1
  3
ByBlock
350
45
  3
ByLayer
350
44
  3
Global
350
46
  0
DICTIONARY
  5
380
102
{ACAD_REACTORS
330
C
102
}
330
C
100
AcDbDictionary
281
     1
  0
DICTIONARY
  5
17
102
{ACAD_REACTORS
330
C
102
}
330
C
100
AcDbDictionary
281
     1
  3
Standard
350
18
  0
DICTIONARY
  5
19
102
{ACAD_REACTORS
330
C
102
}
330
C
100
AcDbDictionary
281
     1
  0
ACDBDICTIONARYWDFLT
  5
E
102
{ACAD_REACTORS
330
C
102
}
330
C
100
AcDbDictionary
281
     1
  3
Normal
350
F
100
AcDbDictionaryWithDefault
340
F
  0
DICTIONARY
  5
47
102
{ACAD_REACTORS
330
C
102
}
330
C
100
AcDbDictionary
281
     1
  3
A0
350
48
  3
A1
350
49
  3
A2
350
4A
  3
A3
350
4B
  3
A4
350
4C
  3
A5
350
4D
  3
A6
350
4E
  3
A7
350
4F
  3
A8
350
50
  3
A9
350
51
  3
B0
350
52
  3
B1
350
53
  3
B2
350
54
  3
B3
350
55
  3
B4
350
56
  3
B5
350
57
  3
B6
350
58
  3
B7
350
59
  3
B8
350
5A
  3
B9
350
5B
  3
C0
350
5C
  3
C1
350
5D
  3
C2
350
5E
  3
C3
350
5F
  3
C4
350
60
  3
C5
350
61
  3
C6
350
62
  3
C7
350
63
  3
C8
350
64
  3
C9
350
65
  3
D0
350
66
  3
D1
350
67
  3
D2
350
68
  0
DICTIONARY
  5
2A
102
{ACAD_REACTORS
330
C
102
}
330
C
100
AcDbDictionary
281
     1
  3
2dWireframe
350
2F
  3
Basic
350
32
  3
Brighten
350
36
  3
ColorChange
350
3A
  3
Conceptual
350
34
  3
Dim
350
35
  3
EdgeColorOff
350
3D
  3
Facepattern
350
39
  3
Flat
350
2B
  3
FlatWithEdges
350
2C
  3
Gouraud
350
2D
  3
GouraudWithEdges
350
2E
  3
Hidden
350
31
  3
JitterOff
350
3B
  3
Linepattern
350
38
  3
OverhangOff
350
3C
  3
Realistic
350
33
  3
Shaded
350
42
  3
Shaded with edges
350
41
  3
Shades of Gray
350
3E
  3
Sketchy
350
3F
  3
Thicken
350
37
  3
Wireframe
350
30
  3
X-Ray
350
40
  0
DICTIONARY
  5
37E
102
{ACAD_REACTORS
330
C
102
}
330
C
100
AcDbDictionary
281
     1
  3
CANNOSCALE
350
38B
  3
DIMASSOC
350
385
  3
HIDETEXT
350
386
  3
MSLTSCALE
350
38C
  3
PSOLHEIGHT
350
382
  3
PSOLWIDTH
350
381
  0
XRECORD
  5
387
102
{ACAD_REACTORS
330
C
102
}
330
C
100
AcDbXrecord
280
     1
  1
DWGPROPS COOKIE
  2

  3

  4

  6
File was created by TR2_DExp
  7

  8

  9

300
=
301
=
302
=
303
=
304
=
305
=
306
=
307
=
308
=
309
=
 40
0.0
 41
2455188.375
 42
2455188.375
  1

 90
        0
  0
LAYOUT
  5
1E
102
{ACAD_REACTORS
330
1A
102
}
330
1A
100
AcDbPlotSettings
  1

  2
none_device
  4

  6

 40
0.0
 41
0.0
 42
0.0
 43
0.0
 44
0.0
 45
0.0
 46
0.0
 47
0.0
 48
0.0
 49
0.0
140
0.0
141
0.0
142
1.0
143
1.0
 70
   688
 72
     1
 73
     0
 74
     5
  7

 75
    16
147
1.0
148
0.0
149
0.0
100
AcDbLayout
  1
Layout1
 70
     0
 71
     1
 10
0.0
 20
0.0
 11
420.0
 21
297.0
 12
0.0
 22
0.0
 32
0.0
 14
1.000000000000000E+20
 24
1.000000000000000E+20
 34
1.000000000000000E+20
 15
-1.000000000000000E+20
 25
-1.000000000000000E+20
 35
-1.000000000000000E+20
146
0.0
 13
0.0
 23
0.0
 33
0.0
 16
1.0
 26
0.0
 36
0.0
 17
0.0
 27
1.0
 37
0.0
 76
     0
330
1B
  0
LAYOUT
  5
22
102
{ACAD_REACTORS
330
1A
102
}
330
1A
100
AcDbPlotSettings
  1

  2
none_device
  4
Letter_(8.50_x_11.00_Inches)
  6

 40
6.35
 41
6.35
 42
6.35000508
 43
6.35000508
 44
215.9
 45
279.4
 46
0.0
 47
0.0
 48
0.0
 49
0.0
140
0.0
141
0.0
142
1.0
143
1.0
 70
  1712
 72
     1
 73
     0
 74
     0
  7

 75
     0
147
1.0
148
0.0
149
0.0
100
AcDbLayout
  1
Model
 70
     1
 71
     0
 10
1035.999890384834
 20
1889.999974519015
 11
3477.5
 21
4931.499787082641
 12
0.0
 22
0.0
 32
0.0
 14
1035.999890384834
 24
1889.999974519015
 34
0.0
 15
3477.5
 25
4931.499787082641
 35
0.0
146
0.0
 13
0.0
 23
0.0
 33
0.0
 16
1.0
 26
0.0
 36
0.0
 17
0.0
 27
1.0
 37
0.0
 76
     0
330
1F
331
29
  0
MATERIAL
  5
45
102
{ACAD_REACTORS
330
43
102
}
102
{ACAD_XDICTIONARY
360
3BF
102
}
330
43
100
AcDbMaterial
  1
ByBlock
  0
MATERIAL
  5
44
102
{ACAD_REACTORS
330
43
102
}
102
{ACAD_XDICTIONARY
360
3BD
102
}
330
43
100
AcDbMaterial
  1
ByLayer
  0
MATERIAL
  5
46
102
{ACAD_REACTORS
330
43
102
}
102
{ACAD_XDICTIONARY
360
3C1
102
}
330
43
100
AcDbMaterial
  1
Global
  0
MLINESTYLE
  5
18
102
{ACAD_REACTORS
330
17
102
}
330
17
100
AcDbMlineStyle
  2
Standard
 70
     0
  3

 62
   256
 51
90.0
 52
90.0
 71
     2
 49
0.5
 62
   256
  6
BYLAYER
 49
-0.5
 62
   256
  6
BYLAYER
  0
ACDBPLACEHOLDER
  5
F
102
{ACAD_REACTORS
330
E
102
}
330
E
  0
SCALE
  5
48
102
{ACAD_REACTORS
330
47
102
}
330
47
100
AcDbScale
 70
     0
300
1:1
140
1.0
141
1.0
290
     1
  0
SCALE
  5
49
102
{ACAD_REACTORS
330
47
102
}
330
47
100
AcDbScale
 70
     0
300
1:2
140
1.0
141
2.0
290
     0
  0
SCALE
  5
4A
102
{ACAD_REACTORS
330
47
102
}
330
47
100
AcDbScale
 70
     0
300
1:4
140
1.0
141
4.0
290
     0
  0
SCALE
  5
4B
102
{ACAD_REACTORS
330
47
102
}
330
47
100
AcDbScale
 70
     0
300
1:5
140
1.0
141
5.0
290
     0
  0
SCALE
  5
4C
102
{ACAD_REACTORS
330
47
102
}
330
47
100
AcDbScale
 70
     0
300
1:8
140
1.0
141
8.0
290
     0
  0
SCALE
  5
4D
102
{ACAD_REACTORS
330
47
102
}
330
47
100
AcDbScale
 70
     0
300
1:10
140
1.0
141
10.0
290
     0
  0
SCALE
  5
4E
102
{ACAD_REACTORS
330
47
102
}
330
47
100
AcDbScale
 70
     0
300
1:16
140
1.0
141
16.0
290
     0
  0
SCALE
  5
4F
102
{ACAD_REACTORS
330
47
102
}
330
47
100
AcDbScale
 70
     0
300
1:20
140
1.0
141
20.0
290
     0
  0
SCALE
  5
50
102
{ACAD_REACTORS
330
47
102
}
330
47
100
AcDbScale
 70
     0
300
1:30
140
1.0
141
30.0
290
     0
  0
SCALE
  5
51
102
{ACAD_REACTORS
330
47
102
}
330
47
100
AcDbScale
 70
     0
300
1:40
140
1.0
141
40.0
290
     0
  0
SCALE
  5
52
102
{ACAD_REACTORS
330
47
102
}
330
47
100
AcDbScale
 70
     0
300
1:50
140
1.0
141
50.0
290
     0
  0
SCALE
  5
53
102
{ACAD_REACTORS
330
47
102
}
330
47
100
AcDbScale
 70
     0
300
1:100
140
1.0
141
100.0
290
     0
  0
SCALE
  5
54
102
{ACAD_REACTORS
330
47
102
}
330
47
100
AcDbScale
 70
     0
300
2:1
140
2.0
141
1.0
290
     0
  0
SCALE
  5
55
102
{ACAD_REACTORS
330
47
102
}
330
47
100
AcDbScale
 70
     0
300
4:1
140
4.0
141
1.0
290
     0
  0
SCALE
  5
56
102
{ACAD_REACTORS
330
47
102
}
330
47
100
AcDbScale
 70
     0
300
8:1
140
8.0
141
1.0
290
     0
  0
SCALE
  5
57
102
{ACAD_REACTORS
330
47
102
}
330
47
100
AcDbScale
 70
     0
300
10:1
140
10.0
141
1.0
290
     0
  0
SCALE
  5
58
102
{ACAD_REACTORS
330
47
102
}
330
47
100
AcDbScale
 70
     0
300
100:1
140
100.0
141
1.0
290
     0
  0
SCALE
  5
59
102
{ACAD_REACTORS
330
47
102
}
330
47
100
AcDbScale
 70
     0
300
1/128" = 1'-0"
140
0.0078125
141
12.0
290
     0
  0
SCALE
  5
5A
102
{ACAD_REACTORS
330
47
102
}
330
47
100
AcDbScale
 70
     0
300
1/64" = 1'-0"
140
0.015625
141
12.0
290
     0
  0
SCALE
  5
5B
102
{ACAD_REACTORS
330
47
102
}
330
47
100
AcDbScale
 70
     0
300
1/32" = 1'-0"
140
0.03125
141
12.0
290
     0
  0
SCALE
  5
5C
102
{ACAD_REACTORS
330
47
102
}
330
47
100
AcDbScale
 70
     0
300
1/16" = 1'-0"
140
0.0625
141
12.0
290
     0
  0
SCALE
  5
5D
102
{ACAD_REACTORS
330
47
102
}
330
47
100
AcDbScale
 70
     0
300
3/32" = 1'-0"
140
0.09375
141
12.0
290
     0
  0
SCALE
  5
5E
102
{ACAD_REACTORS
330
47
102
}
330
47
100
AcDbScale
 70
     0
300
1/8" = 1'-0"
140
0.125
141
12.0
290
     0
  0
SCALE
  5
5F
102
{ACAD_REACTORS
330
47
102
}
330
47
100
AcDbScale
 70
     0
300
3/16" = 1'-0"
140
0.1875
141
12.0
290
     0
  0
SCALE
  5
60
102
{ACAD_REACTORS
330
47
102
}
330
47
100
AcDbScale
 70
     0
300
1/4" = 1'-0"
140
0.25
141
12.0
290
     0
  0
SCALE
  5
61
102
{ACAD_REACTORS
330
47
102
}
330
47
100
AcDbScale
 70
     0
300
3/8" = 1'-0"
140
0.375
141
12.0
290
     0
  0
SCALE
  5
62
102
{ACAD_REACTORS
330
47
102
}
330
47
100
AcDbScale
 70
     0
300
1/2" = 1'-0"
140
0.5
141
12.0
290
     0
  0
SCALE
  5
63
102
{ACAD_REACTORS
330
47
102
}
330
47
100
AcDbScale
 70
     0
300
3/4" = 1'-0"
140
0.75
141
12.0
290
     0
  0
SCALE
  5
64
102
{ACAD_REACTORS
330
47
102
}
330
47
100
AcDbScale
 70
     0
300
1" = 1'-0"
140
1.0
141
12.0
290
     0
  0
SCALE
  5
65
102
{ACAD_REACTORS
330
47
102
}
330
47
100
AcDbScale
 70
     0
300
1-1/2" = 1'-0"
140
1.5
141
12.0
290
     0
  0
SCALE
  5
66
102
{ACAD_REACTORS
330
47
102
}
330
47
100
AcDbScale
 70
     0
300
3" = 1'-0"
140
3.0
141
12.0
290
     0
  0
SCALE
  5
67
102
{ACAD_REACTORS
330
47
102
}
330
47
100
AcDbScale
 70
     0
300
6" = 1'-0"
140
6.0
141
12.0
290
     0
  0
SCALE
  5
68
102
{ACAD_REACTORS
330
47
102
}
330
47
100
AcDbScale
 70
     0
300
1'-0" = 1'-0"
140
12.0
141
12.0
290
     0
  0
VISUALSTYLE
  5
2F
102
{ACAD_REACTORS
330
2A
102
}
102
{ACAD_XDICTIONARY
360
395
102
}
330
2A
100
AcDbVisualStyle
  2
2dWireframe
 70
     4
 71
     0
 72
     2
 73
     0
 90
        0
 40
0.6
 41
30.0
 62
     5
 63
     7
 74
     1
 91
        4
 64
     7
 65
   257
 75
     1
175
     1
 42
1.0
 92
        0
 66
   257
 43
1.0
 76
     1
 77
     6
 78
     2
 67
     7
 79
     5
170
     0
171
     0
290
     0
174
     0
 93
        1
 44
0.0
173
     0
291
     0
 45
0.0
1001
ACAD
1000
AcDbSavedByObjectVersion
1070
     0
  0
VISUALSTYLE
  5
32
102
{ACAD_REACTORS
330
2A
102
}
102
{ACAD_XDICTIONARY
360
39B
102
}
330
2A
100
AcDbVisualStyle
  2
Basic
 70
     7
 71
     1
 72
     0
 73
     1
 90
        0
 40
0.6
 41
30.0
 62
     5
 63
     7
 74
     0
 91
        4
 64
     7
 65
   257
 75
     1
175
     1
 42
1.0
 92
        8
 66
     7
 43
1.0
 76
     1
 77
     6
 78
     2
 67
     7
 79
     5
170
     0
171
     0
290
     0
174
     0
 93
        1
 44
0.0
173
     0
291
     1
 45
0.0
1001
ACAD
1000
AcDbSavedByObjectVersion
1070
     0
  0
VISUALSTYLE
  5
36
102
{ACAD_REACTORS
330
2A
102
}
102
{ACAD_XDICTIONARY
360
3A3
102
}
330
2A
100
AcDbVisualStyle
  2
Brighten
 70
    12
 71
     2
 72
     2
 73
     0
 90
        0
 40
0.6
 41
30.0
 62
     5
 63
     7
 74
     1
 91
        4
 64
     7
 65
   257
 75
     1
175
     1
 42
1.0
 92
        8
 66
     7
 43
1.0
 76
     1
 77
     6
 78
     2
 67
     7
 79
     5
170
     0
171
     0
290
     0
174
     0
 93
        1
 44
50.0
173
     0
291
     1
 45
0.0
1001
ACAD
1000
AcDbSavedByObjectVersion
1070
     0
  0
VISUALSTYLE
  5
3A
102
{ACAD_REACTORS
330
2A
102
}
102
{ACAD_XDICTIONARY
360
3AB
102
}
330
2A
100
AcDbVisualStyle
  2
ColorChange
 70
    16
 71
     2
 72
     2
 73
     3
 90
        0
 40
0.6
 41
30.0
 62
     5
 63
     8
 74
     1
 91
        4
 64
     7
 65
   257
 75
     1
175
     1
 42
1.0
 92
        8
 66
     8
 43
1.0
 76
     1
 77
     6
 78
     2
 67
     7
 79
     5
170
     0
171
     0
290
     0
174
     0
 93
        1
 44
0.0
173
     0
291
     1
 45
0.0
1001
ACAD
1000
AcDbSavedByObjectVersion
1070
     0
  0
VISUALSTYLE
  5
34
102
{ACAD_REACTORS
330
2A
102
}
102
{ACAD_XDICTIONARY
360
39F
102
}
330
2A
100
AcDbVisualStyle
  2
Conceptual
 70
     9
 71
     3
 72
     2
 73
     0
 90
        0
 40
0.6
 41
30.0
 62
     5
 63
     7
 74
     2
 91
        2
 64
     7
 65
   257
 75
     1
175
     1
 42
179.0
 92
        8
 66
     7
 43
1.0
 76
     1
 77
     6
 78
     2
 67
     7
 79
     3
170
     0
171
     0
290
     0
174
     0
 93
        1
 44
0.0
173
     0
291
     0
 45
0.0
1001
ACAD
1000
AcDbSavedByObjectVersion
1070
     0
  0
VISUALSTYLE
  5
35
102
{ACAD_REACTORS
330
2A
102
}
102
{ACAD_XDICTIONARY
360
3A1
102
}
330
2A
100
AcDbVisualStyle
  2
Dim
 70
    11
 71
     2
 72
     2
 73
     0
 90
        0
 40
0.6
 41
30.0
 62
     5
 63
     7
 74
     1
 91
        4
 64
     7
 65
   257
 75
     1
175
     1
 42
1.0
 92
        8
 66
     7
 43
1.0
 76
     1
 77
     6
 78
     2
 67
     7
 79
     5
170
     0
171
     0
290
     0
174
     0
 93
        1
 44
-50.0
173
     0
291
     1
 45
0.0
1001
ACAD
1000
AcDbSavedByObjectVersion
1070
     0
  0
VISUALSTYLE
  5
3D
102
{ACAD_REACTORS
330
2A
102
}
102
{ACAD_XDICTIONARY
360
3B1
102
}
330
2A
100
AcDbVisualStyle
  2
EdgeColorOff
 70
    22
 71
     2
 72
     2
 73
     0
 90
        0
 40
0.6
 41
30.0
 62
     5
 63
     7
 74
     1
 91
        4
 64
     7
 65
   257
 75
     1
175
     1
 42
1.0
 92
        8
 66
     7
 43
1.0
 76
     1
 77
     6
 78
     2
 67
     7
 79
     5
170
     0
171
     0
290
     0
174
     0
 93
        1
 44
0.0
173
     0
291
     1
 45
0.0
1001
ACAD
1000
AcDbSavedByObjectVersion
1070
     0
  0
VISUALSTYLE
  5
39
102
{ACAD_REACTORS
330
2A
102
}
102
{ACAD_XDICTIONARY
360
3A9
102
}
330
2A
100
AcDbVisualStyle
  2
Facepattern
 70
    15
 71
     2
 72
     2
 73
     0
 90
        0
 40
0.6
 41
30.0
 62
     5
 63
     7
 74
     1
 91
        4
 64
     7
 65
   257
 75
     1
175
     1
 42
1.0
 92
        8
 66
     7
 43
1.0
 76
     1
 77
     6
 78
     2
 67
     7
 79
     5
170
     0
171
     0
290
     0
174
     0
 93
        1
 44
0.0
173
     0
291
     1
 45
0.0
1001
ACAD
1000
AcDbSavedByObjectVersion
1070
     0
  0
VISUALSTYLE
  5
2B
102
{ACAD_REACTORS
330
2A
102
}
102
{ACAD_XDICTIONARY
360
38D
102
}
330
2A
100
AcDbVisualStyle
  2
Flat
 70
     0
 71
     2
 72
     1
 73
     1
 90
        2
 40
0.6
 41
30.0
 62
     5
 63
     7
 74
     0
 91
        0
 64
     7
 65
   257
 75
     1
175
     1
 42
1.0
 92
        8
 66
     7
 43
1.0
 76
     1
 77
     6
 78
     2
 67
     7
 79
     5
170
     0
171
     0
290
     0
174
     0
 93
       13
 44
0.0
173
     0
291
     1
 45
0.0
1001
ACAD
1000
AcDbSavedByObjectVersion
1070
     0
  0
VISUALSTYLE
  5
2C
102
{ACAD_REACTORS
330
2A
102
}
102
{ACAD_XDICTIONARY
360
38F
102
}
330
2A
100
AcDbVisualStyle
  2
FlatWithEdges
 70
     1
 71
     2
 72
     1
 73
     1
 90
        2
 40
0.6
 41
30.0
 62
     5
 63
     7
 74
     1
 91
        0
 64
     7
 65
   257
 75
     1
175
     1
 42
1.0
 92
        0
 66
   257
 43
1.0
 76
     1
 77
     6
 78
     2
 67
     7
 79
     5
170
     0
171
     0
290
     0
174
     0
 93
       13
 44
0.0
173
     0
291
     1
 45
0.0
1001
ACAD
1000
AcDbSavedByObjectVersion
1070
     0
  0
VISUALSTYLE
  5
2D
102
{ACAD_REACTORS
330
2A
102
}
102
{ACAD_XDICTIONARY
360
391
102
}
330
2A
100
AcDbVisualStyle
  2
Gouraud
 70
     2
 71
     2
 72
     2
 73
     1
 90
        2
 40
0.6
 41
30.0
 62
     5
 63
     7
 74
     0
 91
        0
 64
     7
 65
   257
 75
     1
175
     1
 42
1.0
 92
        0
 66
     7
 43
1.0
 76
     1
 77
     6
 78
     2
 67
     7
 79
     5
170
     0
171
     0
290
     0
174
     0
 93
       13
 44
0.0
173
     0
291
     1
 45
0.0
1001
ACAD
1000
AcDbSavedByObjectVersion
1070
     0
  0
VISUALSTYLE
  5
2E
102
{ACAD_REACTORS
330
2A
102
}
102
{ACAD_XDICTIONARY
360
393
102
}
330
2A
100
AcDbVisualStyle
  2
GouraudWithEdges
 70
     3
 71
     2
 72
     2
 73
     1
 90
        2
 40
0.6
 41
30.0
 62
     5
 63
     7
 74
     1
 91
        0
 64
     7
 65
   257
 75
     1
175
     1
 42
1.0
 92
        0
 66
   257
 43
1.0
 76
     1
 77
     6
 78
     2
 67
     7
 79
     5
170
     0
171
     0
290
     0
174
     0
 93
       13
 44
0.0
173
     0
291
     1
 45
0.0
1001
ACAD
1000
AcDbSavedByObjectVersion
1070
     0
  0
VISUALSTYLE
  5
31
102
{ACAD_REACTORS
330
2A
102
}
102
{ACAD_XDICTIONARY
360
399
102
}
330
2A
100
AcDbVisualStyle
  2
Hidden
 70
     6
 71
     1
 72
     2
 73
     2
 90
        0
 40
0.6
 41
30.0
 62
     5
 63
     7
 74
     2
 91
        2
 64
     7
 65
   257
 75
     2
175
     1
 42
40.0
 92
        0
 66
   257
 43
1.0
 76
     1
 77
     6
 78
     2
 67
     7
 79
     3
170
     0
171
     0
290
     0
174
     0
 93
        1
 44
0.0
173
     0
291
     0
 45
0.0
1001
ACAD
1000
AcDbSavedByObjectVersion
1070
     0
  0
VISUALSTYLE
  5
3B
102
{ACAD_REACTORS
330
2A
102
}
102
{ACAD_XDICTIONARY
360
3AD
102
}
330
2A
100
AcDbVisualStyle
  2
JitterOff
 70
    20
 71
     2
 72
     2
 73
     0
 90
        0
 40
0.6
 41
30.0
 62
     5
 63
     7
 74
     1
 91
        4
 64
     7
 65
   257
 75
     1
175
     1
 42
1.0
 92
       10
 66
     7
 43
1.0
 76
     1
 77
     6
 78
     2
 67
     7
 79
     5
170
     0
171
     0
290
     0
174
     0
 93
        1
 44
0.0
173
     0
291
     1
 45
0.0
1001
ACAD
1000
AcDbSavedByObjectVersion
1070
     0
  0
VISUALSTYLE
  5
38
102
{ACAD_REACTORS
330
2A
102
}
102
{ACAD_XDICTIONARY
360
3A7
102
}
330
2A
100
AcDbVisualStyle
  2
Linepattern
 70
    14
 71
     2
 72
     2
 73
     0
 90
        0
 40
0.6
 41
30.0
 62
     5
 63
     7
 74
     1
 91
        4
 64
     7
 65
   257
 75
     7
175
     7
 42
1.0
 92
        8
 66
     7
 43
1.0
 76
     1
 77
     6
 78
     2
 67
     7
 79
     5
170
     0
171
     0
290
     0
174
     0
 93
        1
 44
0.0
173
     0
291
     1
 45
0.0
1001
ACAD
1000
AcDbSavedByObjectVersion
1070
     0
  0
VISUALSTYLE
  5
3C
102
{ACAD_REACTORS
330
2A
102
}
102
{ACAD_XDICTIONARY
360
3AF
102
}
330
2A
100
AcDbVisualStyle
  2
OverhangOff
 70
    21
 71
     2
 72
     2
 73
     0
 90
        0
 40
0.6
 41
30.0
 62
     5
 63
     7
 74
     1
 91
        4
 64
     7
 65
   257
 75
     1
175
     1
 42
1.0
 92
        9
 66
     7
 43
1.0
 76
     1
 77
     6
 78
     2
 67
     7
 79
     5
170
     0
171
     0
290
     0
174
     0
 93
        1
 44
0.0
173
     0
291
     1
 45
0.0
1001
ACAD
1000
AcDbSavedByObjectVersion
1070
     0
  0
VISUALSTYLE
  5
33
102
{ACAD_REACTORS
330
2A
102
}
102
{ACAD_XDICTIONARY
360
39D
102
}
330
2A
100
AcDbVisualStyle
  2
Realistic
 70
     8
 71
     2
 72
     3
 73
     0
 90
        2
 40
0.6
 41
30.0
 62
     5
 63
     7
 74
     0
 91
        0
 64
     7
 65
   257
 75
     1
175
     1
 42
1.0
 92
        8
 66
   257
 43
1.0
 76
     1
 77
     6
 78
     2
 67
     7
 79
     3
170
     0
171
     0
290
     0
174
     0
 93
       13
 44
0.0
173
     0
291
     0
 45
0.0
1001
ACAD
1000
AcDbSavedByObjectVersion
1070
     0
  0
VISUALSTYLE
  5
42
102
{ACAD_REACTORS
330
2A
102
}
102
{ACAD_XDICTIONARY
360
3BB
102
}
330
2A
100
AcDbVisualStyle
  2
Shaded
 70
    27
 71
     2
 72
     2
 73
     1
 90
        2
 40
0.6
 41
30.0
 62
     5
 63
     7
 74
     0
 91
        4
 64
     7
 65
   257
 75
     1
175
     1
 42
1.0
 92
        8
 66
   257
 43
1.0
 76
     1
 77
     6
 78
     2
 67
     8
 79
     3
170
     0
171
     0
290
     0
174
     0
 93
        5
 44
0.0
173
     0
291
     0
 45
0.0
1001
ACAD
1000
AcDbSavedByObjectVersion
1070
     0
  0
VISUALSTYLE
  5
41
102
{ACAD_REACTORS
330
2A
102
}
102
{ACAD_XDICTIONARY
360
3B9
102
}
330
2A
100
AcDbVisualStyle
  2
Shaded with edges
 70
    26
 71
     2
 72
     2
 73
     1
 90
        2
 40
0.6
 41
30.0
 62
     5
 63
     7
 74
     1
 91
       10
 64
     7
 65
   257
 75
     2
175
     1
 42
1.0
 92
        8
 66
   257
 43
1.0
 76
     1
 77
     6
 78
     2
 67
     7
 79
     3
170
     0
171
     0
290
     0
174
     0
 93
        5
 44
0.0
173
     0
291
     0
 45
0.0
1001
ACAD
1000
AcDbSavedByObjectVersion
1070
     0
  0
VISUALSTYLE
  5
3E
102
{ACAD_REACTORS
330
2A
102
}
102
{ACAD_XDICTIONARY
360
3B3
102
}
330
2A
100
AcDbVisualStyle
  2
Shades of Gray
 70
    23
 71
     2
 72
     2
 73
     3
 90
        0
 40
0.6
 41
30.0
 62
     5
 63
     7
 74
     2
 91
        2
 64
     7
 65
     7
 75
     1
175
     1
 42
40.0
 92
        8
 66
     7
 43
1.0
 76
     1
 77
     6
 78
     2
 67
     7
 79
     3
170
     0
171
     0
290
     0
174
     0
 93
        1
 44
0.0
173
     0
291
     0
 45
0.0
1001
ACAD
1000
AcDbSavedByObjectVersion
1070
     0
  0
VISUALSTYLE
  5
3F
102
{ACAD_REACTORS
330
2A
102
}
102
{ACAD_XDICTIONARY
360
3B5
102
}
330
2A
100
AcDbVisualStyle
  2
Sketchy
 70
    24
 71
     1
 72
     2
 73
     2
 90
        0
 40
0.6
 41
30.0
 62
     5
 63
     7
 74
     2
 91
        2
 64
     7
 65
     7
 75
     1
175
     1
 42
40.0
 92
       11
 66
     7
 43
1.0
 76
     1
 77
     6
 78
     2
 67
     7
 79
     6
170
     0
171
     0
290
     0
174
     0
 93
        1
 44
0.0
173
     0
291
     0
 45
0.0
1001
ACAD
1000
AcDbSavedByObjectVersion
1070
     0
  0
VISUALSTYLE
  5
37
102
{ACAD_REACTORS
330
2A
102
}
102
{ACAD_XDICTIONARY
360
3A5
102
}
330
2A
100
AcDbVisualStyle
  2
Thicken
 70
    13
 71
     2
 72
     2
 73
     0
 90
        0
 40
0.6
 41
30.0
 62
     5
 63
     7
 74
     1
 91
        4
 64
     7
 65
   257
 75
     1
175
     1
 42
1.0
 92
       12
 66
     7
 43
1.0
 76
     1
 77
     6
 78
     2
 67
     7
 79
     5
170
     0
171
     0
290
     0
174
     0
 93
        1
 44
0.0
173
     0
291
     1
 45
0.0
1001
ACAD
1000
AcDbSavedByObjectVersion
1070
     0
  0
VISUALSTYLE
  5
30
102
{ACAD_REACTORS
330
2A
102
}
102
{ACAD_XDICTIONARY
360
397
102
}
330
2A
100
AcDbVisualStyle
  2
Wireframe
 70
     5
 71
     0
 72
     2
 73
     0
 90
        0
 40
0.6
 41
30.0
 62
     5
 63
     7
 74
     1
 91
        4
 64
     7
 65
   257
 75
     1
175
     1
 42
1.0
 92
        0
 66
   257
 43
1.0
 76
     1
 77
     6
 78
     2
 67
     7
 79
     3
170
     0
171
     0
290
     0
174
     0
 93
        1
 44
0.0
173
     0
291
     0
 45
0.0
1001
ACAD
1000
AcDbSavedByObjectVersion
1070
     0
  0
VISUALSTYLE
  5
40
102
{ACAD_REACTORS
330
2A
102
}
102
{ACAD_XDICTIONARY
360
3B7
102
}
330
2A
100
AcDbVisualStyle
  2
X-Ray
 70
    25
 71
     2
 72
     2
 73
     1
 90
        1
 40
0.5
 41
30.0
 62
     5
 63
     7
 74
     1
 91
        0
 64
     7
 65
   257
 75
     1
175
     1
 42
1.0
 92
        8
 66
     7
 43
1.0
 76
     1
 77
     6
 78
     2
 67
     7
 79
     3
170
     0
171
     0
290
     0
174
     0
 93
       13
 44
0.0
173
     0
291
     0
 45
0.0
1001
ACAD
1000
AcDbSavedByObjectVersion
1070
     0
  0
DICTIONARYVAR
  5
38B
102
{ACAD_REACTORS
330
37E
102
}
330
37E
100
DictionaryVariables
280
     0
  1
1:1
  0
DICTIONARYVAR
  5
385
102
{ACAD_REACTORS
330
37E
102
}
330
37E
100
DictionaryVariables
280
     0
  1
2
  0
DICTIONARYVAR
  5
386
102
{ACAD_REACTORS
330
37E
102
}
330
37E
100
DictionaryVariables
280
     0
  1
1
  0
DICTIONARYVAR
  5
38C
102
{ACAD_REACTORS
330
37E
102
}
330
37E
100
DictionaryVariables
280
     0
  1
1
  0
DICTIONARYVAR
  5
382
102
{ACAD_REACTORS
330
37E
102
}
330
37E
100
DictionaryVariables
280
     0
  1
80.000000
  0
DICTIONARYVAR
  5
381
102
{ACAD_REACTORS
330
37E
102
}
330
37E
100
DictionaryVariables
280
     0
  1
5.000000
  0
DICTIONARY
  5
3BF
330
45
100
AcDbDictionary
280
     1
281
     1
  3
ACAD_XREC_ROUNDTRIP
360
3C0
  0
DICTIONARY
  5
3BD
330
44
100
AcDbDictionary
280
     1
281
     1
  3
ACAD_XREC_ROUNDTRIP
360
3BE
  0
DICTIONARY
  5
3C1
330
46
100
AcDbDictionary
280
     1
281
     1
  3
ACAD_XREC_ROUNDTRIP
360
3C2
  0
DICTIONARY
  5
395
330
2F
100
AcDbDictionary
280
     1
281
     1
  3
ACAD_XREC_ROUNDTRIP
360
396
  0
DICTIONARY
  5
39B
330
32
100
AcDbDictionary
280
     1
281
     1
  3
ACAD_XREC_ROUNDTRIP
360
39C
  0
DICTIONARY
  5
3A3
330
36
100
AcDbDictionary
280
     1
281
     1
  3
ACAD_XREC_ROUNDTRIP
360
3A4
  0
DICTIONARY
  5
3AB
330
3A
100
AcDbDictionary
280
     1
281
     1
  3
ACAD_XREC_ROUNDTRIP
360
3AC
  0
DICTIONARY
  5
39F
330
34
100
AcDbDictionary
280
     1
281
     1
  3
ACAD_XREC_ROUNDTRIP
360
3A0
  0
DICTIONARY
  5
3A1
330
35
100
AcDbDictionary
280
     1
281
     1
  3
ACAD_XREC_ROUNDTRIP
360
3A2
  0
DICTIONARY
  5
3B1
330
3D
100
AcDbDictionary
280
     1
281
     1
  3
ACAD_XREC_ROUNDTRIP
360
3B2
  0
DICTIONARY
  5
3A9
330
39
100
AcDbDictionary
280
     1
281
     1
  3
ACAD_XREC_ROUNDTRIP
360
3AA
  0
DICTIONARY
  5
38D
330
2B
100
AcDbDictionary
280
     1
281
     1
  3
ACAD_XREC_ROUNDTRIP
360
38E
  0
DICTIONARY
  5
38F
330
2C
100
AcDbDictionary
280
     1
281
     1
  3
ACAD_XREC_ROUNDTRIP
360
390
  0
DICTIONARY
  5
391
330
2D
100
AcDbDictionary
280
     1
281
     1
  3
ACAD_XREC_ROUNDTRIP
360
392
  0
DICTIONARY
  5
393
330
2E
100
AcDbDictionary
280
     1
281
     1
  3
ACAD_XREC_ROUNDTRIP
360
394
  0
DICTIONARY
  5
399
330
31
100
AcDbDictionary
280
     1
281
     1
  3
ACAD_XREC_ROUNDTRIP
360
39A
  0
DICTIONARY
  5
3AD
330
3B
100
AcDbDictionary
280
     1
281
     1
  3
ACAD_XREC_ROUNDTRIP
360
3AE
  0
DICTIONARY
  5
3A7
330
38
100
AcDbDictionary
280
     1
281
     1
  3
ACAD_XREC_ROUNDTRIP
360
3A8
  0
DICTIONARY
  5
3AF
330
3C
100
AcDbDictionary
280
     1
281
     1
  3
ACAD_XREC_ROUNDTRIP
360
3B0
  0
DICTIONARY
  5
39D
330
33
100
AcDbDictionary
280
     1
281
     1
  3
ACAD_XREC_ROUNDTRIP
360
39E
  0
DICTIONARY
  5
3BB
330
42
100
AcDbDictionary
280
     1
281
     1
  3
ACAD_XREC_ROUNDTRIP
360
3BC
  0
DICTIONARY
  5
3B9
330
41
100
AcDbDictionary
280
     1
281
     1
  3
ACAD_XREC_ROUNDTRIP
360
3BA
  0
DICTIONARY
  5
3B3
330
3E
100
AcDbDictionary
280
     1
281
     1
  3
ACAD_XREC_ROUNDTRIP
360
3B4
  0
DICTIONARY
  5
3B5
330
3F
100
AcDbDictionary
280
     1
281
     1
  3
ACAD_XREC_ROUNDTRIP
360
3B6
  0
DICTIONARY
  5
3A5
330
37
100
AcDbDictionary
280
     1
281
     1
  3
ACAD_XREC_ROUNDTRIP
360
3A6
  0
DICTIONARY
  5
397
330
30
100
AcDbDictionary
280
     1
281
     1
  3
ACAD_XREC_ROUNDTRIP
360
398
  0
DICTIONARY
  5
3B7
330
40
100
AcDbDictionary
280
     1
281
     1
  3
ACAD_XREC_ROUNDTRIP
360
3B8
  0
XRECORD
  5
3C0
102
{ACAD_REACTORS
330
3BF
102
}
330
3BF
100
AcDbXrecord
280
     1
102
MATERIAL
148
0.0
149
0.0
149
0.0
 93
        0
 94
      127
282
     0
 72
     1
 77
     1
171
     1
175
     1
179
     1
273
     0
  0
XRECORD
  5
3BE
102
{ACAD_REACTORS
330
3BD
102
}
330
3BD
100
AcDbXrecord
280
     1
102
MATERIAL
148
0.0
149
0.0
149
0.0
 93
        0
 94
      127
282
     0
 72
     1
 77
     1
171
     1
175
     1
179
     1
273
     0
  0
XRECORD
  5
3C2
102
{ACAD_REACTORS
330
3C1
102
}
330
3C1
100
AcDbXrecord
280
     1
102
MATERIAL
148
0.0
149
0.0
149
0.0
 93
        0
 94
      127
282
     0
 72
     1
 77
     1
171
     1
175
     1
179
     1
273
     0
  0
XRECORD
  5
396
102
{ACAD_REACTORS
330
395
102
}
330
395
100
AcDbXrecord
280
     1
102
RTVSPropertyOp0
 70
     1
102
RTVSPropertyOp1
 70
     1
102
RTVSPropertyOp2
 70
     1
102
RTVSPropertyOp3
 70
     1
102
RTVSPropertyOp4
 70
     1
102
RTVSPropertyOp5
 70
     1
102
RTVSPropertyOp6
 70
     1
102
RTVSPropertyOp7
 70
     1
102
RTVSPropertyOp8
 70
     1
102
RTVSPropertyOp9
 70
     1
102
RTVSPropertyOp10
 70
     1
102
RTVSPropertyOp11
 70
     1
102
RTVSPropertyOp12
 70
     1
102
RTVSPropertyOp13
 70
     1
102
RTVSPropertyOp14
 70
     1
102
RTVSPropertyOp15
 70
     1
102
RTVSPropertyOp16
 70
     1
102
RTVSPropertyOp17
 70
     1
102
RTVSPropertyOp18
 70
     1
102
RTVSPropertyOp19
 70
     1
102
RTVSPropertyOp20
 70
     1
102
RTVSPropertyOp21
 70
     1
102
RTVSPropertyOp22
 70
     1
102
RTVSPropertyOp23
 70
     1
102
RTVSPropertyOp24
 70
     1
102
RTVSPropertyOp25
 70
     1
102
RTVSPropertyOp26
 70
     1
102
RTVSPropertyOp27
 70
     1
102
RTVSPropertyOp28
 70
     1
102
RTVSPropertyOp29
 70
     1
102
RTVSPropertyOp30
 70
     1
102
RTVSPropertyOp31
 70
     1
102
RTVSPropertyOp32
 70
     1
102
RTVSPropertyOp33
 70
     1
102
RTVSPropertyOp34
 70
     1
102
RTVSPropertyOp35
 70
     1
102
RTVSPropertyOp36
 70
     1
102
RTVSPropertyOp37
 70
     1
102
RTVSPropertyOp38
 70
     1
102
RTVSPropertyOp39
 70
     1
102
RTVSPropertyOp40
 70
     1
102
RTVSPropertyOp41
 70
     1
102
RTVSPropertyOp42
 70
     1
102
RTVSPropertyOp43
 70
     1
102
RTVSPropertyOp44
 70
     1
102
RTVSPropertyOp45
 70
     1
102
RTVSPropertyOp46
 70
     1
102
RTVSPropertyOp47
 70
     1
102
RTVSPropertyOp48
 70
     1
102
RTVSPropertyOp49
 70
     1
102
RTVSPropertyOp50
 70
     1
102
RTVSPropertyOp51
 70
     0
102
RTVSPropertyOp52
 70
     0
102
RTVSPropertyOp53
 70
     1
102
RTVSPropertyOp54
 70
     1
102
RTVSPropertyOp55
 70
     1
102
RTVSPropertyOp56
 70
     1
102
RTVSPropertyOp57
 70
     1
102
RTVSPost2010Prop28
280
     1
102
RTVSPost2010PropOp28
 70
     1
102
RTVSPost2010Prop29
280
     1
102
RTVSPost2010PropOp29
 70
     1
102
RTVSPost2010Prop30
280
     0
102
RTVSPost2010PropOp30
 70
     1
102
RTVSPost2010Prop31
280
     0
102
RTVSPost2010PropOp31
 70
     1
102
RTVSPost2010Prop32
280
     0
102
RTVSPost2010PropOp32
 70
     1
102
RTVSPost2010Prop33
280
     0
102
RTVSPost2010PropOp33
 70
     1
102
RTVSPost2010Prop34
280
     0
102
RTVSPost2010PropOp34
 70
     1
102
RTVSPost2010Prop35
280
     0
102
RTVSPost2010PropOp35
 70
     1
102
RTVSPost2010Prop36
280
     0
102
RTVSPost2010PropOp36
 70
     1
102
RTVSPost2010Prop37
 90
       50
102
RTVSPost2010PropOp37
 70
     1
102
RTVSPost2010Prop38
140
0.0
102
RTVSPost2010PropOp38
 70
     1
102
RTVSPost2010Prop39
140
1.0
102
RTVSPost2010PropOp39
 70
     1
102
RTVSPost2010Prop40
 90
        0
102
RTVSPost2010PropOp40
 70
     1
102
RTVSPost2010Prop41ColorIndex
 90
       18
102
RTVSPost2010Prop41ColorRGB
 90
        0
102
RTVSPost2010PropOp41
 70
     1
102
RTVSPost2010Prop42
 90
       50
102
RTVSPost2010PropOp42
 70
     1
102
RTVSPost2010Prop43
 90
        3
102
RTVSPost2010PropOp43
 70
     1
102
RTVSPost2010Prop44ColorIndex
 90
        5
102
RTVSPost2010Prop44ColorRGB
 90
      255
102
RTVSPost2010PropOp44
 70
     1
102
RTVSPost2010Prop45
280
     0
102
RTVSPost2010PropOp45
 70
     1
102
RTVSPost2010Prop46
 90
       50
102
RTVSPost2010PropOp46
 70
     1
102
RTVSPost2010Prop47
 90
       50
102
RTVSPost2010PropOp47
 70
     1
102
RTVSPost2010Prop48
 90
       50
102
RTVSPost2010PropOp48
 70
     1
102
RTVSPost2010Prop49
280
     0
102
RTVSPost2010PropOp49
 70
     1
102
RTVSPost2010Prop50
 90
       50
102
RTVSPost2010PropOp50
 70
     1
102
RTVSPost2010Prop51ColorIndex
 90
      256
102
RTVSPost2010Prop51ColorRGB
 90
-16777216
102
RTVSPost2010PropOp51
 70
     0
102
RTVSPost2010Prop52
140
1.0
102
RTVSPost2010PropOp52
 70
     0
102
RTVSPost2010Prop53
 90
        2
102
RTVSPost2010PropOp53
 70
     1
102
RTVSPost2010Prop54
  1
strokes_ogs.tif
102
RTVSPost2010PropOp54
 70
     1
102
RTVSPost2010Prop55
280
     0
102
RTVSPost2010PropOp55
 70
     1
102
RTVSPost2010Prop56
140
1.0
102
RTVSPost2010PropOp56
 70
     1
102
RTVSPost2010Prop57
140
1.0
102
RTVSPost2010PropOp57
 70
     1
  0
XRECORD
  5
39C
102
{ACAD_REACTORS
330
39B
102
}
330
39B
100
AcDbXrecord
280
     1
102
RTVSPropertyOp0
 70
     1
102
RTVSPropertyOp1
 70
     1
102
RTVSPropertyOp2
 70
     1
102
RTVSPropertyOp3
 70
     1
102
RTVSPropertyOp4
 70
     1
102
RTVSPropertyOp5
 70
     1
102
RTVSPropertyOp6
 70
     1
102
RTVSPropertyOp7
 70
     1
102
RTVSPropertyOp8
 70
     1
102
RTVSPropertyOp9
 70
     1
102
RTVSPropertyOp10
 70
     1
102
RTVSPropertyOp11
 70
     1
102
RTVSPropertyOp12
 70
     1
102
RTVSPropertyOp13
 70
     1
102
RTVSPropertyOp14
 70
     1
102
RTVSPropertyOp15
 70
     1
102
RTVSPropertyOp16
 70
     1
102
RTVSPropertyOp17
 70
     1
102
RTVSPropertyOp18
 70
     1
102
RTVSPropertyOp19
 70
     1
102
RTVSPropertyOp20
 70
     1
102
RTVSPropertyOp21
 70
     1
102
RTVSPropertyOp22
 70
     1
102
RTVSPropertyOp23
 70
     1
102
RTVSPropertyOp24
 70
     1
102
RTVSPropertyOp25
 70
     1
102
RTVSPropertyOp26
 70
     1
102
RTVSPropertyOp27
 70
     1
102
RTVSPropertyOp28
 70
     1
102
RTVSPropertyOp29
 70
     1
102
RTVSPropertyOp30
 70
     1
102
RTVSPropertyOp31
 70
     1
102
RTVSPropertyOp32
 70
     1
102
RTVSPropertyOp33
 70
     1
102
RTVSPropertyOp34
 70
     1
102
RTVSPropertyOp35
 70
     1
102
RTVSPropertyOp36
 70
     1
102
RTVSPropertyOp37
 70
     1
102
RTVSPropertyOp38
 70
     1
102
RTVSPropertyOp39
 70
     1
102
RTVSPropertyOp40
 70
     1
102
RTVSPropertyOp41
 70
     1
102
RTVSPropertyOp42
 70
     1
102
RTVSPropertyOp43
 70
     1
102
RTVSPropertyOp44
 70
     1
102
RTVSPropertyOp45
 70
     1
102
RTVSPropertyOp46
 70
     1
102
RTVSPropertyOp47
 70
     1
102
RTVSPropertyOp48
 70
     1
102
RTVSPropertyOp49
 70
     1
102
RTVSPropertyOp50
 70
     1
102
RTVSPropertyOp51
 70
     0
102
RTVSPropertyOp52
 70
     0
102
RTVSPropertyOp53
 70
     1
102
RTVSPropertyOp54
 70
     1
102
RTVSPropertyOp55
 70
     1
102
RTVSPropertyOp56
 70
     1
102
RTVSPropertyOp57
 70
     1
102
RTVSPost2010Prop28
280
     0
102
RTVSPost2010PropOp28
 70
     1
102
RTVSPost2010Prop29
280
     1
102
RTVSPost2010PropOp29
 70
     1
102
RTVSPost2010Prop30
280
     1
102
RTVSPost2010PropOp30
 70
     1
102
RTVSPost2010Prop31
280
     0
102
RTVSPost2010PropOp31
 70
     1
102
RTVSPost2010Prop32
280
     0
102
RTVSPost2010PropOp32
 70
     1
102
RTVSPost2010Prop33
280
     0
102
RTVSPost2010PropOp33
 70
     1
102
RTVSPost2010Prop34
280
     0
102
RTVSPost2010PropOp34
 70
     1
102
RTVSPost2010Prop35
280
     0
102
RTVSPost2010PropOp35
 70
     1
102
RTVSPost2010Prop36
280
     0
102
RTVSPost2010PropOp36
 70
     1
102
RTVSPost2010Prop37
 90
       50
102
RTVSPost2010PropOp37
 70
     1
102
RTVSPost2010Prop38
140
0.0
102
RTVSPost2010PropOp38
 70
     1
102
RTVSPost2010Prop39
140
1.0
102
RTVSPost2010PropOp39
 70
     1
102
RTVSPost2010Prop40
 90
        0
102
RTVSPost2010PropOp40
 70
     1
102
RTVSPost2010Prop41ColorIndex
 90
       18
102
RTVSPost2010Prop41ColorRGB
 90
        0
102
RTVSPost2010PropOp41
 70
     1
102
RTVSPost2010Prop42
 90
       50
102
RTVSPost2010PropOp42
 70
     1
102
RTVSPost2010Prop43
 90
        3
102
RTVSPost2010PropOp43
 70
     1
102
RTVSPost2010Prop44ColorIndex
 90
        5
102
RTVSPost2010Prop44ColorRGB
 90
      255
102
RTVSPost2010PropOp44
 70
     1
102
RTVSPost2010Prop45
280
     0
102
RTVSPost2010PropOp45
 70
     1
102
RTVSPost2010Prop46
 90
       50
102
RTVSPost2010PropOp46
 70
     1
102
RTVSPost2010Prop47
 90
       50
102
RTVSPost2010PropOp47
 70
     1
102
RTVSPost2010Prop48
 90
       50
102
RTVSPost2010PropOp48
 70
     1
102
RTVSPost2010Prop49
280
     0
102
RTVSPost2010PropOp49
 70
     1
102
RTVSPost2010Prop50
 90
       50
102
RTVSPost2010PropOp50
 70
     1
102
RTVSPost2010Prop51ColorIndex
 90
      256
102
RTVSPost2010Prop51ColorRGB
 90
-16777216
102
RTVSPost2010PropOp51
 70
     0
102
RTVSPost2010Prop52
140
1.0
102
RTVSPost2010PropOp52
 70
     0
102
RTVSPost2010Prop53
 90
        2
102
RTVSPost2010PropOp53
 70
     1
102
RTVSPost2010Prop54
  1
strokes_ogs.tif
102
RTVSPost2010PropOp54
 70
     1
102
RTVSPost2010Prop55
280
     0
102
RTVSPost2010PropOp55
 70
     1
102
RTVSPost2010Prop56
140
1.0
102
RTVSPost2010PropOp56
 70
     1
102
RTVSPost2010Prop57
140
1.0
102
RTVSPost2010PropOp57
 70
     1
  0
XRECORD
  5
3A4
102
{ACAD_REACTORS
330
3A3
102
}
330
3A3
100
AcDbXrecord
280
     1
102
RTVSPropertyOp0
 70
     1
102
RTVSPropertyOp1
 70
     1
102
RTVSPropertyOp2
 70
     1
102
RTVSPropertyOp3
 70
     1
102
RTVSPropertyOp4
 70
     1
102
RTVSPropertyOp5
 70
     1
102
RTVSPropertyOp6
 70
     1
102
RTVSPropertyOp7
 70
     1
102
RTVSPropertyOp8
 70
     1
102
RTVSPropertyOp9
 70
     1
102
RTVSPropertyOp10
 70
     1
102
RTVSPropertyOp11
 70
     1
102
RTVSPropertyOp12
 70
     1
102
RTVSPropertyOp13
 70
     1
102
RTVSPropertyOp14
 70
     1
102
RTVSPropertyOp15
 70
     1
102
RTVSPropertyOp16
 70
     1
102
RTVSPropertyOp17
 70
     1
102
RTVSPropertyOp18
 70
     1
102
RTVSPropertyOp19
 70
     1
102
RTVSPropertyOp20
 70
     1
102
RTVSPropertyOp21
 70
     1
102
RTVSPropertyOp22
 70
     1
102
RTVSPropertyOp23
 70
     1
102
RTVSPropertyOp24
 70
     1
102
RTVSPropertyOp25
 70
     1
102
RTVSPropertyOp26
 70
     1
102
RTVSPropertyOp27
 70
     1
102
RTVSPropertyOp28
 70
     1
102
RTVSPropertyOp29
 70
     1
102
RTVSPropertyOp30
 70
     1
102
RTVSPropertyOp31
 70
     1
102
RTVSPropertyOp32
 70
     1
102
RTVSPropertyOp33
 70
     1
102
RTVSPropertyOp34
 70
     1
102
RTVSPropertyOp35
 70
     1
102
RTVSPropertyOp36
 70
     1
102
RTVSPropertyOp37
 70
     1
102
RTVSPropertyOp38
 70
     1
102
RTVSPropertyOp39
 70
     1
102
RTVSPropertyOp40
 70
     1
102
RTVSPropertyOp41
 70
     1
102
RTVSPropertyOp42
 70
     1
102
RTVSPropertyOp43
 70
     1
102
RTVSPropertyOp44
 70
     1
102
RTVSPropertyOp45
 70
     1
102
RTVSPropertyOp46
 70
     1
102
RTVSPropertyOp47
 70
     1
102
RTVSPropertyOp48
 70
     1
102
RTVSPropertyOp49
 70
     1
102
RTVSPropertyOp50
 70
     1
102
RTVSPropertyOp51
 70
     0
102
RTVSPropertyOp52
 70
     0
102
RTVSPropertyOp53
 70
     1
102
RTVSPropertyOp54
 70
     1
102
RTVSPropertyOp55
 70
     1
102
RTVSPropertyOp56
 70
     1
102
RTVSPropertyOp57
 70
     1
102
RTVSPost2010Prop28
280
     0
102
RTVSPost2010PropOp28
 70
     1
102
RTVSPost2010Prop29
280
     1
102
RTVSPost2010PropOp29
 70
     1
102
RTVSPost2010Prop30
280
     1
102
RTVSPost2010PropOp30
 70
     1
102
RTVSPost2010Prop31
280
     0
102
RTVSPost2010PropOp31
 70
     1
102
RTVSPost2010Prop32
280
     0
102
RTVSPost2010PropOp32
 70
     1
102
RTVSPost2010Prop33
280
     0
102
RTVSPost2010PropOp33
 70
     1
102
RTVSPost2010Prop34
280
     0
102
RTVSPost2010PropOp34
 70
     1
102
RTVSPost2010Prop35
280
     0
102
RTVSPost2010PropOp35
 70
     1
102
RTVSPost2010Prop36
280
     0
102
RTVSPost2010PropOp36
 70
     1
102
RTVSPost2010Prop37
 90
       50
102
RTVSPost2010PropOp37
 70
     1
102
RTVSPost2010Prop38
140
0.0
102
RTVSPost2010PropOp38
 70
     1
102
RTVSPost2010Prop39
140
1.0
102
RTVSPost2010PropOp39
 70
     1
102
RTVSPost2010Prop40
 90
        0
102
RTVSPost2010PropOp40
 70
     1
102
RTVSPost2010Prop41ColorIndex
 90
       18
102
RTVSPost2010Prop41ColorRGB
 90
        0
102
RTVSPost2010PropOp41
 70
     1
102
RTVSPost2010Prop42
 90
       50
102
RTVSPost2010PropOp42
 70
     1
102
RTVSPost2010Prop43
 90
        3
102
RTVSPost2010PropOp43
 70
     1
102
RTVSPost2010Prop44ColorIndex
 90
        5
102
RTVSPost2010Prop44ColorRGB
 90
      255
102
RTVSPost2010PropOp44
 70
     1
102
RTVSPost2010Prop45
280
     0
102
RTVSPost2010PropOp45
 70
     1
102
RTVSPost2010Prop46
 90
       50
102
RTVSPost2010PropOp46
 70
     1
102
RTVSPost2010Prop47
 90
       50
102
RTVSPost2010PropOp47
 70
     1
102
RTVSPost2010Prop48
 90
       50
102
RTVSPost2010PropOp48
 70
     1
102
RTVSPost2010Prop49
280
     0
102
RTVSPost2010PropOp49
 70
     1
102
RTVSPost2010Prop50
 90
       50
102
RTVSPost2010PropOp50
 70
     1
102
RTVSPost2010Prop51ColorIndex
 90
      256
102
RTVSPost2010Prop51ColorRGB
 90
-16777216
102
RTVSPost2010PropOp51
 70
     0
102
RTVSPost2010Prop52
140
1.0
102
RTVSPost2010PropOp52
 70
     0
102
RTVSPost2010Prop53
 90
        2
102
RTVSPost2010PropOp53
 70
     1
102
RTVSPost2010Prop54
  1
strokes_ogs.tif
102
RTVSPost2010PropOp54
 70
     1
102
RTVSPost2010Prop55
280
     0
102
RTVSPost2010PropOp55
 70
     1
102
RTVSPost2010Prop56
140
1.0
102
RTVSPost2010PropOp56
 70
     1
102
RTVSPost2010Prop57
140
1.0
102
RTVSPost2010PropOp57
 70
     1
  0
XRECORD
  5
3AC
102
{ACAD_REACTORS
330
3AB
102
}
330
3AB
100
AcDbXrecord
280
     1
102
RTVSPropertyOp0
 70
     1
102
RTVSPropertyOp1
 70
     1
102
RTVSPropertyOp2
 70
     1
102
RTVSPropertyOp3
 70
     1
102
RTVSPropertyOp4
 70
     1
102
RTVSPropertyOp5
 70
     1
102
RTVSPropertyOp6
 70
     1
102
RTVSPropertyOp7
 70
     1
102
RTVSPropertyOp8
 70
     1
102
RTVSPropertyOp9
 70
     1
102
RTVSPropertyOp10
 70
     1
102
RTVSPropertyOp11
 70
     1
102
RTVSPropertyOp12
 70
     1
102
RTVSPropertyOp13
 70
     1
102
RTVSPropertyOp14
 70
     1
102
RTVSPropertyOp15
 70
     1
102
RTVSPropertyOp16
 70
     1
102
RTVSPropertyOp17
 70
     1
102
RTVSPropertyOp18
 70
     1
102
RTVSPropertyOp19
 70
     1
102
RTVSPropertyOp20
 70
     1
102
RTVSPropertyOp21
 70
     1
102
RTVSPropertyOp22
 70
     1
102
RTVSPropertyOp23
 70
     1
102
RTVSPropertyOp24
 70
     1
102
RTVSPropertyOp25
 70
     1
102
RTVSPropertyOp26
 70
     1
102
RTVSPropertyOp27
 70
     1
102
RTVSPropertyOp28
 70
     1
102
RTVSPropertyOp29
 70
     1
102
RTVSPropertyOp30
 70
     1
102
RTVSPropertyOp31
 70
     1
102
RTVSPropertyOp32
 70
     1
102
RTVSPropertyOp33
 70
     1
102
RTVSPropertyOp34
 70
     1
102
RTVSPropertyOp35
 70
     1
102
RTVSPropertyOp36
 70
     1
102
RTVSPropertyOp37
 70
     1
102
RTVSPropertyOp38
 70
     1
102
RTVSPropertyOp39
 70
     1
102
RTVSPropertyOp40
 70
     1
102
RTVSPropertyOp41
 70
     1
102
RTVSPropertyOp42
 70
     1
102
RTVSPropertyOp43
 70
     1
102
RTVSPropertyOp44
 70
     1
102
RTVSPropertyOp45
 70
     1
102
RTVSPropertyOp46
 70
     1
102
RTVSPropertyOp47
 70
     1
102
RTVSPropertyOp48
 70
     1
102
RTVSPropertyOp49
 70
     1
102
RTVSPropertyOp50
 70
     1
102
RTVSPropertyOp51
 70
     0
102
RTVSPropertyOp52
 70
     0
102
RTVSPropertyOp53
 70
     1
102
RTVSPropertyOp54
 70
     1
102
RTVSPropertyOp55
 70
     1
102
RTVSPropertyOp56
 70
     1
102
RTVSPropertyOp57
 70
     1
102
RTVSPost2010Prop28
280
     0
102
RTVSPost2010PropOp28
 70
     1
102
RTVSPost2010Prop29
280
     1
102
RTVSPost2010PropOp29
 70
     1
102
RTVSPost2010Prop30
280
     1
102
RTVSPost2010PropOp30
 70
     1
102
RTVSPost2010Prop31
280
     0
102
RTVSPost2010PropOp31
 70
     1
102
RTVSPost2010Prop32
280
     0
102
RTVSPost2010PropOp32
 70
     1
102
RTVSPost2010Prop33
280
     0
102
RTVSPost2010PropOp33
 70
     1
102
RTVSPost2010Prop34
280
     0
102
RTVSPost2010PropOp34
 70
     1
102
RTVSPost2010Prop35
280
     0
102
RTVSPost2010PropOp35
 70
     1
102
RTVSPost2010Prop36
280
     0
102
RTVSPost2010PropOp36
 70
     1
102
RTVSPost2010Prop37
 90
       50
102
RTVSPost2010PropOp37
 70
     1
102
RTVSPost2010Prop38
140
0.0
102
RTVSPost2010PropOp38
 70
     1
102
RTVSPost2010Prop39
140
1.0
102
RTVSPost2010PropOp39
 70
     1
102
RTVSPost2010Prop40
 90
        0
102
RTVSPost2010PropOp40
 70
     1
102
RTVSPost2010Prop41ColorIndex
 90
       18
102
RTVSPost2010Prop41ColorRGB
 90
        0
102
RTVSPost2010PropOp41
 70
     1
102
RTVSPost2010Prop42
 90
       50
102
RTVSPost2010PropOp42
 70
     1
102
RTVSPost2010Prop43
 90
        3
102
RTVSPost2010PropOp43
 70
     1
102
RTVSPost2010Prop44ColorIndex
 90
        5
102
RTVSPost2010Prop44ColorRGB
 90
      255
102
RTVSPost2010PropOp44
 70
     1
102
RTVSPost2010Prop45
280
     0
102
RTVSPost2010PropOp45
 70
     1
102
RTVSPost2010Prop46
 90
       50
102
RTVSPost2010PropOp46
 70
     1
102
RTVSPost2010Prop47
 90
       50
102
RTVSPost2010PropOp47
 70
     1
102
RTVSPost2010Prop48
 90
       50
102
RTVSPost2010PropOp48
 70
     1
102
RTVSPost2010Prop49
280
     0
102
RTVSPost2010PropOp49
 70
     1
102
RTVSPost2010Prop50
 90
       50
102
RTVSPost2010PropOp50
 70
     1
102
RTVSPost2010Prop51ColorIndex
 90
      256
102
RTVSPost2010Prop51ColorRGB
 90
-16777216
102
RTVSPost2010PropOp51
 70
     0
102
RTVSPost2010Prop52
140
1.0
102
RTVSPost2010PropOp52
 70
     0
102
RTVSPost2010Prop53
 90
        2
102
RTVSPost2010PropOp53
 70
     1
102
RTVSPost2010Prop54
  1
strokes_ogs.tif
102
RTVSPost2010PropOp54
 70
     1
102
RTVSPost2010Prop55
280
     0
102
RTVSPost2010PropOp55
 70
     1
102
RTVSPost2010Prop56
140
1.0
102
RTVSPost2010PropOp56
 70
     1
102
RTVSPost2010Prop57
140
1.0
102
RTVSPost2010PropOp57
 70
     1
  0
XRECORD
  5
3A0
102
{ACAD_REACTORS
330
39F
102
}
330
39F
100
AcDbXrecord
280
     1
102
RTVSPropertyOp0
 70
     1
102
RTVSPropertyOp1
 70
     1
102
RTVSPropertyOp2
 70
     1
102
RTVSPropertyOp3
 70
     1
102
RTVSPropertyOp4
 70
     1
102
RTVSPropertyOp5
 70
     1
102
RTVSPropertyOp6
 70
     1
102
RTVSPropertyOp7
 70
     1
102
RTVSPropertyOp8
 70
     1
102
RTVSPropertyOp9
 70
     1
102
RTVSPropertyOp10
 70
     1
102
RTVSPropertyOp11
 70
     1
102
RTVSPropertyOp12
 70
     1
102
RTVSPropertyOp13
 70
     1
102
RTVSPropertyOp14
 70
     1
102
RTVSPropertyOp15
 70
     1
102
RTVSPropertyOp16
 70
     1
102
RTVSPropertyOp17
 70
     1
102
RTVSPropertyOp18
 70
     1
102
RTVSPropertyOp19
 70
     1
102
RTVSPropertyOp20
 70
     1
102
RTVSPropertyOp21
 70
     1
102
RTVSPropertyOp22
 70
     1
102
RTVSPropertyOp23
 70
     1
102
RTVSPropertyOp24
 70
     1
102
RTVSPropertyOp25
 70
     1
102
RTVSPropertyOp26
 70
     1
102
RTVSPropertyOp27
 70
     1
102
RTVSPropertyOp28
 70
     1
102
RTVSPropertyOp29
 70
     1
102
RTVSPropertyOp30
 70
     1
102
RTVSPropertyOp31
 70
     1
102
RTVSPropertyOp32
 70
     1
102
RTVSPropertyOp33
 70
     1
102
RTVSPropertyOp34
 70
     1
102
RTVSPropertyOp35
 70
     1
102
RTVSPropertyOp36
 70
     1
102
RTVSPropertyOp37
 70
     1
102
RTVSPropertyOp38
 70
     1
102
RTVSPropertyOp39
 70
     1
102
RTVSPropertyOp40
 70
     1
102
RTVSPropertyOp41
 70
     1
102
RTVSPropertyOp42
 70
     1
102
RTVSPropertyOp43
 70
     1
102
RTVSPropertyOp44
 70
     1
102
RTVSPropertyOp45
 70
     1
102
RTVSPropertyOp46
 70
     1
102
RTVSPropertyOp47
 70
     1
102
RTVSPropertyOp48
 70
     1
102
RTVSPropertyOp49
 70
     1
102
RTVSPropertyOp50
 70
     1
102
RTVSPropertyOp51
 70
     0
102
RTVSPropertyOp52
 70
     0
102
RTVSPropertyOp53
 70
     1
102
RTVSPropertyOp54
 70
     1
102
RTVSPropertyOp55
 70
     1
102
RTVSPropertyOp56
 70
     1
102
RTVSPropertyOp57
 70
     1
102
RTVSPost2010Prop28
280
     0
102
RTVSPost2010PropOp28
 70
     1
102
RTVSPost2010Prop29
280
     1
102
RTVSPost2010PropOp29
 70
     1
102
RTVSPost2010Prop30
280
     1
102
RTVSPost2010PropOp30
 70
     1
102
RTVSPost2010Prop31
280
     0
102
RTVSPost2010PropOp31
 70
     1
102
RTVSPost2010Prop32
280
     0
102
RTVSPost2010PropOp32
 70
     1
102
RTVSPost2010Prop33
280
     0
102
RTVSPost2010PropOp33
 70
     1
102
RTVSPost2010Prop34
280
     0
102
RTVSPost2010PropOp34
 70
     1
102
RTVSPost2010Prop35
280
     0
102
RTVSPost2010PropOp35
 70
     1
102
RTVSPost2010Prop36
280
     0
102
RTVSPost2010PropOp36
 70
     1
102
RTVSPost2010Prop37
 90
       50
102
RTVSPost2010PropOp37
 70
     1
102
RTVSPost2010Prop38
140
0.0
102
RTVSPost2010PropOp38
 70
     1
102
RTVSPost2010Prop39
140
1.0
102
RTVSPost2010PropOp39
 70
     1
102
RTVSPost2010Prop40
 90
        0
102
RTVSPost2010PropOp40
 70
     1
102
RTVSPost2010Prop41ColorIndex
 90
       18
102
RTVSPost2010Prop41ColorRGB
 90
        0
102
RTVSPost2010PropOp41
 70
     1
102
RTVSPost2010Prop42
 90
       50
102
RTVSPost2010PropOp42
 70
     1
102
RTVSPost2010Prop43
 90
        3
102
RTVSPost2010PropOp43
 70
     1
102
RTVSPost2010Prop44ColorIndex
 90
        5
102
RTVSPost2010Prop44ColorRGB
 90
      255
102
RTVSPost2010PropOp44
 70
     1
102
RTVSPost2010Prop45
280
     0
102
RTVSPost2010PropOp45
 70
     1
102
RTVSPost2010Prop46
 90
       50
102
RTVSPost2010PropOp46
 70
     1
102
RTVSPost2010Prop47
 90
       50
102
RTVSPost2010PropOp47
 70
     1
102
RTVSPost2010Prop48
 90
       50
102
RTVSPost2010PropOp48
 70
     1
102
RTVSPost2010Prop49
280
     0
102
RTVSPost2010PropOp49
 70
     1
102
RTVSPost2010Prop50
 90
       50
102
RTVSPost2010PropOp50
 70
     1
102
RTVSPost2010Prop51ColorIndex
 90
      256
102
RTVSPost2010Prop51ColorRGB
 90
-16777216
102
RTVSPost2010PropOp51
 70
     0
102
RTVSPost2010Prop52
140
1.0
102
RTVSPost2010PropOp52
 70
     0
102
RTVSPost2010Prop53
 90
        2
102
RTVSPost2010PropOp53
 70
     1
102
RTVSPost2010Prop54
  1
strokes_ogs.tif
102
RTVSPost2010PropOp54
 70
     1
102
RTVSPost2010Prop55
280
     0
102
RTVSPost2010PropOp55
 70
     1
102
RTVSPost2010Prop56
140
1.0
102
RTVSPost2010PropOp56
 70
     1
102
RTVSPost2010Prop57
140
1.0
102
RTVSPost2010PropOp57
 70
     1
  0
XRECORD
  5
3A2
102
{ACAD_REACTORS
330
3A1
102
}
330
3A1
100
AcDbXrecord
280
     1
102
RTVSPropertyOp0
 70
     1
102
RTVSPropertyOp1
 70
     1
102
RTVSPropertyOp2
 70
     1
102
RTVSPropertyOp3
 70
     1
102
RTVSPropertyOp4
 70
     1
102
RTVSPropertyOp5
 70
     1
102
RTVSPropertyOp6
 70
     1
102
RTVSPropertyOp7
 70
     1
102
RTVSPropertyOp8
 70
     1
102
RTVSPropertyOp9
 70
     1
102
RTVSPropertyOp10
 70
     1
102
RTVSPropertyOp11
 70
     1
102
RTVSPropertyOp12
 70
     1
102
RTVSPropertyOp13
 70
     1
102
RTVSPropertyOp14
 70
     1
102
RTVSPropertyOp15
 70
     1
102
RTVSPropertyOp16
 70
     1
102
RTVSPropertyOp17
 70
     1
102
RTVSPropertyOp18
 70
     1
102
RTVSPropertyOp19
 70
     1
102
RTVSPropertyOp20
 70
     1
102
RTVSPropertyOp21
 70
     1
102
RTVSPropertyOp22
 70
     1
102
RTVSPropertyOp23
 70
     1
102
RTVSPropertyOp24
 70
     1
102
RTVSPropertyOp25
 70
     1
102
RTVSPropertyOp26
 70
     1
102
RTVSPropertyOp27
 70
     1
102
RTVSPropertyOp28
 70
     1
102
RTVSPropertyOp29
 70
     1
102
RTVSPropertyOp30
 70
     1
102
RTVSPropertyOp31
 70
     1
102
RTVSPropertyOp32
 70
     1
102
RTVSPropertyOp33
 70
     1
102
RTVSPropertyOp34
 70
     1
102
RTVSPropertyOp35
 70
     1
102
RTVSPropertyOp36
 70
     1
102
RTVSPropertyOp37
 70
     1
102
RTVSPropertyOp38
 70
     1
102
RTVSPropertyOp39
 70
     1
102
RTVSPropertyOp40
 70
     1
102
RTVSPropertyOp41
 70
     1
102
RTVSPropertyOp42
 70
     1
102
RTVSPropertyOp43
 70
     1
102
RTVSPropertyOp44
 70
     1
102
RTVSPropertyOp45
 70
     1
102
RTVSPropertyOp46
 70
     1
102
RTVSPropertyOp47
 70
     1
102
RTVSPropertyOp48
 70
     1
102
RTVSPropertyOp49
 70
     1
102
RTVSPropertyOp50
 70
     1
102
RTVSPropertyOp51
 70
     0
102
RTVSPropertyOp52
 70
     0
102
RTVSPropertyOp53
 70
     1
102
RTVSPropertyOp54
 70
     1
102
RTVSPropertyOp55
 70
     1
102
RTVSPropertyOp56
 70
     1
102
RTVSPropertyOp57
 70
     1
102
RTVSPost2010Prop28
280
     0
102
RTVSPost2010PropOp28
 70
     1
102
RTVSPost2010Prop29
280
     1
102
RTVSPost2010PropOp29
 70
     1
102
RTVSPost2010Prop30
280
     1
102
RTVSPost2010PropOp30
 70
     1
102
RTVSPost2010Prop31
280
     0
102
RTVSPost2010PropOp31
 70
     1
102
RTVSPost2010Prop32
280
     0
102
RTVSPost2010PropOp32
 70
     1
102
RTVSPost2010Prop33
280
     0
102
RTVSPost2010PropOp33
 70
     1
102
RTVSPost2010Prop34
280
     0
102
RTVSPost2010PropOp34
 70
     1
102
RTVSPost2010Prop35
280
     0
102
RTVSPost2010PropOp35
 70
     1
102
RTVSPost2010Prop36
280
     0
102
RTVSPost2010PropOp36
 70
     1
102
RTVSPost2010Prop37
 90
       50
102
RTVSPost2010PropOp37
 70
     1
102
RTVSPost2010Prop38
140
0.0
102
RTVSPost2010PropOp38
 70
     1
102
RTVSPost2010Prop39
140
1.0
102
RTVSPost2010PropOp39
 70
     1
102
RTVSPost2010Prop40
 90
        0
102
RTVSPost2010PropOp40
 70
     1
102
RTVSPost2010Prop41ColorIndex
 90
       18
102
RTVSPost2010Prop41ColorRGB
 90
        0
102
RTVSPost2010PropOp41
 70
     1
102
RTVSPost2010Prop42
 90
       50
102
RTVSPost2010PropOp42
 70
     1
102
RTVSPost2010Prop43
 90
        3
102
RTVSPost2010PropOp43
 70
     1
102
RTVSPost2010Prop44ColorIndex
 90
        5
102
RTVSPost2010Prop44ColorRGB
 90
      255
102
RTVSPost2010PropOp44
 70
     1
102
RTVSPost2010Prop45
280
     0
102
RTVSPost2010PropOp45
 70
     1
102
RTVSPost2010Prop46
 90
       50
102
RTVSPost2010PropOp46
 70
     1
102
RTVSPost2010Prop47
 90
       50
102
RTVSPost2010PropOp47
 70
     1
102
RTVSPost2010Prop48
 90
       50
102
RTVSPost2010PropOp48
 70
     1
102
RTVSPost2010Prop49
280
     0
102
RTVSPost2010PropOp49
 70
     1
102
RTVSPost2010Prop50
 90
       50
102
RTVSPost2010PropOp50
 70
     1
102
RTVSPost2010Prop51ColorIndex
 90
      256
102
RTVSPost2010Prop51ColorRGB
 90
-16777216
102
RTVSPost2010PropOp51
 70
     0
102
RTVSPost2010Prop52
140
1.0
102
RTVSPost2010PropOp52
 70
     0
102
RTVSPost2010Prop53
 90
        2
102
RTVSPost2010PropOp53
 70
     1
102
RTVSPost2010Prop54
  1
strokes_ogs.tif
102
RTVSPost2010PropOp54
 70
     1
102
RTVSPost2010Prop55
280
     0
102
RTVSPost2010PropOp55
 70
     1
102
RTVSPost2010Prop56
140
1.0
102
RTVSPost2010PropOp56
 70
     1
102
RTVSPost2010Prop57
140
1.0
102
RTVSPost2010PropOp57
 70
     1
  0
XRECORD
  5
3B2
102
{ACAD_REACTORS
330
3B1
102
}
330
3B1
100
AcDbXrecord
280
     1
102
RTVSPropertyOp0
 70
     0
102
RTVSPropertyOp1
 70
     0
102
RTVSPropertyOp2
 70
     0
102
RTVSPropertyOp3
 70
     0
102
RTVSPropertyOp4
 70
     0
102
RTVSPropertyOp5
 70
     0
102
RTVSPropertyOp6
 70
     0
102
RTVSPropertyOp7
 70
     0
102
RTVSPropertyOp8
 70
     0
102
RTVSPropertyOp9
 70
     0
102
RTVSPropertyOp10
 70
     0
102
RTVSPropertyOp11
 70
     0
102
RTVSPropertyOp12
 70
     0
102
RTVSPropertyOp13
 70
     0
102
RTVSPropertyOp14
 70
     2
102
RTVSPropertyOp15
 70
     0
102
RTVSPropertyOp16
 70
     0
102
RTVSPropertyOp17
 70
     0
102
RTVSPropertyOp18
 70
     0
102
RTVSPropertyOp19
 70
     0
102
RTVSPropertyOp20
 70
     0
102
RTVSPropertyOp21
 70
     0
102
RTVSPropertyOp22
 70
     0
102
RTVSPropertyOp23
 70
     0
102
RTVSPropertyOp24
 70
     0
102
RTVSPropertyOp25
 70
     0
102
RTVSPropertyOp26
 70
     0
102
RTVSPropertyOp27
 70
     0
102
RTVSPropertyOp28
 70
     0
102
RTVSPropertyOp29
 70
     0
102
RTVSPropertyOp30
 70
     0
102
RTVSPropertyOp31
 70
     0
102
RTVSPropertyOp32
 70
     0
102
RTVSPropertyOp33
 70
     0
102
RTVSPropertyOp34
 70
     0
102
RTVSPropertyOp35
 70
     0
102
RTVSPropertyOp36
 70
     0
102
RTVSPropertyOp37
 70
     0
102
RTVSPropertyOp38
 70
     0
102
RTVSPropertyOp39
 70
     0
102
RTVSPropertyOp40
 70
     0
102
RTVSPropertyOp41
 70
     0
102
RTVSPropertyOp42
 70
     0
102
RTVSPropertyOp43
 70
     0
102
RTVSPropertyOp44
 70
     0
102
RTVSPropertyOp45
 70
     0
102
RTVSPropertyOp46
 70
     0
102
RTVSPropertyOp47
 70
     0
102
RTVSPropertyOp48
 70
     0
102
RTVSPropertyOp49
 70
     0
102
RTVSPropertyOp50
 70
     0
102
RTVSPropertyOp51
 70
     0
102
RTVSPropertyOp52
 70
     0
102
RTVSPropertyOp53
 70
     0
102
RTVSPropertyOp54
 70
     0
102
RTVSPropertyOp55
 70
     0
102
RTVSPropertyOp56
 70
     0
102
RTVSPropertyOp57
 70
     0
102
RTVSPost2010Prop28
280
     0
102
RTVSPost2010PropOp28
 70
     0
102
RTVSPost2010Prop29
280
     1
102
RTVSPost2010PropOp29
 70
     0
102
RTVSPost2010Prop30
280
     1
102
RTVSPost2010PropOp30
 70
     0
102
RTVSPost2010Prop31
280
     0
102
RTVSPost2010PropOp31
 70
     0
102
RTVSPost2010Prop32
280
     0
102
RTVSPost2010PropOp32
 70
     0
102
RTVSPost2010Prop33
280
     0
102
RTVSPost2010PropOp33
 70
     0
102
RTVSPost2010Prop34
280
     0
102
RTVSPost2010PropOp34
 70
     0
102
RTVSPost2010Prop35
280
     0
102
RTVSPost2010PropOp35
 70
     0
102
RTVSPost2010Prop36
280
     0
102
RTVSPost2010PropOp36
 70
     0
102
RTVSPost2010Prop37
 90
       50
102
RTVSPost2010PropOp37
 70
     0
102
RTVSPost2010Prop38
140
0.0
102
RTVSPost2010PropOp38
 70
     0
102
RTVSPost2010Prop39
140
1.0
102
RTVSPost2010PropOp39
 70
     0
102
RTVSPost2010Prop40
 90
        0
102
RTVSPost2010PropOp40
 70
     0
102
RTVSPost2010Prop41ColorIndex
 90
       18
102
RTVSPost2010Prop41ColorRGB
 90
        0
102
RTVSPost2010PropOp41
 70
     0
102
RTVSPost2010Prop42
 90
       50
102
RTVSPost2010PropOp42
 70
     0
102
RTVSPost2010Prop43
 90
        3
102
RTVSPost2010PropOp43
 70
     0
102
RTVSPost2010Prop44ColorIndex
 90
        5
102
RTVSPost2010Prop44ColorRGB
 90
      255
102
RTVSPost2010PropOp44
 70
     0
102
RTVSPost2010Prop45
280
     0
102
RTVSPost2010PropOp45
 70
     0
102
RTVSPost2010Prop46
 90
       50
102
RTVSPost2010PropOp46
 70
     0
102
RTVSPost2010Prop47
 90
       50
102
RTVSPost2010PropOp47
 70
     0
102
RTVSPost2010Prop48
 90
       50
102
RTVSPost2010PropOp48
 70
     0
102
RTVSPost2010Prop49
280
     0
102
RTVSPost2010PropOp49
 70
     0
102
RTVSPost2010Prop50
 90
       50
102
RTVSPost2010PropOp50
 70
     0
102
RTVSPost2010Prop51ColorIndex
 90
      256
102
RTVSPost2010Prop51ColorRGB
 90
-16777216
102
RTVSPost2010PropOp51
 70
     0
102
RTVSPost2010Prop52
140
1.0
102
RTVSPost2010PropOp52
 70
     0
102
RTVSPost2010Prop53
 90
        2
102
RTVSPost2010PropOp53
 70
     0
102
RTVSPost2010Prop54
  1
strokes_ogs.tif
102
RTVSPost2010PropOp54
 70
     0
102
RTVSPost2010Prop55
280
     0
102
RTVSPost2010PropOp55
 70
     0
102
RTVSPost2010Prop56
140
1.0
102
RTVSPost2010PropOp56
 70
     0
102
RTVSPost2010Prop57
140
1.0
102
RTVSPost2010PropOp57
 70
     0
  0
XRECORD
  5
3AA
102
{ACAD_REACTORS
330
3A9
102
}
330
3A9
100
AcDbXrecord
280
     1
102
RTVSPropertyOp0
 70
     1
102
RTVSPropertyOp1
 70
     1
102
RTVSPropertyOp2
 70
     1
102
RTVSPropertyOp3
 70
     1
102
RTVSPropertyOp4
 70
     1
102
RTVSPropertyOp5
 70
     1
102
RTVSPropertyOp6
 70
     1
102
RTVSPropertyOp7
 70
     1
102
RTVSPropertyOp8
 70
     1
102
RTVSPropertyOp9
 70
     1
102
RTVSPropertyOp10
 70
     1
102
RTVSPropertyOp11
 70
     1
102
RTVSPropertyOp12
 70
     1
102
RTVSPropertyOp13
 70
     1
102
RTVSPropertyOp14
 70
     1
102
RTVSPropertyOp15
 70
     1
102
RTVSPropertyOp16
 70
     1
102
RTVSPropertyOp17
 70
     1
102
RTVSPropertyOp18
 70
     1
102
RTVSPropertyOp19
 70
     1
102
RTVSPropertyOp20
 70
     1
102
RTVSPropertyOp21
 70
     1
102
RTVSPropertyOp22
 70
     1
102
RTVSPropertyOp23
 70
     1
102
RTVSPropertyOp24
 70
     1
102
RTVSPropertyOp25
 70
     1
102
RTVSPropertyOp26
 70
     1
102
RTVSPropertyOp27
 70
     1
102
RTVSPropertyOp28
 70
     1
102
RTVSPropertyOp29
 70
     1
102
RTVSPropertyOp30
 70
     1
102
RTVSPropertyOp31
 70
     1
102
RTVSPropertyOp32
 70
     1
102
RTVSPropertyOp33
 70
     1
102
RTVSPropertyOp34
 70
     1
102
RTVSPropertyOp35
 70
     1
102
RTVSPropertyOp36
 70
     1
102
RTVSPropertyOp37
 70
     1
102
RTVSPropertyOp38
 70
     1
102
RTVSPropertyOp39
 70
     1
102
RTVSPropertyOp40
 70
     1
102
RTVSPropertyOp41
 70
     1
102
RTVSPropertyOp42
 70
     1
102
RTVSPropertyOp43
 70
     1
102
RTVSPropertyOp44
 70
     1
102
RTVSPropertyOp45
 70
     1
102
RTVSPropertyOp46
 70
     1
102
RTVSPropertyOp47
 70
     1
102
RTVSPropertyOp48
 70
     1
102
RTVSPropertyOp49
 70
     1
102
RTVSPropertyOp50
 70
     1
102
RTVSPropertyOp51
 70
     0
102
RTVSPropertyOp52
 70
     0
102
RTVSPropertyOp53
 70
     1
102
RTVSPropertyOp54
 70
     1
102
RTVSPropertyOp55
 70
     1
102
RTVSPropertyOp56
 70
     1
102
RTVSPropertyOp57
 70
     1
102
RTVSPost2010Prop28
280
     0
102
RTVSPost2010PropOp28
 70
     1
102
RTVSPost2010Prop29
280
     1
102
RTVSPost2010PropOp29
 70
     1
102
RTVSPost2010Prop30
280
     1
102
RTVSPost2010PropOp30
 70
     1
102
RTVSPost2010Prop31
280
     0
102
RTVSPost2010PropOp31
 70
     1
102
RTVSPost2010Prop32
280
     0
102
RTVSPost2010PropOp32
 70
     1
102
RTVSPost2010Prop33
280
     0
102
RTVSPost2010PropOp33
 70
     1
102
RTVSPost2010Prop34
280
     0
102
RTVSPost2010PropOp34
 70
     1
102
RTVSPost2010Prop35
280
     0
102
RTVSPost2010PropOp35
 70
     1
102
RTVSPost2010Prop36
280
     0
102
RTVSPost2010PropOp36
 70
     1
102
RTVSPost2010Prop37
 90
       50
102
RTVSPost2010PropOp37
 70
     1
102
RTVSPost2010Prop38
140
0.0
102
RTVSPost2010PropOp38
 70
     1
102
RTVSPost2010Prop39
140
1.0
102
RTVSPost2010PropOp39
 70
     1
102
RTVSPost2010Prop40
 90
        0
102
RTVSPost2010PropOp40
 70
     1
102
RTVSPost2010Prop41ColorIndex
 90
       18
102
RTVSPost2010Prop41ColorRGB
 90
        0
102
RTVSPost2010PropOp41
 70
     1
102
RTVSPost2010Prop42
 90
       50
102
RTVSPost2010PropOp42
 70
     1
102
RTVSPost2010Prop43
 90
        3
102
RTVSPost2010PropOp43
 70
     1
102
RTVSPost2010Prop44ColorIndex
 90
        5
102
RTVSPost2010Prop44ColorRGB
 90
      255
102
RTVSPost2010PropOp44
 70
     1
102
RTVSPost2010Prop45
280
     0
102
RTVSPost2010PropOp45
 70
     1
102
RTVSPost2010Prop46
 90
       50
102
RTVSPost2010PropOp46
 70
     1
102
RTVSPost2010Prop47
 90
       50
102
RTVSPost2010PropOp47
 70
     1
102
RTVSPost2010Prop48
 90
       50
102
RTVSPost2010PropOp48
 70
     1
102
RTVSPost2010Prop49
280
     0
102
RTVSPost2010PropOp49
 70
     1
102
RTVSPost2010Prop50
 90
       50
102
RTVSPost2010PropOp50
 70
     1
102
RTVSPost2010Prop51ColorIndex
 90
      256
102
RTVSPost2010Prop51ColorRGB
 90
-16777216
102
RTVSPost2010PropOp51
 70
     0
102
RTVSPost2010Prop52
140
1.0
102
RTVSPost2010PropOp52
 70
     0
102
RTVSPost2010Prop53
 90
        2
102
RTVSPost2010PropOp53
 70
     1
102
RTVSPost2010Prop54
  1
strokes_ogs.tif
102
RTVSPost2010PropOp54
 70
     1
102
RTVSPost2010Prop55
280
     0
102
RTVSPost2010PropOp55
 70
     1
102
RTVSPost2010Prop56
140
1.0
102
RTVSPost2010PropOp56
 70
     1
102
RTVSPost2010Prop57
140
1.0
102
RTVSPost2010PropOp57
 70
     1
  0
XRECORD
  5
38E
102
{ACAD_REACTORS
330
38D
102
}
330
38D
100
AcDbXrecord
280
     1
102
RTVSPropertyOp0
 70
     1
102
RTVSPropertyOp1
 70
     1
102
RTVSPropertyOp2
 70
     1
102
RTVSPropertyOp3
 70
     1
102
RTVSPropertyOp4
 70
     1
102
RTVSPropertyOp5
 70
     1
102
RTVSPropertyOp6
 70
     1
102
RTVSPropertyOp7
 70
     1
102
RTVSPropertyOp8
 70
     1
102
RTVSPropertyOp9
 70
     1
102
RTVSPropertyOp10
 70
     1
102
RTVSPropertyOp11
 70
     1
102
RTVSPropertyOp12
 70
     1
102
RTVSPropertyOp13
 70
     1
102
RTVSPropertyOp14
 70
     1
102
RTVSPropertyOp15
 70
     1
102
RTVSPropertyOp16
 70
     1
102
RTVSPropertyOp17
 70
     1
102
RTVSPropertyOp18
 70
     1
102
RTVSPropertyOp19
 70
     1
102
RTVSPropertyOp20
 70
     1
102
RTVSPropertyOp21
 70
     1
102
RTVSPropertyOp22
 70
     1
102
RTVSPropertyOp23
 70
     1
102
RTVSPropertyOp24
 70
     1
102
RTVSPropertyOp25
 70
     1
102
RTVSPropertyOp26
 70
     1
102
RTVSPropertyOp27
 70
     1
102
RTVSPropertyOp28
 70
     1
102
RTVSPropertyOp29
 70
     1
102
RTVSPropertyOp30
 70
     1
102
RTVSPropertyOp31
 70
     1
102
RTVSPropertyOp32
 70
     1
102
RTVSPropertyOp33
 70
     1
102
RTVSPropertyOp34
 70
     1
102
RTVSPropertyOp35
 70
     1
102
RTVSPropertyOp36
 70
     1
102
RTVSPropertyOp37
 70
     1
102
RTVSPropertyOp38
 70
     1
102
RTVSPropertyOp39
 70
     1
102
RTVSPropertyOp40
 70
     1
102
RTVSPropertyOp41
 70
     1
102
RTVSPropertyOp42
 70
     1
102
RTVSPropertyOp43
 70
     1
102
RTVSPropertyOp44
 70
     1
102
RTVSPropertyOp45
 70
     1
102
RTVSPropertyOp46
 70
     1
102
RTVSPropertyOp47
 70
     1
102
RTVSPropertyOp48
 70
     1
102
RTVSPropertyOp49
 70
     1
102
RTVSPropertyOp50
 70
     1
102
RTVSPropertyOp51
 70
     0
102
RTVSPropertyOp52
 70
     0
102
RTVSPropertyOp53
 70
     1
102
RTVSPropertyOp54
 70
     1
102
RTVSPropertyOp55
 70
     1
102
RTVSPropertyOp56
 70
     1
102
RTVSPropertyOp57
 70
     1
102
RTVSPost2010Prop28
280
     0
102
RTVSPost2010PropOp28
 70
     1
102
RTVSPost2010Prop29
280
     1
102
RTVSPost2010PropOp29
 70
     1
102
RTVSPost2010Prop30
280
     1
102
RTVSPost2010PropOp30
 70
     1
102
RTVSPost2010Prop31
280
     0
102
RTVSPost2010PropOp31
 70
     1
102
RTVSPost2010Prop32
280
     0
102
RTVSPost2010PropOp32
 70
     1
102
RTVSPost2010Prop33
280
     0
102
RTVSPost2010PropOp33
 70
     1
102
RTVSPost2010Prop34
280
     0
102
RTVSPost2010PropOp34
 70
     1
102
RTVSPost2010Prop35
280
     0
102
RTVSPost2010PropOp35
 70
     1
102
RTVSPost2010Prop36
280
     0
102
RTVSPost2010PropOp36
 70
     1
102
RTVSPost2010Prop37
 90
       50
102
RTVSPost2010PropOp37
 70
     1
102
RTVSPost2010Prop38
140
0.0
102
RTVSPost2010PropOp38
 70
     1
102
RTVSPost2010Prop39
140
1.0
102
RTVSPost2010PropOp39
 70
     1
102
RTVSPost2010Prop40
 90
        0
102
RTVSPost2010PropOp40
 70
     1
102
RTVSPost2010Prop41ColorIndex
 90
       18
102
RTVSPost2010Prop41ColorRGB
 90
        0
102
RTVSPost2010PropOp41
 70
     1
102
RTVSPost2010Prop42
 90
       50
102
RTVSPost2010PropOp42
 70
     1
102
RTVSPost2010Prop43
 90
        3
102
RTVSPost2010PropOp43
 70
     1
102
RTVSPost2010Prop44ColorIndex
 90
        5
102
RTVSPost2010Prop44ColorRGB
 90
      255
102
RTVSPost2010PropOp44
 70
     1
102
RTVSPost2010Prop45
280
     0
102
RTVSPost2010PropOp45
 70
     1
102
RTVSPost2010Prop46
 90
       50
102
RTVSPost2010PropOp46
 70
     1
102
RTVSPost2010Prop47
 90
       50
102
RTVSPost2010PropOp47
 70
     1
102
RTVSPost2010Prop48
 90
       50
102
RTVSPost2010PropOp48
 70
     1
102
RTVSPost2010Prop49
280
     0
102
RTVSPost2010PropOp49
 70
     1
102
RTVSPost2010Prop50
 90
       50
102
RTVSPost2010PropOp50
 70
     1
102
RTVSPost2010Prop51ColorIndex
 90
      256
102
RTVSPost2010Prop51ColorRGB
 90
-16777216
102
RTVSPost2010PropOp51
 70
     0
102
RTVSPost2010Prop52
140
1.0
102
RTVSPost2010PropOp52
 70
     0
102
RTVSPost2010Prop53
 90
        2
102
RTVSPost2010PropOp53
 70
     1
102
RTVSPost2010Prop54
  1
strokes_ogs.tif
102
RTVSPost2010PropOp54
 70
     1
102
RTVSPost2010Prop55
280
     0
102
RTVSPost2010PropOp55
 70
     1
102
RTVSPost2010Prop56
140
1.0
102
RTVSPost2010PropOp56
 70
     1
102
RTVSPost2010Prop57
140
1.0
102
RTVSPost2010PropOp57
 70
     1
  0
XRECORD
  5
390
102
{ACAD_REACTORS
330
38F
102
}
330
38F
100
AcDbXrecord
280
     1
102
RTVSPropertyOp0
 70
     1
102
RTVSPropertyOp1
 70
     1
102
RTVSPropertyOp2
 70
     1
102
RTVSPropertyOp3
 70
     1
102
RTVSPropertyOp4
 70
     1
102
RTVSPropertyOp5
 70
     1
102
RTVSPropertyOp6
 70
     1
102
RTVSPropertyOp7
 70
     1
102
RTVSPropertyOp8
 70
     1
102
RTVSPropertyOp9
 70
     1
102
RTVSPropertyOp10
 70
     1
102
RTVSPropertyOp11
 70
     1
102
RTVSPropertyOp12
 70
     1
102
RTVSPropertyOp13
 70
     1
102
RTVSPropertyOp14
 70
     1
102
RTVSPropertyOp15
 70
     1
102
RTVSPropertyOp16
 70
     1
102
RTVSPropertyOp17
 70
     1
102
RTVSPropertyOp18
 70
     1
102
RTVSPropertyOp19
 70
     1
102
RTVSPropertyOp20
 70
     1
102
RTVSPropertyOp21
 70
     1
102
RTVSPropertyOp22
 70
     1
102
RTVSPropertyOp23
 70
     1
102
RTVSPropertyOp24
 70
     1
102
RTVSPropertyOp25
 70
     1
102
RTVSPropertyOp26
 70
     1
102
RTVSPropertyOp27
 70
     1
102
RTVSPropertyOp28
 70
     1
102
RTVSPropertyOp29
 70
     1
102
RTVSPropertyOp30
 70
     1
102
RTVSPropertyOp31
 70
     1
102
RTVSPropertyOp32
 70
     1
102
RTVSPropertyOp33
 70
     1
102
RTVSPropertyOp34
 70
     1
102
RTVSPropertyOp35
 70
     1
102
RTVSPropertyOp36
 70
     1
102
RTVSPropertyOp37
 70
     1
102
RTVSPropertyOp38
 70
     1
102
RTVSPropertyOp39
 70
     1
102
RTVSPropertyOp40
 70
     1
102
RTVSPropertyOp41
 70
     1
102
RTVSPropertyOp42
 70
     1
102
RTVSPropertyOp43
 70
     1
102
RTVSPropertyOp44
 70
     1
102
RTVSPropertyOp45
 70
     1
102
RTVSPropertyOp46
 70
     1
102
RTVSPropertyOp47
 70
     1
102
RTVSPropertyOp48
 70
     1
102
RTVSPropertyOp49
 70
     1
102
RTVSPropertyOp50
 70
     1
102
RTVSPropertyOp51
 70
     0
102
RTVSPropertyOp52
 70
     0
102
RTVSPropertyOp53
 70
     1
102
RTVSPropertyOp54
 70
     1
102
RTVSPropertyOp55
 70
     1
102
RTVSPropertyOp56
 70
     1
102
RTVSPropertyOp57
 70
     1
102
RTVSPost2010Prop28
280
     0
102
RTVSPost2010PropOp28
 70
     1
102
RTVSPost2010Prop29
280
     1
102
RTVSPost2010PropOp29
 70
     1
102
RTVSPost2010Prop30
280
     1
102
RTVSPost2010PropOp30
 70
     1
102
RTVSPost2010Prop31
280
     0
102
RTVSPost2010PropOp31
 70
     1
102
RTVSPost2010Prop32
280
     0
102
RTVSPost2010PropOp32
 70
     1
102
RTVSPost2010Prop33
280
     0
102
RTVSPost2010PropOp33
 70
     1
102
RTVSPost2010Prop34
280
     0
102
RTVSPost2010PropOp34
 70
     1
102
RTVSPost2010Prop35
280
     0
102
RTVSPost2010PropOp35
 70
     1
102
RTVSPost2010Prop36
280
     0
102
RTVSPost2010PropOp36
 70
     1
102
RTVSPost2010Prop37
 90
       50
102
RTVSPost2010PropOp37
 70
     1
102
RTVSPost2010Prop38
140
0.0
102
RTVSPost2010PropOp38
 70
     1
102
RTVSPost2010Prop39
140
1.0
102
RTVSPost2010PropOp39
 70
     1
102
RTVSPost2010Prop40
 90
        0
102
RTVSPost2010PropOp40
 70
     1
102
RTVSPost2010Prop41ColorIndex
 90
       18
102
RTVSPost2010Prop41ColorRGB
 90
        0
102
RTVSPost2010PropOp41
 70
     1
102
RTVSPost2010Prop42
 90
       50
102
RTVSPost2010PropOp42
 70
     1
102
RTVSPost2010Prop43
 90
        3
102
RTVSPost2010PropOp43
 70
     1
102
RTVSPost2010Prop44ColorIndex
 90
        5
102
RTVSPost2010Prop44ColorRGB
 90
      255
102
RTVSPost2010PropOp44
 70
     1
102
RTVSPost2010Prop45
280
     0
102
RTVSPost2010PropOp45
 70
     1
102
RTVSPost2010Prop46
 90
       50
102
RTVSPost2010PropOp46
 70
     1
102
RTVSPost2010Prop47
 90
       50
102
RTVSPost2010PropOp47
 70
     1
102
RTVSPost2010Prop48
 90
       50
102
RTVSPost2010PropOp48
 70
     1
102
RTVSPost2010Prop49
280
     0
102
RTVSPost2010PropOp49
 70
     1
102
RTVSPost2010Prop50
 90
       50
102
RTVSPost2010PropOp50
 70
     1
102
RTVSPost2010Prop51ColorIndex
 90
      256
102
RTVSPost2010Prop51ColorRGB
 90
-16777216
102
RTVSPost2010PropOp51
 70
     0
102
RTVSPost2010Prop52
140
1.0
102
RTVSPost2010PropOp52
 70
     0
102
RTVSPost2010Prop53
 90
        2
102
RTVSPost2010PropOp53
 70
     1
102
RTVSPost2010Prop54
  1
strokes_ogs.tif
102
RTVSPost2010PropOp54
 70
     1
102
RTVSPost2010Prop55
280
     0
102
RTVSPost2010PropOp55
 70
     1
102
RTVSPost2010Prop56
140
1.0
102
RTVSPost2010PropOp56
 70
     1
102
RTVSPost2010Prop57
140
1.0
102
RTVSPost2010PropOp57
 70
     1
  0
XRECORD
  5
392
102
{ACAD_REACTORS
330
391
102
}
330
391
100
AcDbXrecord
280
     1
102
RTVSPropertyOp0
 70
     1
102
RTVSPropertyOp1
 70
     1
102
RTVSPropertyOp2
 70
     1
102
RTVSPropertyOp3
 70
     1
102
RTVSPropertyOp4
 70
     1
102
RTVSPropertyOp5
 70
     1
102
RTVSPropertyOp6
 70
     1
102
RTVSPropertyOp7
 70
     1
102
RTVSPropertyOp8
 70
     1
102
RTVSPropertyOp9
 70
     1
102
RTVSPropertyOp10
 70
     1
102
RTVSPropertyOp11
 70
     1
102
RTVSPropertyOp12
 70
     1
102
RTVSPropertyOp13
 70
     1
102
RTVSPropertyOp14
 70
     1
102
RTVSPropertyOp15
 70
     1
102
RTVSPropertyOp16
 70
     1
102
RTVSPropertyOp17
 70
     1
102
RTVSPropertyOp18
 70
     1
102
RTVSPropertyOp19
 70
     1
102
RTVSPropertyOp20
 70
     1
102
RTVSPropertyOp21
 70
     1
102
RTVSPropertyOp22
 70
     1
102
RTVSPropertyOp23
 70
     1
102
RTVSPropertyOp24
 70
     1
102
RTVSPropertyOp25
 70
     1
102
RTVSPropertyOp26
 70
     1
102
RTVSPropertyOp27
 70
     1
102
RTVSPropertyOp28
 70
     1
102
RTVSPropertyOp29
 70
     1
102
RTVSPropertyOp30
 70
     1
102
RTVSPropertyOp31
 70
     1
102
RTVSPropertyOp32
 70
     1
102
RTVSPropertyOp33
 70
     1
102
RTVSPropertyOp34
 70
     1
102
RTVSPropertyOp35
 70
     1
102
RTVSPropertyOp36
 70
     1
102
RTVSPropertyOp37
 70
     1
102
RTVSPropertyOp38
 70
     1
102
RTVSPropertyOp39
 70
     1
102
RTVSPropertyOp40
 70
     1
102
RTVSPropertyOp41
 70
     1
102
RTVSPropertyOp42
 70
     1
102
RTVSPropertyOp43
 70
     1
102
RTVSPropertyOp44
 70
     1
102
RTVSPropertyOp45
 70
     1
102
RTVSPropertyOp46
 70
     1
102
RTVSPropertyOp47
 70
     1
102
RTVSPropertyOp48
 70
     1
102
RTVSPropertyOp49
 70
     1
102
RTVSPropertyOp50
 70
     1
102
RTVSPropertyOp51
 70
     0
102
RTVSPropertyOp52
 70
     0
102
RTVSPropertyOp53
 70
     1
102
RTVSPropertyOp54
 70
     1
102
RTVSPropertyOp55
 70
     1
102
RTVSPropertyOp56
 70
     1
102
RTVSPropertyOp57
 70
     1
102
RTVSPost2010Prop28
280
     0
102
RTVSPost2010PropOp28
 70
     1
102
RTVSPost2010Prop29
280
     1
102
RTVSPost2010PropOp29
 70
     1
102
RTVSPost2010Prop30
280
     1
102
RTVSPost2010PropOp30
 70
     1
102
RTVSPost2010Prop31
280
     0
102
RTVSPost2010PropOp31
 70
     1
102
RTVSPost2010Prop32
280
     0
102
RTVSPost2010PropOp32
 70
     1
102
RTVSPost2010Prop33
280
     0
102
RTVSPost2010PropOp33
 70
     1
102
RTVSPost2010Prop34
280
     0
102
RTVSPost2010PropOp34
 70
     1
102
RTVSPost2010Prop35
280
     0
102
RTVSPost2010PropOp35
 70
     1
102
RTVSPost2010Prop36
280
     0
102
RTVSPost2010PropOp36
 70
     1
102
RTVSPost2010Prop37
 90
       50
102
RTVSPost2010PropOp37
 70
     1
102
RTVSPost2010Prop38
140
0.0
102
RTVSPost2010PropOp38
 70
     1
102
RTVSPost2010Prop39
140
1.0
102
RTVSPost2010PropOp39
 70
     1
102
RTVSPost2010Prop40
 90
        0
102
RTVSPost2010PropOp40
 70
     1
102
RTVSPost2010Prop41ColorIndex
 90
       18
102
RTVSPost2010Prop41ColorRGB
 90
        0
102
RTVSPost2010PropOp41
 70
     1
102
RTVSPost2010Prop42
 90
       50
102
RTVSPost2010PropOp42
 70
     1
102
RTVSPost2010Prop43
 90
        3
102
RTVSPost2010PropOp43
 70
     1
102
RTVSPost2010Prop44ColorIndex
 90
        5
102
RTVSPost2010Prop44ColorRGB
 90
      255
102
RTVSPost2010PropOp44
 70
     1
102
RTVSPost2010Prop45
280
     0
102
RTVSPost2010PropOp45
 70
     1
102
RTVSPost2010Prop46
 90
       50
102
RTVSPost2010PropOp46
 70
     1
102
RTVSPost2010Prop47
 90
       50
102
RTVSPost2010PropOp47
 70
     1
102
RTVSPost2010Prop48
 90
       50
102
RTVSPost2010PropOp48
 70
     1
102
RTVSPost2010Prop49
280
     0
102
RTVSPost2010PropOp49
 70
     1
102
RTVSPost2010Prop50
 90
       50
102
RTVSPost2010PropOp50
 70
     1
102
RTVSPost2010Prop51ColorIndex
 90
      256
102
RTVSPost2010Prop51ColorRGB
 90
-16777216
102
RTVSPost2010PropOp51
 70
     0
102
RTVSPost2010Prop52
140
1.0
102
RTVSPost2010PropOp52
 70
     0
102
RTVSPost2010Prop53
 90
        2
102
RTVSPost2010PropOp53
 70
     1
102
RTVSPost2010Prop54
  1
strokes_ogs.tif
102
RTVSPost2010PropOp54
 70
     1
102
RTVSPost2010Prop55
280
     0
102
RTVSPost2010PropOp55
 70
     1
102
RTVSPost2010Prop56
140
1.0
102
RTVSPost2010PropOp56
 70
     1
102
RTVSPost2010Prop57
140
1.0
102
RTVSPost2010PropOp57
 70
     1
  0
XRECORD
  5
394
102
{ACAD_REACTORS
330
393
102
}
330
393
100
AcDbXrecord
280
     1
102
RTVSPropertyOp0
 70
     1
102
RTVSPropertyOp1
 70
     1
102
RTVSPropertyOp2
 70
     1
102
RTVSPropertyOp3
 70
     1
102
RTVSPropertyOp4
 70
     1
102
RTVSPropertyOp5
 70
     1
102
RTVSPropertyOp6
 70
     1
102
RTVSPropertyOp7
 70
     1
102
RTVSPropertyOp8
 70
     1
102
RTVSPropertyOp9
 70
     1
102
RTVSPropertyOp10
 70
     1
102
RTVSPropertyOp11
 70
     1
102
RTVSPropertyOp12
 70
     1
102
RTVSPropertyOp13
 70
     1
102
RTVSPropertyOp14
 70
     1
102
RTVSPropertyOp15
 70
     1
102
RTVSPropertyOp16
 70
     1
102
RTVSPropertyOp17
 70
     1
102
RTVSPropertyOp18
 70
     1
102
RTVSPropertyOp19
 70
     1
102
RTVSPropertyOp20
 70
     1
102
RTVSPropertyOp21
 70
     1
102
RTVSPropertyOp22
 70
     1
102
RTVSPropertyOp23
 70
     1
102
RTVSPropertyOp24
 70
     1
102
RTVSPropertyOp25
 70
     1
102
RTVSPropertyOp26
 70
     1
102
RTVSPropertyOp27
 70
     1
102
RTVSPropertyOp28
 70
     1
102
RTVSPropertyOp29
 70
     1
102
RTVSPropertyOp30
 70
     1
102
RTVSPropertyOp31
 70
     1
102
RTVSPropertyOp32
 70
     1
102
RTVSPropertyOp33
 70
     1
102
RTVSPropertyOp34
 70
     1
102
RTVSPropertyOp35
 70
     1
102
RTVSPropertyOp36
 70
     1
102
RTVSPropertyOp37
 70
     1
102
RTVSPropertyOp38
 70
     1
102
RTVSPropertyOp39
 70
     1
102
RTVSPropertyOp40
 70
     1
102
RTVSPropertyOp41
 70
     1
102
RTVSPropertyOp42
 70
     1
102
RTVSPropertyOp43
 70
     1
102
RTVSPropertyOp44
 70
     1
102
RTVSPropertyOp45
 70
     1
102
RTVSPropertyOp46
 70
     1
102
RTVSPropertyOp47
 70
     1
102
RTVSPropertyOp48
 70
     1
102
RTVSPropertyOp49
 70
     1
102
RTVSPropertyOp50
 70
     1
102
RTVSPropertyOp51
 70
     0
102
RTVSPropertyOp52
 70
     0
102
RTVSPropertyOp53
 70
     1
102
RTVSPropertyOp54
 70
     1
102
RTVSPropertyOp55
 70
     1
102
RTVSPropertyOp56
 70
     1
102
RTVSPropertyOp57
 70
     1
102
RTVSPost2010Prop28
280
     0
102
RTVSPost2010PropOp28
 70
     1
102
RTVSPost2010Prop29
280
     1
102
RTVSPost2010PropOp29
 70
     1
102
RTVSPost2010Prop30
280
     1
102
RTVSPost2010PropOp30
 70
     1
102
RTVSPost2010Prop31
280
     0
102
RTVSPost2010PropOp31
 70
     1
102
RTVSPost2010Prop32
280
     0
102
RTVSPost2010PropOp32
 70
     1
102
RTVSPost2010Prop33
280
     0
102
RTVSPost2010PropOp33
 70
     1
102
RTVSPost2010Prop34
280
     0
102
RTVSPost2010PropOp34
 70
     1
102
RTVSPost2010Prop35
280
     0
102
RTVSPost2010PropOp35
 70
     1
102
RTVSPost2010Prop36
280
     0
102
RTVSPost2010PropOp36
 70
     1
102
RTVSPost2010Prop37
 90
       50
102
RTVSPost2010PropOp37
 70
     1
102
RTVSPost2010Prop38
140
0.0
102
RTVSPost2010PropOp38
 70
     1
102
RTVSPost2010Prop39
140
1.0
102
RTVSPost2010PropOp39
 70
     1
102
RTVSPost2010Prop40
 90
        0
102
RTVSPost2010PropOp40
 70
     1
102
RTVSPost2010Prop41ColorIndex
 90
       18
102
RTVSPost2010Prop41ColorRGB
 90
        0
102
RTVSPost2010PropOp41
 70
     1
102
RTVSPost2010Prop42
 90
       50
102
RTVSPost2010PropOp42
 70
     1
102
RTVSPost2010Prop43
 90
        3
102
RTVSPost2010PropOp43
 70
     1
102
RTVSPost2010Prop44ColorIndex
 90
        5
102
RTVSPost2010Prop44ColorRGB
 90
      255
102
RTVSPost2010PropOp44
 70
     1
102
RTVSPost2010Prop45
280
     0
102
RTVSPost2010PropOp45
 70
     1
102
RTVSPost2010Prop46
 90
       50
102
RTVSPost2010PropOp46
 70
     1
102
RTVSPost2010Prop47
 90
       50
102
RTVSPost2010PropOp47
 70
     1
102
RTVSPost2010Prop48
 90
       50
102
RTVSPost2010PropOp48
 70
     1
102
RTVSPost2010Prop49
280
     0
102
RTVSPost2010PropOp49
 70
     1
102
RTVSPost2010Prop50
 90
       50
102
RTVSPost2010PropOp50
 70
     1
102
RTVSPost2010Prop51ColorIndex
 90
      256
102
RTVSPost2010Prop51ColorRGB
 90
-16777216
102
RTVSPost2010PropOp51
 70
     0
102
RTVSPost2010Prop52
140
1.0
102
RTVSPost2010PropOp52
 70
     0
102
RTVSPost2010Prop53
 90
        2
102
RTVSPost2010PropOp53
 70
     1
102
RTVSPost2010Prop54
  1
strokes_ogs.tif
102
RTVSPost2010PropOp54
 70
     1
102
RTVSPost2010Prop55
280
     0
102
RTVSPost2010PropOp55
 70
     1
102
RTVSPost2010Prop56
140
1.0
102
RTVSPost2010PropOp56
 70
     1
102
RTVSPost2010Prop57
140
1.0
102
RTVSPost2010PropOp57
 70
     1
  0
XRECORD
  5
39A
102
{ACAD_REACTORS
330
399
102
}
330
399
100
AcDbXrecord
280
     1
102
RTVSPropertyOp0
 70
     1
102
RTVSPropertyOp1
 70
     1
102
RTVSPropertyOp2
 70
     1
102
RTVSPropertyOp3
 70
     1
102
RTVSPropertyOp4
 70
     1
102
RTVSPropertyOp5
 70
     1
102
RTVSPropertyOp6
 70
     1
102
RTVSPropertyOp7
 70
     1
102
RTVSPropertyOp8
 70
     1
102
RTVSPropertyOp9
 70
     1
102
RTVSPropertyOp10
 70
     1
102
RTVSPropertyOp11
 70
     1
102
RTVSPropertyOp12
 70
     1
102
RTVSPropertyOp13
 70
     1
102
RTVSPropertyOp14
 70
     1
102
RTVSPropertyOp15
 70
     1
102
RTVSPropertyOp16
 70
     1
102
RTVSPropertyOp17
 70
     1
102
RTVSPropertyOp18
 70
     1
102
RTVSPropertyOp19
 70
     1
102
RTVSPropertyOp20
 70
     1
102
RTVSPropertyOp21
 70
     1
102
RTVSPropertyOp22
 70
     1
102
RTVSPropertyOp23
 70
     1
102
RTVSPropertyOp24
 70
     1
102
RTVSPropertyOp25
 70
     1
102
RTVSPropertyOp26
 70
     1
102
RTVSPropertyOp27
 70
     1
102
RTVSPropertyOp28
 70
     1
102
RTVSPropertyOp29
 70
     1
102
RTVSPropertyOp30
 70
     1
102
RTVSPropertyOp31
 70
     1
102
RTVSPropertyOp32
 70
     1
102
RTVSPropertyOp33
 70
     1
102
RTVSPropertyOp34
 70
     1
102
RTVSPropertyOp35
 70
     1
102
RTVSPropertyOp36
 70
     1
102
RTVSPropertyOp37
 70
     1
102
RTVSPropertyOp38
 70
     1
102
RTVSPropertyOp39
 70
     1
102
RTVSPropertyOp40
 70
     1
102
RTVSPropertyOp41
 70
     1
102
RTVSPropertyOp42
 70
     1
102
RTVSPropertyOp43
 70
     1
102
RTVSPropertyOp44
 70
     1
102
RTVSPropertyOp45
 70
     1
102
RTVSPropertyOp46
 70
     1
102
RTVSPropertyOp47
 70
     1
102
RTVSPropertyOp48
 70
     1
102
RTVSPropertyOp49
 70
     1
102
RTVSPropertyOp50
 70
     1
102
RTVSPropertyOp51
 70
     0
102
RTVSPropertyOp52
 70
     0
102
RTVSPropertyOp53
 70
     1
102
RTVSPropertyOp54
 70
     1
102
RTVSPropertyOp55
 70
     1
102
RTVSPropertyOp56
 70
     1
102
RTVSPropertyOp57
 70
     1
102
RTVSPost2010Prop28
280
     0
102
RTVSPost2010PropOp28
 70
     1
102
RTVSPost2010Prop29
280
     1
102
RTVSPost2010PropOp29
 70
     1
102
RTVSPost2010Prop30
280
     1
102
RTVSPost2010PropOp30
 70
     1
102
RTVSPost2010Prop31
280
     0
102
RTVSPost2010PropOp31
 70
     1
102
RTVSPost2010Prop32
280
     0
102
RTVSPost2010PropOp32
 70
     1
102
RTVSPost2010Prop33
280
     0
102
RTVSPost2010PropOp33
 70
     1
102
RTVSPost2010Prop34
280
     0
102
RTVSPost2010PropOp34
 70
     1
102
RTVSPost2010Prop35
280
     0
102
RTVSPost2010PropOp35
 70
     1
102
RTVSPost2010Prop36
280
     0
102
RTVSPost2010PropOp36
 70
     1
102
RTVSPost2010Prop37
 90
       50
102
RTVSPost2010PropOp37
 70
     1
102
RTVSPost2010Prop38
140
0.0
102
RTVSPost2010PropOp38
 70
     1
102
RTVSPost2010Prop39
140
1.0
102
RTVSPost2010PropOp39
 70
     1
102
RTVSPost2010Prop40
 90
        0
102
RTVSPost2010PropOp40
 70
     1
102
RTVSPost2010Prop41ColorIndex
 90
       18
102
RTVSPost2010Prop41ColorRGB
 90
        0
102
RTVSPost2010PropOp41
 70
     1
102
RTVSPost2010Prop42
 90
       50
102
RTVSPost2010PropOp42
 70
     1
102
RTVSPost2010Prop43
 90
        3
102
RTVSPost2010PropOp43
 70
     1
102
RTVSPost2010Prop44ColorIndex
 90
        5
102
RTVSPost2010Prop44ColorRGB
 90
      255
102
RTVSPost2010PropOp44
 70
     1
102
RTVSPost2010Prop45
280
     0
102
RTVSPost2010PropOp45
 70
     1
102
RTVSPost2010Prop46
 90
       50
102
RTVSPost2010PropOp46
 70
     1
102
RTVSPost2010Prop47
 90
       50
102
RTVSPost2010PropOp47
 70
     1
102
RTVSPost2010Prop48
 90
       50
102
RTVSPost2010PropOp48
 70
     1
102
RTVSPost2010Prop49
280
     0
102
RTVSPost2010PropOp49
 70
     1
102
RTVSPost2010Prop50
 90
       50
102
RTVSPost2010PropOp50
 70
     1
102
RTVSPost2010Prop51ColorIndex
 90
      256
102
RTVSPost2010Prop51ColorRGB
 90
-16777216
102
RTVSPost2010PropOp51
 70
     0
102
RTVSPost2010Prop52
140
1.0
102
RTVSPost2010PropOp52
 70
     0
102
RTVSPost2010Prop53
 90
        2
102
RTVSPost2010PropOp53
 70
     1
102
RTVSPost2010Prop54
  1
strokes_ogs.tif
102
RTVSPost2010PropOp54
 70
     1
102
RTVSPost2010Prop55
280
     0
102
RTVSPost2010PropOp55
 70
     1
102
RTVSPost2010Prop56
140
1.0
102
RTVSPost2010PropOp56
 70
     1
102
RTVSPost2010Prop57
140
1.0
102
RTVSPost2010PropOp57
 70
     1
  0
XRECORD
  5
3AE
102
{ACAD_REACTORS
330
3AD
102
}
330
3AD
100
AcDbXrecord
280
     1
102
RTVSPropertyOp0
 70
     0
102
RTVSPropertyOp1
 70
     0
102
RTVSPropertyOp2
 70
     0
102
RTVSPropertyOp3
 70
     0
102
RTVSPropertyOp4
 70
     0
102
RTVSPropertyOp5
 70
     0
102
RTVSPropertyOp6
 70
     0
102
RTVSPropertyOp7
 70
     0
102
RTVSPropertyOp8
 70
     0
102
RTVSPropertyOp9
 70
     0
102
RTVSPropertyOp10
 70
     0
102
RTVSPropertyOp11
 70
     0
102
RTVSPropertyOp12
 70
     0
102
RTVSPropertyOp13
 70
     0
102
RTVSPropertyOp14
 70
     2
102
RTVSPropertyOp15
 70
     0
102
RTVSPropertyOp16
 70
     0
102
RTVSPropertyOp17
 70
     0
102
RTVSPropertyOp18
 70
     0
102
RTVSPropertyOp19
 70
     0
102
RTVSPropertyOp20
 70
     0
102
RTVSPropertyOp21
 70
     0
102
RTVSPropertyOp22
 70
     0
102
RTVSPropertyOp23
 70
     0
102
RTVSPropertyOp24
 70
     0
102
RTVSPropertyOp25
 70
     0
102
RTVSPropertyOp26
 70
     0
102
RTVSPropertyOp27
 70
     0
102
RTVSPropertyOp28
 70
     0
102
RTVSPropertyOp29
 70
     0
102
RTVSPropertyOp30
 70
     0
102
RTVSPropertyOp31
 70
     0
102
RTVSPropertyOp32
 70
     0
102
RTVSPropertyOp33
 70
     0
102
RTVSPropertyOp34
 70
     0
102
RTVSPropertyOp35
 70
     0
102
RTVSPropertyOp36
 70
     0
102
RTVSPropertyOp37
 70
     0
102
RTVSPropertyOp38
 70
     0
102
RTVSPropertyOp39
 70
     0
102
RTVSPropertyOp40
 70
     0
102
RTVSPropertyOp41
 70
     0
102
RTVSPropertyOp42
 70
     0
102
RTVSPropertyOp43
 70
     0
102
RTVSPropertyOp44
 70
     0
102
RTVSPropertyOp45
 70
     0
102
RTVSPropertyOp46
 70
     0
102
RTVSPropertyOp47
 70
     0
102
RTVSPropertyOp48
 70
     0
102
RTVSPropertyOp49
 70
     0
102
RTVSPropertyOp50
 70
     0
102
RTVSPropertyOp51
 70
     0
102
RTVSPropertyOp52
 70
     0
102
RTVSPropertyOp53
 70
     0
102
RTVSPropertyOp54
 70
     0
102
RTVSPropertyOp55
 70
     0
102
RTVSPropertyOp56
 70
     0
102
RTVSPropertyOp57
 70
     0
102
RTVSPost2010Prop28
280
     0
102
RTVSPost2010PropOp28
 70
     0
102
RTVSPost2010Prop29
280
     1
102
RTVSPost2010PropOp29
 70
     0
102
RTVSPost2010Prop30
280
     1
102
RTVSPost2010PropOp30
 70
     0
102
RTVSPost2010Prop31
280
     0
102
RTVSPost2010PropOp31
 70
     0
102
RTVSPost2010Prop32
280
     0
102
RTVSPost2010PropOp32
 70
     0
102
RTVSPost2010Prop33
280
     0
102
RTVSPost2010PropOp33
 70
     0
102
RTVSPost2010Prop34
280
     0
102
RTVSPost2010PropOp34
 70
     0
102
RTVSPost2010Prop35
280
     0
102
RTVSPost2010PropOp35
 70
     0
102
RTVSPost2010Prop36
280
     0
102
RTVSPost2010PropOp36
 70
     0
102
RTVSPost2010Prop37
 90
       50
102
RTVSPost2010PropOp37
 70
     0
102
RTVSPost2010Prop38
140
0.0
102
RTVSPost2010PropOp38
 70
     0
102
RTVSPost2010Prop39
140
1.0
102
RTVSPost2010PropOp39
 70
     0
102
RTVSPost2010Prop40
 90
        0
102
RTVSPost2010PropOp40
 70
     0
102
RTVSPost2010Prop41ColorIndex
 90
       18
102
RTVSPost2010Prop41ColorRGB
 90
        0
102
RTVSPost2010PropOp41
 70
     0
102
RTVSPost2010Prop42
 90
       50
102
RTVSPost2010PropOp42
 70
     0
102
RTVSPost2010Prop43
 90
        3
102
RTVSPost2010PropOp43
 70
     0
102
RTVSPost2010Prop44ColorIndex
 90
        5
102
RTVSPost2010Prop44ColorRGB
 90
      255
102
RTVSPost2010PropOp44
 70
     0
102
RTVSPost2010Prop45
280
     0
102
RTVSPost2010PropOp45
 70
     0
102
RTVSPost2010Prop46
 90
       50
102
RTVSPost2010PropOp46
 70
     0
102
RTVSPost2010Prop47
 90
       50
102
RTVSPost2010PropOp47
 70
     0
102
RTVSPost2010Prop48
 90
       50
102
RTVSPost2010PropOp48
 70
     0
102
RTVSPost2010Prop49
280
     0
102
RTVSPost2010PropOp49
 70
     0
102
RTVSPost2010Prop50
 90
       50
102
RTVSPost2010PropOp50
 70
     0
102
RTVSPost2010Prop51ColorIndex
 90
      256
102
RTVSPost2010Prop51ColorRGB
 90
-16777216
102
RTVSPost2010PropOp51
 70
     0
102
RTVSPost2010Prop52
140
1.0
102
RTVSPost2010PropOp52
 70
     0
102
RTVSPost2010Prop53
 90
        2
102
RTVSPost2010PropOp53
 70
     0
102
RTVSPost2010Prop54
  1
strokes_ogs.tif
102
RTVSPost2010PropOp54
 70
     0
102
RTVSPost2010Prop55
280
     0
102
RTVSPost2010PropOp55
 70
     0
102
RTVSPost2010Prop56
140
1.0
102
RTVSPost2010PropOp56
 70
     0
102
RTVSPost2010Prop57
140
1.0
102
RTVSPost2010PropOp57
 70
     0
  0
XRECORD
  5
3A8
102
{ACAD_REACTORS
330
3A7
102
}
330
3A7
100
AcDbXrecord
280
     1
102
RTVSPropertyOp0
 70
     1
102
RTVSPropertyOp1
 70
     1
102
RTVSPropertyOp2
 70
     1
102
RTVSPropertyOp3
 70
     1
102
RTVSPropertyOp4
 70
     1
102
RTVSPropertyOp5
 70
     1
102
RTVSPropertyOp6
 70
     1
102
RTVSPropertyOp7
 70
     1
102
RTVSPropertyOp8
 70
     1
102
RTVSPropertyOp9
 70
     1
102
RTVSPropertyOp10
 70
     1
102
RTVSPropertyOp11
 70
     1
102
RTVSPropertyOp12
 70
     1
102
RTVSPropertyOp13
 70
     1
102
RTVSPropertyOp14
 70
     1
102
RTVSPropertyOp15
 70
     1
102
RTVSPropertyOp16
 70
     1
102
RTVSPropertyOp17
 70
     1
102
RTVSPropertyOp18
 70
     1
102
RTVSPropertyOp19
 70
     1
102
RTVSPropertyOp20
 70
     1
102
RTVSPropertyOp21
 70
     1
102
RTVSPropertyOp22
 70
     1
102
RTVSPropertyOp23
 70
     1
102
RTVSPropertyOp24
 70
     1
102
RTVSPropertyOp25
 70
     1
102
RTVSPropertyOp26
 70
     1
102
RTVSPropertyOp27
 70
     1
102
RTVSPropertyOp28
 70
     1
102
RTVSPropertyOp29
 70
     1
102
RTVSPropertyOp30
 70
     1
102
RTVSPropertyOp31
 70
     1
102
RTVSPropertyOp32
 70
     1
102
RTVSPropertyOp33
 70
     1
102
RTVSPropertyOp34
 70
     1
102
RTVSPropertyOp35
 70
     1
102
RTVSPropertyOp36
 70
     1
102
RTVSPropertyOp37
 70
     1
102
RTVSPropertyOp38
 70
     1
102
RTVSPropertyOp39
 70
     1
102
RTVSPropertyOp40
 70
     1
102
RTVSPropertyOp41
 70
     1
102
RTVSPropertyOp42
 70
     1
102
RTVSPropertyOp43
 70
     1
102
RTVSPropertyOp44
 70
     1
102
RTVSPropertyOp45
 70
     1
102
RTVSPropertyOp46
 70
     1
102
RTVSPropertyOp47
 70
     1
102
RTVSPropertyOp48
 70
     1
102
RTVSPropertyOp49
 70
     1
102
RTVSPropertyOp50
 70
     1
102
RTVSPropertyOp51
 70
     0
102
RTVSPropertyOp52
 70
     0
102
RTVSPropertyOp53
 70
     1
102
RTVSPropertyOp54
 70
     1
102
RTVSPropertyOp55
 70
     1
102
RTVSPropertyOp56
 70
     1
102
RTVSPropertyOp57
 70
     1
102
RTVSPost2010Prop28
280
     0
102
RTVSPost2010PropOp28
 70
     1
102
RTVSPost2010Prop29
280
     1
102
RTVSPost2010PropOp29
 70
     1
102
RTVSPost2010Prop30
280
     1
102
RTVSPost2010PropOp30
 70
     1
102
RTVSPost2010Prop31
280
     0
102
RTVSPost2010PropOp31
 70
     1
102
RTVSPost2010Prop32
280
     0
102
RTVSPost2010PropOp32
 70
     1
102
RTVSPost2010Prop33
280
     0
102
RTVSPost2010PropOp33
 70
     1
102
RTVSPost2010Prop34
280
     0
102
RTVSPost2010PropOp34
 70
     1
102
RTVSPost2010Prop35
280
     0
102
RTVSPost2010PropOp35
 70
     1
102
RTVSPost2010Prop36
280
     0
102
RTVSPost2010PropOp36
 70
     1
102
RTVSPost2010Prop37
 90
       50
102
RTVSPost2010PropOp37
 70
     1
102
RTVSPost2010Prop38
140
0.0
102
RTVSPost2010PropOp38
 70
     1
102
RTVSPost2010Prop39
140
1.0
102
RTVSPost2010PropOp39
 70
     1
102
RTVSPost2010Prop40
 90
        0
102
RTVSPost2010PropOp40
 70
     1
102
RTVSPost2010Prop41ColorIndex
 90
       18
102
RTVSPost2010Prop41ColorRGB
 90
        0
102
RTVSPost2010PropOp41
 70
     1
102
RTVSPost2010Prop42
 90
       50
102
RTVSPost2010PropOp42
 70
     1
102
RTVSPost2010Prop43
 90
        3
102
RTVSPost2010PropOp43
 70
     1
102
RTVSPost2010Prop44ColorIndex
 90
        5
102
RTVSPost2010Prop44ColorRGB
 90
      255
102
RTVSPost2010PropOp44
 70
     1
102
RTVSPost2010Prop45
280
     0
102
RTVSPost2010PropOp45
 70
     1
102
RTVSPost2010Prop46
 90
       50
102
RTVSPost2010PropOp46
 70
     1
102
RTVSPost2010Prop47
 90
       50
102
RTVSPost2010PropOp47
 70
     1
102
RTVSPost2010Prop48
 90
       50
102
RTVSPost2010PropOp48
 70
     1
102
RTVSPost2010Prop49
280
     0
102
RTVSPost2010PropOp49
 70
     1
102
RTVSPost2010Prop50
 90
       50
102
RTVSPost2010PropOp50
 70
     1
102
RTVSPost2010Prop51ColorIndex
 90
      256
102
RTVSPost2010Prop51ColorRGB
 90
-16777216
102
RTVSPost2010PropOp51
 70
     0
102
RTVSPost2010Prop52
140
1.0
102
RTVSPost2010PropOp52
 70
     0
102
RTVSPost2010Prop53
 90
        2
102
RTVSPost2010PropOp53
 70
     1
102
RTVSPost2010Prop54
  1
strokes_ogs.tif
102
RTVSPost2010PropOp54
 70
     1
102
RTVSPost2010Prop55
280
     0
102
RTVSPost2010PropOp55
 70
     1
102
RTVSPost2010Prop56
140
1.0
102
RTVSPost2010PropOp56
 70
     1
102
RTVSPost2010Prop57
140
1.0
102
RTVSPost2010PropOp57
 70
     1
  0
XRECORD
  5
3B0
102
{ACAD_REACTORS
330
3AF
102
}
330
3AF
100
AcDbXrecord
280
     1
102
RTVSPropertyOp0
 70
     0
102
RTVSPropertyOp1
 70
     0
102
RTVSPropertyOp2
 70
     0
102
RTVSPropertyOp3
 70
     0
102
RTVSPropertyOp4
 70
     0
102
RTVSPropertyOp5
 70
     0
102
RTVSPropertyOp6
 70
     0
102
RTVSPropertyOp7
 70
     0
102
RTVSPropertyOp8
 70
     0
102
RTVSPropertyOp9
 70
     0
102
RTVSPropertyOp10
 70
     0
102
RTVSPropertyOp11
 70
     0
102
RTVSPropertyOp12
 70
     0
102
RTVSPropertyOp13
 70
     0
102
RTVSPropertyOp14
 70
     2
102
RTVSPropertyOp15
 70
     0
102
RTVSPropertyOp16
 70
     0
102
RTVSPropertyOp17
 70
     0
102
RTVSPropertyOp18
 70
     0
102
RTVSPropertyOp19
 70
     0
102
RTVSPropertyOp20
 70
     0
102
RTVSPropertyOp21
 70
     0
102
RTVSPropertyOp22
 70
     0
102
RTVSPropertyOp23
 70
     0
102
RTVSPropertyOp24
 70
     0
102
RTVSPropertyOp25
 70
     0
102
RTVSPropertyOp26
 70
     0
102
RTVSPropertyOp27
 70
     0
102
RTVSPropertyOp28
 70
     0
102
RTVSPropertyOp29
 70
     0
102
RTVSPropertyOp30
 70
     0
102
RTVSPropertyOp31
 70
     0
102
RTVSPropertyOp32
 70
     0
102
RTVSPropertyOp33
 70
     0
102
RTVSPropertyOp34
 70
     0
102
RTVSPropertyOp35
 70
     0
102
RTVSPropertyOp36
 70
     0
102
RTVSPropertyOp37
 70
     0
102
RTVSPropertyOp38
 70
     0
102
RTVSPropertyOp39
 70
     0
102
RTVSPropertyOp40
 70
     0
102
RTVSPropertyOp41
 70
     0
102
RTVSPropertyOp42
 70
     0
102
RTVSPropertyOp43
 70
     0
102
RTVSPropertyOp44
 70
     0
102
RTVSPropertyOp45
 70
     0
102
RTVSPropertyOp46
 70
     0
102
RTVSPropertyOp47
 70
     0
102
RTVSPropertyOp48
 70
     0
102
RTVSPropertyOp49
 70
     0
102
RTVSPropertyOp50
 70
     0
102
RTVSPropertyOp51
 70
     0
102
RTVSPropertyOp52
 70
     0
102
RTVSPropertyOp53
 70
     0
102
RTVSPropertyOp54
 70
     0
102
RTVSPropertyOp55
 70
     0
102
RTVSPropertyOp56
 70
     0
102
RTVSPropertyOp57
 70
     0
102
RTVSPost2010Prop28
280
     0
102
RTVSPost2010PropOp28
 70
     0
102
RTVSPost2010Prop29
280
     1
102
RTVSPost2010PropOp29
 70
     0
102
RTVSPost2010Prop30
280
     1
102
RTVSPost2010PropOp30
 70
     0
102
RTVSPost2010Prop31
280
     0
102
RTVSPost2010PropOp31
 70
     0
102
RTVSPost2010Prop32
280
     0
102
RTVSPost2010PropOp32
 70
     0
102
RTVSPost2010Prop33
280
     0
102
RTVSPost2010PropOp33
 70
     0
102
RTVSPost2010Prop34
280
     0
102
RTVSPost2010PropOp34
 70
     0
102
RTVSPost2010Prop35
280
     0
102
RTVSPost2010PropOp35
 70
     0
102
RTVSPost2010Prop36
280
     0
102
RTVSPost2010PropOp36
 70
     0
102
RTVSPost2010Prop37
 90
       50
102
RTVSPost2010PropOp37
 70
     0
102
RTVSPost2010Prop38
140
0.0
102
RTVSPost2010PropOp38
 70
     0
102
RTVSPost2010Prop39
140
1.0
102
RTVSPost2010PropOp39
 70
     0
102
RTVSPost2010Prop40
 90
        0
102
RTVSPost2010PropOp40
 70
     0
102
RTVSPost2010Prop41ColorIndex
 90
       18
102
RTVSPost2010Prop41ColorRGB
 90
        0
102
RTVSPost2010PropOp41
 70
     0
102
RTVSPost2010Prop42
 90
       50
102
RTVSPost2010PropOp42
 70
     0
102
RTVSPost2010Prop43
 90
        3
102
RTVSPost2010PropOp43
 70
     0
102
RTVSPost2010Prop44ColorIndex
 90
        5
102
RTVSPost2010Prop44ColorRGB
 90
      255
102
RTVSPost2010PropOp44
 70
     0
102
RTVSPost2010Prop45
280
     0
102
RTVSPost2010PropOp45
 70
     0
102
RTVSPost2010Prop46
 90
       50
102
RTVSPost2010PropOp46
 70
     0
102
RTVSPost2010Prop47
 90
       50
102
RTVSPost2010PropOp47
 70
     0
102
RTVSPost2010Prop48
 90
       50
102
RTVSPost2010PropOp48
 70
     0
102
RTVSPost2010Prop49
280
     0
102
RTVSPost2010PropOp49
 70
     0
102
RTVSPost2010Prop50
 90
       50
102
RTVSPost2010PropOp50
 70
     0
102
RTVSPost2010Prop51ColorIndex
 90
      256
102
RTVSPost2010Prop51ColorRGB
 90
-16777216
102
RTVSPost2010PropOp51
 70
     0
102
RTVSPost2010Prop52
140
1.0
102
RTVSPost2010PropOp52
 70
     0
102
RTVSPost2010Prop53
 90
        2
102
RTVSPost2010PropOp53
 70
     0
102
RTVSPost2010Prop54
  1
strokes_ogs.tif
102
RTVSPost2010PropOp54
 70
     0
102
RTVSPost2010Prop55
280
     0
102
RTVSPost2010PropOp55
 70
     0
102
RTVSPost2010Prop56
140
1.0
102
RTVSPost2010PropOp56
 70
     0
102
RTVSPost2010Prop57
140
1.0
102
RTVSPost2010PropOp57
 70
     0
  0
XRECORD
  5
39E
102
{ACAD_REACTORS
330
39D
102
}
330
39D
100
AcDbXrecord
280
     1
102
RTVSPropertyOp0
 70
     1
102
RTVSPropertyOp1
 70
     1
102
RTVSPropertyOp2
 70
     1
102
RTVSPropertyOp3
 70
     1
102
RTVSPropertyOp4
 70
     1
102
RTVSPropertyOp5
 70
     1
102
RTVSPropertyOp6
 70
     1
102
RTVSPropertyOp7
 70
     1
102
RTVSPropertyOp8
 70
     1
102
RTVSPropertyOp9
 70
     1
102
RTVSPropertyOp10
 70
     1
102
RTVSPropertyOp11
 70
     1
102
RTVSPropertyOp12
 70
     1
102
RTVSPropertyOp13
 70
     1
102
RTVSPropertyOp14
 70
     1
102
RTVSPropertyOp15
 70
     1
102
RTVSPropertyOp16
 70
     1
102
RTVSPropertyOp17
 70
     1
102
RTVSPropertyOp18
 70
     1
102
RTVSPropertyOp19
 70
     1
102
RTVSPropertyOp20
 70
     1
102
RTVSPropertyOp21
 70
     1
102
RTVSPropertyOp22
 70
     1
102
RTVSPropertyOp23
 70
     1
102
RTVSPropertyOp24
 70
     1
102
RTVSPropertyOp25
 70
     1
102
RTVSPropertyOp26
 70
     1
102
RTVSPropertyOp27
 70
     1
102
RTVSPropertyOp28
 70
     1
102
RTVSPropertyOp29
 70
     1
102
RTVSPropertyOp30
 70
     1
102
RTVSPropertyOp31
 70
     1
102
RTVSPropertyOp32
 70
     1
102
RTVSPropertyOp33
 70
     1
102
RTVSPropertyOp34
 70
     1
102
RTVSPropertyOp35
 70
     1
102
RTVSPropertyOp36
 70
     1
102
RTVSPropertyOp37
 70
     1
102
RTVSPropertyOp38
 70
     1
102
RTVSPropertyOp39
 70
     1
102
RTVSPropertyOp40
 70
     1
102
RTVSPropertyOp41
 70
     1
102
RTVSPropertyOp42
 70
     1
102
RTVSPropertyOp43
 70
     1
102
RTVSPropertyOp44
 70
     1
102
RTVSPropertyOp45
 70
     1
102
RTVSPropertyOp46
 70
     1
102
RTVSPropertyOp47
 70
     1
102
RTVSPropertyOp48
 70
     1
102
RTVSPropertyOp49
 70
     1
102
RTVSPropertyOp50
 70
     1
102
RTVSPropertyOp51
 70
     0
102
RTVSPropertyOp52
 70
     0
102
RTVSPropertyOp53
 70
     1
102
RTVSPropertyOp54
 70
     1
102
RTVSPropertyOp55
 70
     1
102
RTVSPropertyOp56
 70
     1
102
RTVSPropertyOp57
 70
     1
102
RTVSPost2010Prop28
280
     0
102
RTVSPost2010PropOp28
 70
     1
102
RTVSPost2010Prop29
280
     1
102
RTVSPost2010PropOp29
 70
     1
102
RTVSPost2010Prop30
280
     1
102
RTVSPost2010PropOp30
 70
     1
102
RTVSPost2010Prop31
280
     0
102
RTVSPost2010PropOp31
 70
     1
102
RTVSPost2010Prop32
280
     0
102
RTVSPost2010PropOp32
 70
     1
102
RTVSPost2010Prop33
280
     0
102
RTVSPost2010PropOp33
 70
     1
102
RTVSPost2010Prop34
280
     0
102
RTVSPost2010PropOp34
 70
     1
102
RTVSPost2010Prop35
280
     0
102
RTVSPost2010PropOp35
 70
     1
102
RTVSPost2010Prop36
280
     0
102
RTVSPost2010PropOp36
 70
     1
102
RTVSPost2010Prop37
 90
       50
102
RTVSPost2010PropOp37
 70
     1
102
RTVSPost2010Prop38
140
0.0
102
RTVSPost2010PropOp38
 70
     1
102
RTVSPost2010Prop39
140
1.0
102
RTVSPost2010PropOp39
 70
     1
102
RTVSPost2010Prop40
 90
        0
102
RTVSPost2010PropOp40
 70
     1
102
RTVSPost2010Prop41ColorIndex
 90
       18
102
RTVSPost2010Prop41ColorRGB
 90
        0
102
RTVSPost2010PropOp41
 70
     1
102
RTVSPost2010Prop42
 90
       50
102
RTVSPost2010PropOp42
 70
     1
102
RTVSPost2010Prop43
 90
        3
102
RTVSPost2010PropOp43
 70
     1
102
RTVSPost2010Prop44ColorIndex
 90
        5
102
RTVSPost2010Prop44ColorRGB
 90
      255
102
RTVSPost2010PropOp44
 70
     1
102
RTVSPost2010Prop45
280
     0
102
RTVSPost2010PropOp45
 70
     1
102
RTVSPost2010Prop46
 90
       50
102
RTVSPost2010PropOp46
 70
     1
102
RTVSPost2010Prop47
 90
       50
102
RTVSPost2010PropOp47
 70
     1
102
RTVSPost2010Prop48
 90
       50
102
RTVSPost2010PropOp48
 70
     1
102
RTVSPost2010Prop49
280
     0
102
RTVSPost2010PropOp49
 70
     1
102
RTVSPost2010Prop50
 90
       50
102
RTVSPost2010PropOp50
 70
     1
102
RTVSPost2010Prop51ColorIndex
 90
      256
102
RTVSPost2010Prop51ColorRGB
 90
-16777216
102
RTVSPost2010PropOp51
 70
     0
102
RTVSPost2010Prop52
140
1.0
102
RTVSPost2010PropOp52
 70
     0
102
RTVSPost2010Prop53
 90
        2
102
RTVSPost2010PropOp53
 70
     1
102
RTVSPost2010Prop54
  1
strokes_ogs.tif
102
RTVSPost2010PropOp54
 70
     1
102
RTVSPost2010Prop55
280
     0
102
RTVSPost2010PropOp55
 70
     1
102
RTVSPost2010Prop56
140
1.0
102
RTVSPost2010PropOp56
 70
     1
102
RTVSPost2010Prop57
140
1.0
102
RTVSPost2010PropOp57
 70
     1
  0
XRECORD
  5
3BC
102
{ACAD_REACTORS
330
3BB
102
}
330
3BB
100
AcDbXrecord
280
     1
102
RTVSPropertyOp0
 70
     1
102
RTVSPropertyOp1
 70
     1
102
RTVSPropertyOp2
 70
     1
102
RTVSPropertyOp3
 70
     1
102
RTVSPropertyOp4
 70
     1
102
RTVSPropertyOp5
 70
     1
102
RTVSPropertyOp6
 70
     1
102
RTVSPropertyOp7
 70
     1
102
RTVSPropertyOp8
 70
     1
102
RTVSPropertyOp9
 70
     1
102
RTVSPropertyOp10
 70
     1
102
RTVSPropertyOp11
 70
     1
102
RTVSPropertyOp12
 70
     1
102
RTVSPropertyOp13
 70
     1
102
RTVSPropertyOp14
 70
     1
102
RTVSPropertyOp15
 70
     1
102
RTVSPropertyOp16
 70
     1
102
RTVSPropertyOp17
 70
     1
102
RTVSPropertyOp18
 70
     1
102
RTVSPropertyOp19
 70
     1
102
RTVSPropertyOp20
 70
     1
102
RTVSPropertyOp21
 70
     1
102
RTVSPropertyOp22
 70
     1
102
RTVSPropertyOp23
 70
     1
102
RTVSPropertyOp24
 70
     1
102
RTVSPropertyOp25
 70
     1
102
RTVSPropertyOp26
 70
     1
102
RTVSPropertyOp27
 70
     1
102
RTVSPropertyOp28
 70
     1
102
RTVSPropertyOp29
 70
     1
102
RTVSPropertyOp30
 70
     1
102
RTVSPropertyOp31
 70
     1
102
RTVSPropertyOp32
 70
     1
102
RTVSPropertyOp33
 70
     1
102
RTVSPropertyOp34
 70
     1
102
RTVSPropertyOp35
 70
     1
102
RTVSPropertyOp36
 70
     1
102
RTVSPropertyOp37
 70
     1
102
RTVSPropertyOp38
 70
     1
102
RTVSPropertyOp39
 70
     1
102
RTVSPropertyOp40
 70
     1
102
RTVSPropertyOp41
 70
     1
102
RTVSPropertyOp42
 70
     1
102
RTVSPropertyOp43
 70
     1
102
RTVSPropertyOp44
 70
     1
102
RTVSPropertyOp45
 70
     1
102
RTVSPropertyOp46
 70
     1
102
RTVSPropertyOp47
 70
     1
102
RTVSPropertyOp48
 70
     1
102
RTVSPropertyOp49
 70
     1
102
RTVSPropertyOp50
 70
     1
102
RTVSPropertyOp51
 70
     0
102
RTVSPropertyOp52
 70
     0
102
RTVSPropertyOp53
 70
     1
102
RTVSPropertyOp54
 70
     1
102
RTVSPropertyOp55
 70
     1
102
RTVSPropertyOp56
 70
     1
102
RTVSPropertyOp57
 70
     1
102
RTVSPost2010Prop28
280
     0
102
RTVSPost2010PropOp28
 70
     1
102
RTVSPost2010Prop29
280
     1
102
RTVSPost2010PropOp29
 70
     1
102
RTVSPost2010Prop30
280
     1
102
RTVSPost2010PropOp30
 70
     1
102
RTVSPost2010Prop31
280
     0
102
RTVSPost2010PropOp31
 70
     1
102
RTVSPost2010Prop32
280
     0
102
RTVSPost2010PropOp32
 70
     1
102
RTVSPost2010Prop33
280
     0
102
RTVSPost2010PropOp33
 70
     1
102
RTVSPost2010Prop34
280
     0
102
RTVSPost2010PropOp34
 70
     1
102
RTVSPost2010Prop35
280
     0
102
RTVSPost2010PropOp35
 70
     1
102
RTVSPost2010Prop36
280
     0
102
RTVSPost2010PropOp36
 70
     1
102
RTVSPost2010Prop37
 90
       50
102
RTVSPost2010PropOp37
 70
     1
102
RTVSPost2010Prop38
140
0.0
102
RTVSPost2010PropOp38
 70
     1
102
RTVSPost2010Prop39
140
1.0
102
RTVSPost2010PropOp39
 70
     1
102
RTVSPost2010Prop40
 90
        0
102
RTVSPost2010PropOp40
 70
     1
102
RTVSPost2010Prop41ColorIndex
 90
       18
102
RTVSPost2010Prop41ColorRGB
 90
        0
102
RTVSPost2010PropOp41
 70
     1
102
RTVSPost2010Prop42
 90
       50
102
RTVSPost2010PropOp42
 70
     1
102
RTVSPost2010Prop43
 90
        3
102
RTVSPost2010PropOp43
 70
     1
102
RTVSPost2010Prop44ColorIndex
 90
        5
102
RTVSPost2010Prop44ColorRGB
 90
      255
102
RTVSPost2010PropOp44
 70
     1
102
RTVSPost2010Prop45
280
     0
102
RTVSPost2010PropOp45
 70
     1
102
RTVSPost2010Prop46
 90
       50
102
RTVSPost2010PropOp46
 70
     1
102
RTVSPost2010Prop47
 90
       50
102
RTVSPost2010PropOp47
 70
     1
102
RTVSPost2010Prop48
 90
       50
102
RTVSPost2010PropOp48
 70
     1
102
RTVSPost2010Prop49
280
     0
102
RTVSPost2010PropOp49
 70
     1
102
RTVSPost2010Prop50
 90
       50
102
RTVSPost2010PropOp50
 70
     1
102
RTVSPost2010Prop51ColorIndex
 90
      256
102
RTVSPost2010Prop51ColorRGB
 90
-16777216
102
RTVSPost2010PropOp51
 70
     0
102
RTVSPost2010Prop52
140
1.0
102
RTVSPost2010PropOp52
 70
     0
102
RTVSPost2010Prop53
 90
        2
102
RTVSPost2010PropOp53
 70
     1
102
RTVSPost2010Prop54
  1
strokes_ogs.tif
102
RTVSPost2010PropOp54
 70
     1
102
RTVSPost2010Prop55
280
     0
102
RTVSPost2010PropOp55
 70
     1
102
RTVSPost2010Prop56
140
1.0
102
RTVSPost2010PropOp56
 70
     1
102
RTVSPost2010Prop57
140
1.0
102
RTVSPost2010PropOp57
 70
     1
  0
XRECORD
  5
3BA
102
{ACAD_REACTORS
330
3B9
102
}
330
3B9
100
AcDbXrecord
280
     1
102
RTVSPropertyOp0
 70
     1
102
RTVSPropertyOp1
 70
     1
102
RTVSPropertyOp2
 70
     1
102
RTVSPropertyOp3
 70
     1
102
RTVSPropertyOp4
 70
     1
102
RTVSPropertyOp5
 70
     1
102
RTVSPropertyOp6
 70
     1
102
RTVSPropertyOp7
 70
     1
102
RTVSPropertyOp8
 70
     1
102
RTVSPropertyOp9
 70
     1
102
RTVSPropertyOp10
 70
     1
102
RTVSPropertyOp11
 70
     1
102
RTVSPropertyOp12
 70
     1
102
RTVSPropertyOp13
 70
     1
102
RTVSPropertyOp14
 70
     1
102
RTVSPropertyOp15
 70
     1
102
RTVSPropertyOp16
 70
     1
102
RTVSPropertyOp17
 70
     1
102
RTVSPropertyOp18
 70
     1
102
RTVSPropertyOp19
 70
     1
102
RTVSPropertyOp20
 70
     1
102
RTVSPropertyOp21
 70
     1
102
RTVSPropertyOp22
 70
     1
102
RTVSPropertyOp23
 70
     1
102
RTVSPropertyOp24
 70
     1
102
RTVSPropertyOp25
 70
     1
102
RTVSPropertyOp26
 70
     1
102
RTVSPropertyOp27
 70
     1
102
RTVSPropertyOp28
 70
     1
102
RTVSPropertyOp29
 70
     1
102
RTVSPropertyOp30
 70
     1
102
RTVSPropertyOp31
 70
     1
102
RTVSPropertyOp32
 70
     1
102
RTVSPropertyOp33
 70
     1
102
RTVSPropertyOp34
 70
     1
102
RTVSPropertyOp35
 70
     1
102
RTVSPropertyOp36
 70
     1
102
RTVSPropertyOp37
 70
     1
102
RTVSPropertyOp38
 70
     1
102
RTVSPropertyOp39
 70
     1
102
RTVSPropertyOp40
 70
     1
102
RTVSPropertyOp41
 70
     1
102
RTVSPropertyOp42
 70
     1
102
RTVSPropertyOp43
 70
     1
102
RTVSPropertyOp44
 70
     1
102
RTVSPropertyOp45
 70
     1
102
RTVSPropertyOp46
 70
     1
102
RTVSPropertyOp47
 70
     1
102
RTVSPropertyOp48
 70
     1
102
RTVSPropertyOp49
 70
     1
102
RTVSPropertyOp50
 70
     1
102
RTVSPropertyOp51
 70
     0
102
RTVSPropertyOp52
 70
     0
102
RTVSPropertyOp53
 70
     1
102
RTVSPropertyOp54
 70
     1
102
RTVSPropertyOp55
 70
     1
102
RTVSPropertyOp56
 70
     1
102
RTVSPropertyOp57
 70
     1
102
RTVSPost2010Prop28
280
     0
102
RTVSPost2010PropOp28
 70
     1
102
RTVSPost2010Prop29
280
     1
102
RTVSPost2010PropOp29
 70
     1
102
RTVSPost2010Prop30
280
     1
102
RTVSPost2010PropOp30
 70
     1
102
RTVSPost2010Prop31
280
     0
102
RTVSPost2010PropOp31
 70
     1
102
RTVSPost2010Prop32
280
     0
102
RTVSPost2010PropOp32
 70
     1
102
RTVSPost2010Prop33
280
     0
102
RTVSPost2010PropOp33
 70
     1
102
RTVSPost2010Prop34
280
     0
102
RTVSPost2010PropOp34
 70
     1
102
RTVSPost2010Prop35
280
     0
102
RTVSPost2010PropOp35
 70
     1
102
RTVSPost2010Prop36
280
     0
102
RTVSPost2010PropOp36
 70
     1
102
RTVSPost2010Prop37
 90
       50
102
RTVSPost2010PropOp37
 70
     1
102
RTVSPost2010Prop38
140
0.0
102
RTVSPost2010PropOp38
 70
     1
102
RTVSPost2010Prop39
140
1.0
102
RTVSPost2010PropOp39
 70
     1
102
RTVSPost2010Prop40
 90
        0
102
RTVSPost2010PropOp40
 70
     1
102
RTVSPost2010Prop41ColorIndex
 90
       18
102
RTVSPost2010Prop41ColorRGB
 90
        0
102
RTVSPost2010PropOp41
 70
     1
102
RTVSPost2010Prop42
 90
       50
102
RTVSPost2010PropOp42
 70
     1
102
RTVSPost2010Prop43
 90
        3
102
RTVSPost2010PropOp43
 70
     1
102
RTVSPost2010Prop44ColorIndex
 90
        5
102
RTVSPost2010Prop44ColorRGB
 90
      255
102
RTVSPost2010PropOp44
 70
     1
102
RTVSPost2010Prop45
280
     0
102
RTVSPost2010PropOp45
 70
     1
102
RTVSPost2010Prop46
 90
       50
102
RTVSPost2010PropOp46
 70
     1
102
RTVSPost2010Prop47
 90
       50
102
RTVSPost2010PropOp47
 70
     1
102
RTVSPost2010Prop48
 90
       50
102
RTVSPost2010PropOp48
 70
     1
102
RTVSPost2010Prop49
280
     0
102
RTVSPost2010PropOp49
 70
     1
102
RTVSPost2010Prop50
 90
       50
102
RTVSPost2010PropOp50
 70
     1
102
RTVSPost2010Prop51ColorIndex
 90
      256
102
RTVSPost2010Prop51ColorRGB
 90
-16777216
102
RTVSPost2010PropOp51
 70
     0
102
RTVSPost2010Prop52
140
1.0
102
RTVSPost2010PropOp52
 70
     0
102
RTVSPost2010Prop53
 90
        2
102
RTVSPost2010PropOp53
 70
     1
102
RTVSPost2010Prop54
  1
strokes_ogs.tif
102
RTVSPost2010PropOp54
 70
     1
102
RTVSPost2010Prop55
280
     0
102
RTVSPost2010PropOp55
 70
     1
102
RTVSPost2010Prop56
140
1.0
102
RTVSPost2010PropOp56
 70
     1
102
RTVSPost2010Prop57
140
1.0
102
RTVSPost2010PropOp57
 70
     1
  0
XRECORD
  5
3B4
102
{ACAD_REACTORS
330
3B3
102
}
330
3B3
100
AcDbXrecord
280
     1
102
RTVSPropertyOp0
 70
     1
102
RTVSPropertyOp1
 70
     1
102
RTVSPropertyOp2
 70
     1
102
RTVSPropertyOp3
 70
     1
102
RTVSPropertyOp4
 70
     1
102
RTVSPropertyOp5
 70
     1
102
RTVSPropertyOp6
 70
     1
102
RTVSPropertyOp7
 70
     1
102
RTVSPropertyOp8
 70
     1
102
RTVSPropertyOp9
 70
     1
102
RTVSPropertyOp10
 70
     1
102
RTVSPropertyOp11
 70
     1
102
RTVSPropertyOp12
 70
     1
102
RTVSPropertyOp13
 70
     1
102
RTVSPropertyOp14
 70
     1
102
RTVSPropertyOp15
 70
     1
102
RTVSPropertyOp16
 70
     1
102
RTVSPropertyOp17
 70
     1
102
RTVSPropertyOp18
 70
     1
102
RTVSPropertyOp19
 70
     1
102
RTVSPropertyOp20
 70
     1
102
RTVSPropertyOp21
 70
     1
102
RTVSPropertyOp22
 70
     1
102
RTVSPropertyOp23
 70
     1
102
RTVSPropertyOp24
 70
     1
102
RTVSPropertyOp25
 70
     1
102
RTVSPropertyOp26
 70
     1
102
RTVSPropertyOp27
 70
     1
102
RTVSPropertyOp28
 70
     1
102
RTVSPropertyOp29
 70
     1
102
RTVSPropertyOp30
 70
     1
102
RTVSPropertyOp31
 70
     1
102
RTVSPropertyOp32
 70
     1
102
RTVSPropertyOp33
 70
     1
102
RTVSPropertyOp34
 70
     1
102
RTVSPropertyOp35
 70
     1
102
RTVSPropertyOp36
 70
     1
102
RTVSPropertyOp37
 70
     1
102
RTVSPropertyOp38
 70
     1
102
RTVSPropertyOp39
 70
     1
102
RTVSPropertyOp40
 70
     1
102
RTVSPropertyOp41
 70
     1
102
RTVSPropertyOp42
 70
     1
102
RTVSPropertyOp43
 70
     1
102
RTVSPropertyOp44
 70
     1
102
RTVSPropertyOp45
 70
     1
102
RTVSPropertyOp46
 70
     1
102
RTVSPropertyOp47
 70
     1
102
RTVSPropertyOp48
 70
     1
102
RTVSPropertyOp49
 70
     1
102
RTVSPropertyOp50
 70
     1
102
RTVSPropertyOp51
 70
     0
102
RTVSPropertyOp52
 70
     0
102
RTVSPropertyOp53
 70
     1
102
RTVSPropertyOp54
 70
     1
102
RTVSPropertyOp55
 70
     1
102
RTVSPropertyOp56
 70
     1
102
RTVSPropertyOp57
 70
     1
102
RTVSPost2010Prop28
280
     0
102
RTVSPost2010PropOp28
 70
     1
102
RTVSPost2010Prop29
280
     1
102
RTVSPost2010PropOp29
 70
     1
102
RTVSPost2010Prop30
280
     1
102
RTVSPost2010PropOp30
 70
     1
102
RTVSPost2010Prop31
280
     0
102
RTVSPost2010PropOp31
 70
     1
102
RTVSPost2010Prop32
280
     0
102
RTVSPost2010PropOp32
 70
     1
102
RTVSPost2010Prop33
280
     0
102
RTVSPost2010PropOp33
 70
     1
102
RTVSPost2010Prop34
280
     0
102
RTVSPost2010PropOp34
 70
     1
102
RTVSPost2010Prop35
280
     0
102
RTVSPost2010PropOp35
 70
     1
102
RTVSPost2010Prop36
280
     0
102
RTVSPost2010PropOp36
 70
     1
102
RTVSPost2010Prop37
 90
       50
102
RTVSPost2010PropOp37
 70
     1
102
RTVSPost2010Prop38
140
0.0
102
RTVSPost2010PropOp38
 70
     1
102
RTVSPost2010Prop39
140
1.0
102
RTVSPost2010PropOp39
 70
     1
102
RTVSPost2010Prop40
 90
        0
102
RTVSPost2010PropOp40
 70
     1
102
RTVSPost2010Prop41ColorIndex
 90
       18
102
RTVSPost2010Prop41ColorRGB
 90
        0
102
RTVSPost2010PropOp41
 70
     1
102
RTVSPost2010Prop42
 90
       50
102
RTVSPost2010PropOp42
 70
     1
102
RTVSPost2010Prop43
 90
        3
102
RTVSPost2010PropOp43
 70
     1
102
RTVSPost2010Prop44ColorIndex
 90
        5
102
RTVSPost2010Prop44ColorRGB
 90
      255
102
RTVSPost2010PropOp44
 70
     1
102
RTVSPost2010Prop45
280
     0
102
RTVSPost2010PropOp45
 70
     1
102
RTVSPost2010Prop46
 90
       50
102
RTVSPost2010PropOp46
 70
     1
102
RTVSPost2010Prop47
 90
       50
102
RTVSPost2010PropOp47
 70
     1
102
RTVSPost2010Prop48
 90
       50
102
RTVSPost2010PropOp48
 70
     1
102
RTVSPost2010Prop49
280
     0
102
RTVSPost2010PropOp49
 70
     1
102
RTVSPost2010Prop50
 90
       50
102
RTVSPost2010PropOp50
 70
     1
102
RTVSPost2010Prop51ColorIndex
 90
      256
102
RTVSPost2010Prop51ColorRGB
 90
-16777216
102
RTVSPost2010PropOp51
 70
     0
102
RTVSPost2010Prop52
140
1.0
102
RTVSPost2010PropOp52
 70
     0
102
RTVSPost2010Prop53
 90
        2
102
RTVSPost2010PropOp53
 70
     1
102
RTVSPost2010Prop54
  1
strokes_ogs.tif
102
RTVSPost2010PropOp54
 70
     1
102
RTVSPost2010Prop55
280
     0
102
RTVSPost2010PropOp55
 70
     1
102
RTVSPost2010Prop56
140
1.0
102
RTVSPost2010PropOp56
 70
     1
102
RTVSPost2010Prop57
140
1.0
102
RTVSPost2010PropOp57
 70
     1
  0
XRECORD
  5
3B6
102
{ACAD_REACTORS
330
3B5
102
}
330
3B5
100
AcDbXrecord
280
     1
102
RTVSPropertyOp0
 70
     1
102
RTVSPropertyOp1
 70
     1
102
RTVSPropertyOp2
 70
     1
102
RTVSPropertyOp3
 70
     1
102
RTVSPropertyOp4
 70
     1
102
RTVSPropertyOp5
 70
     1
102
RTVSPropertyOp6
 70
     1
102
RTVSPropertyOp7
 70
     1
102
RTVSPropertyOp8
 70
     1
102
RTVSPropertyOp9
 70
     1
102
RTVSPropertyOp10
 70
     1
102
RTVSPropertyOp11
 70
     1
102
RTVSPropertyOp12
 70
     1
102
RTVSPropertyOp13
 70
     1
102
RTVSPropertyOp14
 70
     1
102
RTVSPropertyOp15
 70
     1
102
RTVSPropertyOp16
 70
     1
102
RTVSPropertyOp17
 70
     1
102
RTVSPropertyOp18
 70
     1
102
RTVSPropertyOp19
 70
     1
102
RTVSPropertyOp20
 70
     1
102
RTVSPropertyOp21
 70
     1
102
RTVSPropertyOp22
 70
     1
102
RTVSPropertyOp23
 70
     1
102
RTVSPropertyOp24
 70
     1
102
RTVSPropertyOp25
 70
     1
102
RTVSPropertyOp26
 70
     1
102
RTVSPropertyOp27
 70
     1
102
RTVSPropertyOp28
 70
     1
102
RTVSPropertyOp29
 70
     1
102
RTVSPropertyOp30
 70
     1
102
RTVSPropertyOp31
 70
     1
102
RTVSPropertyOp32
 70
     1
102
RTVSPropertyOp33
 70
     1
102
RTVSPropertyOp34
 70
     1
102
RTVSPropertyOp35
 70
     1
102
RTVSPropertyOp36
 70
     1
102
RTVSPropertyOp37
 70
     1
102
RTVSPropertyOp38
 70
     1
102
RTVSPropertyOp39
 70
     1
102
RTVSPropertyOp40
 70
     1
102
RTVSPropertyOp41
 70
     1
102
RTVSPropertyOp42
 70
     1
102
RTVSPropertyOp43
 70
     1
102
RTVSPropertyOp44
 70
     1
102
RTVSPropertyOp45
 70
     1
102
RTVSPropertyOp46
 70
     1
102
RTVSPropertyOp47
 70
     1
102
RTVSPropertyOp48
 70
     1
102
RTVSPropertyOp49
 70
     1
102
RTVSPropertyOp50
 70
     1
102
RTVSPropertyOp51
 70
     0
102
RTVSPropertyOp52
 70
     0
102
RTVSPropertyOp53
 70
     1
102
RTVSPropertyOp54
 70
     1
102
RTVSPropertyOp55
 70
     1
102
RTVSPropertyOp56
 70
     1
102
RTVSPropertyOp57
 70
     1
102
RTVSPost2010Prop28
280
     0
102
RTVSPost2010PropOp28
 70
     1
102
RTVSPost2010Prop29
280
     1
102
RTVSPost2010PropOp29
 70
     1
102
RTVSPost2010Prop30
280
     1
102
RTVSPost2010PropOp30
 70
     1
102
RTVSPost2010Prop31
280
     0
102
RTVSPost2010PropOp31
 70
     1
102
RTVSPost2010Prop32
280
     0
102
RTVSPost2010PropOp32
 70
     1
102
RTVSPost2010Prop33
280
     0
102
RTVSPost2010PropOp33
 70
     1
102
RTVSPost2010Prop34
280
     0
102
RTVSPost2010PropOp34
 70
     1
102
RTVSPost2010Prop35
280
     0
102
RTVSPost2010PropOp35
 70
     1
102
RTVSPost2010Prop36
280
     0
102
RTVSPost2010PropOp36
 70
     1
102
RTVSPost2010Prop37
 90
       50
102
RTVSPost2010PropOp37
 70
     1
102
RTVSPost2010Prop38
140
0.0
102
RTVSPost2010PropOp38
 70
     1
102
RTVSPost2010Prop39
140
1.0
102
RTVSPost2010PropOp39
 70
     1
102
RTVSPost2010Prop40
 90
        0
102
RTVSPost2010PropOp40
 70
     1
102
RTVSPost2010Prop41ColorIndex
 90
       18
102
RTVSPost2010Prop41ColorRGB
 90
        0
102
RTVSPost2010PropOp41
 70
     1
102
RTVSPost2010Prop42
 90
       50
102
RTVSPost2010PropOp42
 70
     1
102
RTVSPost2010Prop43
 90
        3
102
RTVSPost2010PropOp43
 70
     1
102
RTVSPost2010Prop44ColorIndex
 90
        5
102
RTVSPost2010Prop44ColorRGB
 90
      255
102
RTVSPost2010PropOp44
 70
     1
102
RTVSPost2010Prop45
280
     0
102
RTVSPost2010PropOp45
 70
     1
102
RTVSPost2010Prop46
 90
       50
102
RTVSPost2010PropOp46
 70
     1
102
RTVSPost2010Prop47
 90
       50
102
RTVSPost2010PropOp47
 70
     1
102
RTVSPost2010Prop48
 90
       50
102
RTVSPost2010PropOp48
 70
     1
102
RTVSPost2010Prop49
280
     0
102
RTVSPost2010PropOp49
 70
     1
102
RTVSPost2010Prop50
 90
       50
102
RTVSPost2010PropOp50
 70
     1
102
RTVSPost2010Prop51ColorIndex
 90
      256
102
RTVSPost2010Prop51ColorRGB
 90
-16777216
102
RTVSPost2010PropOp51
 70
     0
102
RTVSPost2010Prop52
140
1.0
102
RTVSPost2010PropOp52
 70
     0
102
RTVSPost2010Prop53
 90
        2
102
RTVSPost2010PropOp53
 70
     1
102
RTVSPost2010Prop54
  1
strokes_ogs.tif
102
RTVSPost2010PropOp54
 70
     1
102
RTVSPost2010Prop55
280
     0
102
RTVSPost2010PropOp55
 70
     1
102
RTVSPost2010Prop56
140
1.0
102
RTVSPost2010PropOp56
 70
     1
102
RTVSPost2010Prop57
140
1.0
102
RTVSPost2010PropOp57
 70
     1
  0
XRECORD
  5
3A6
102
{ACAD_REACTORS
330
3A5
102
}
330
3A5
100
AcDbXrecord
280
     1
102
RTVSPropertyOp0
 70
     1
102
RTVSPropertyOp1
 70
     1
102
RTVSPropertyOp2
 70
     1
102
RTVSPropertyOp3
 70
     1
102
RTVSPropertyOp4
 70
     1
102
RTVSPropertyOp5
 70
     1
102
RTVSPropertyOp6
 70
     1
102
RTVSPropertyOp7
 70
     1
102
RTVSPropertyOp8
 70
     1
102
RTVSPropertyOp9
 70
     1
102
RTVSPropertyOp10
 70
     1
102
RTVSPropertyOp11
 70
     1
102
RTVSPropertyOp12
 70
     1
102
RTVSPropertyOp13
 70
     1
102
RTVSPropertyOp14
 70
     1
102
RTVSPropertyOp15
 70
     1
102
RTVSPropertyOp16
 70
     1
102
RTVSPropertyOp17
 70
     1
102
RTVSPropertyOp18
 70
     1
102
RTVSPropertyOp19
 70
     1
102
RTVSPropertyOp20
 70
     1
102
RTVSPropertyOp21
 70
     1
102
RTVSPropertyOp22
 70
     1
102
RTVSPropertyOp23
 70
     1
102
RTVSPropertyOp24
 70
     1
102
RTVSPropertyOp25
 70
     1
102
RTVSPropertyOp26
 70
     1
102
RTVSPropertyOp27
 70
     1
102
RTVSPropertyOp28
 70
     1
102
RTVSPropertyOp29
 70
     1
102
RTVSPropertyOp30
 70
     1
102
RTVSPropertyOp31
 70
     1
102
RTVSPropertyOp32
 70
     1
102
RTVSPropertyOp33
 70
     1
102
RTVSPropertyOp34
 70
     1
102
RTVSPropertyOp35
 70
     1
102
RTVSPropertyOp36
 70
     1
102
RTVSPropertyOp37
 70
     1
102
RTVSPropertyOp38
 70
     1
102
RTVSPropertyOp39
 70
     1
102
RTVSPropertyOp40
 70
     1
102
RTVSPropertyOp41
 70
     1
102
RTVSPropertyOp42
 70
     1
102
RTVSPropertyOp43
 70
     1
102
RTVSPropertyOp44
 70
     1
102
RTVSPropertyOp45
 70
     1
102
RTVSPropertyOp46
 70
     1
102
RTVSPropertyOp47
 70
     1
102
RTVSPropertyOp48
 70
     1
102
RTVSPropertyOp49
 70
     1
102
RTVSPropertyOp50
 70
     1
102
RTVSPropertyOp51
 70
     0
102
RTVSPropertyOp52
 70
     0
102
RTVSPropertyOp53
 70
     1
102
RTVSPropertyOp54
 70
     1
102
RTVSPropertyOp55
 70
     1
102
RTVSPropertyOp56
 70
     1
102
RTVSPropertyOp57
 70
     1
102
RTVSPost2010Prop28
280
     0
102
RTVSPost2010PropOp28
 70
     1
102
RTVSPost2010Prop29
280
     1
102
RTVSPost2010PropOp29
 70
     1
102
RTVSPost2010Prop30
280
     1
102
RTVSPost2010PropOp30
 70
     1
102
RTVSPost2010Prop31
280
     0
102
RTVSPost2010PropOp31
 70
     1
102
RTVSPost2010Prop32
280
     0
102
RTVSPost2010PropOp32
 70
     1
102
RTVSPost2010Prop33
280
     0
102
RTVSPost2010PropOp33
 70
     1
102
RTVSPost2010Prop34
280
     0
102
RTVSPost2010PropOp34
 70
     1
102
RTVSPost2010Prop35
280
     0
102
RTVSPost2010PropOp35
 70
     1
102
RTVSPost2010Prop36
280
     0
102
RTVSPost2010PropOp36
 70
     1
102
RTVSPost2010Prop37
 90
       50
102
RTVSPost2010PropOp37
 70
     1
102
RTVSPost2010Prop38
140
0.0
102
RTVSPost2010PropOp38
 70
     1
102
RTVSPost2010Prop39
140
1.0
102
RTVSPost2010PropOp39
 70
     1
102
RTVSPost2010Prop40
 90
        0
102
RTVSPost2010PropOp40
 70
     1
102
RTVSPost2010Prop41ColorIndex
 90
       18
102
RTVSPost2010Prop41ColorRGB
 90
        0
102
RTVSPost2010PropOp41
 70
     1
102
RTVSPost2010Prop42
 90
       50
102
RTVSPost2010PropOp42
 70
     1
102
RTVSPost2010Prop43
 90
        3
102
RTVSPost2010PropOp43
 70
     1
102
RTVSPost2010Prop44ColorIndex
 90
        5
102
RTVSPost2010Prop44ColorRGB
 90
      255
102
RTVSPost2010PropOp44
 70
     1
102
RTVSPost2010Prop45
280
     0
102
RTVSPost2010PropOp45
 70
     1
102
RTVSPost2010Prop46
 90
       50
102
RTVSPost2010PropOp46
 70
     1
102
RTVSPost2010Prop47
 90
       50
102
RTVSPost2010PropOp47
 70
     1
102
RTVSPost2010Prop48
 90
       50
102
RTVSPost2010PropOp48
 70
     1
102
RTVSPost2010Prop49
280
     0
102
RTVSPost2010PropOp49
 70
     1
102
RTVSPost2010Prop50
 90
       50
102
RTVSPost2010PropOp50
 70
     1
102
RTVSPost2010Prop51ColorIndex
 90
      256
102
RTVSPost2010Prop51ColorRGB
 90
-16777216
102
RTVSPost2010PropOp51
 70
     0
102
RTVSPost2010Prop52
140
1.0
102
RTVSPost2010PropOp52
 70
     0
102
RTVSPost2010Prop53
 90
        2
102
RTVSPost2010PropOp53
 70
     1
102
RTVSPost2010Prop54
  1
strokes_ogs.tif
102
RTVSPost2010PropOp54
 70
     1
102
RTVSPost2010Prop55
280
     0
102
RTVSPost2010PropOp55
 70
     1
102
RTVSPost2010Prop56
140
1.0
102
RTVSPost2010PropOp56
 70
     1
102
RTVSPost2010Prop57
140
1.0
102
RTVSPost2010PropOp57
 70
     1
  0
XRECORD
  5
398
102
{ACAD_REACTORS
330
397
102
}
330
397
100
AcDbXrecord
280
     1
102
RTVSPropertyOp0
 70
     1
102
RTVSPropertyOp1
 70
     1
102
RTVSPropertyOp2
 70
     1
102
RTVSPropertyOp3
 70
     1
102
RTVSPropertyOp4
 70
     1
102
RTVSPropertyOp5
 70
     1
102
RTVSPropertyOp6
 70
     1
102
RTVSPropertyOp7
 70
     1
102
RTVSPropertyOp8
 70
     1
102
RTVSPropertyOp9
 70
     1
102
RTVSPropertyOp10
 70
     1
102
RTVSPropertyOp11
 70
     1
102
RTVSPropertyOp12
 70
     1
102
RTVSPropertyOp13
 70
     1
102
RTVSPropertyOp14
 70
     1
102
RTVSPropertyOp15
 70
     1
102
RTVSPropertyOp16
 70
     1
102
RTVSPropertyOp17
 70
     1
102
RTVSPropertyOp18
 70
     1
102
RTVSPropertyOp19
 70
     1
102
RTVSPropertyOp20
 70
     1
102
RTVSPropertyOp21
 70
     1
102
RTVSPropertyOp22
 70
     1
102
RTVSPropertyOp23
 70
     1
102
RTVSPropertyOp24
 70
     1
102
RTVSPropertyOp25
 70
     1
102
RTVSPropertyOp26
 70
     1
102
RTVSPropertyOp27
 70
     1
102
RTVSPropertyOp28
 70
     1
102
RTVSPropertyOp29
 70
     1
102
RTVSPropertyOp30
 70
     1
102
RTVSPropertyOp31
 70
     1
102
RTVSPropertyOp32
 70
     1
102
RTVSPropertyOp33
 70
     1
102
RTVSPropertyOp34
 70
     1
102
RTVSPropertyOp35
 70
     1
102
RTVSPropertyOp36
 70
     1
102
RTVSPropertyOp37
 70
     1
102
RTVSPropertyOp38
 70
     1
102
RTVSPropertyOp39
 70
     1
102
RTVSPropertyOp40
 70
     1
102
RTVSPropertyOp41
 70
     1
102
RTVSPropertyOp42
 70
     1
102
RTVSPropertyOp43
 70
     1
102
RTVSPropertyOp44
 70
     1
102
RTVSPropertyOp45
 70
     1
102
RTVSPropertyOp46
 70
     1
102
RTVSPropertyOp47
 70
     1
102
RTVSPropertyOp48
 70
     1
102
RTVSPropertyOp49
 70
     1
102
RTVSPropertyOp50
 70
     1
102
RTVSPropertyOp51
 70
     0
102
RTVSPropertyOp52
 70
     0
102
RTVSPropertyOp53
 70
     1
102
RTVSPropertyOp54
 70
     1
102
RTVSPropertyOp55
 70
     1
102
RTVSPropertyOp56
 70
     1
102
RTVSPropertyOp57
 70
     1
102
RTVSPost2010Prop28
280
     0
102
RTVSPost2010PropOp28
 70
     1
102
RTVSPost2010Prop29
280
     1
102
RTVSPost2010PropOp29
 70
     1
102
RTVSPost2010Prop30
280
     1
102
RTVSPost2010PropOp30
 70
     1
102
RTVSPost2010Prop31
280
     0
102
RTVSPost2010PropOp31
 70
     1
102
RTVSPost2010Prop32
280
     0
102
RTVSPost2010PropOp32
 70
     1
102
RTVSPost2010Prop33
280
     0
102
RTVSPost2010PropOp33
 70
     1
102
RTVSPost2010Prop34
280
     0
102
RTVSPost2010PropOp34
 70
     1
102
RTVSPost2010Prop35
280
     0
102
RTVSPost2010PropOp35
 70
     1
102
RTVSPost2010Prop36
280
     0
102
RTVSPost2010PropOp36
 70
     1
102
RTVSPost2010Prop37
 90
       50
102
RTVSPost2010PropOp37
 70
     1
102
RTVSPost2010Prop38
140
0.0
102
RTVSPost2010PropOp38
 70
     1
102
RTVSPost2010Prop39
140
1.0
102
RTVSPost2010PropOp39
 70
     1
102
RTVSPost2010Prop40
 90
        0
102
RTVSPost2010PropOp40
 70
     1
102
RTVSPost2010Prop41ColorIndex
 90
       18
102
RTVSPost2010Prop41ColorRGB
 90
        0
102
RTVSPost2010PropOp41
 70
     1
102
RTVSPost2010Prop42
 90
       50
102
RTVSPost2010PropOp42
 70
     1
102
RTVSPost2010Prop43
 90
        3
102
RTVSPost2010PropOp43
 70
     1
102
RTVSPost2010Prop44ColorIndex
 90
        5
102
RTVSPost2010Prop44ColorRGB
 90
      255
102
RTVSPost2010PropOp44
 70
     1
102
RTVSPost2010Prop45
280
     0
102
RTVSPost2010PropOp45
 70
     1
102
RTVSPost2010Prop46
 90
       50
102
RTVSPost2010PropOp46
 70
     1
102
RTVSPost2010Prop47
 90
       50
102
RTVSPost2010PropOp47
 70
     1
102
RTVSPost2010Prop48
 90
       50
102
RTVSPost2010PropOp48
 70
     1
102
RTVSPost2010Prop49
280
     0
102
RTVSPost2010PropOp49
 70
     1
102
RTVSPost2010Prop50
 90
       50
102
RTVSPost2010PropOp50
 70
     1
102
RTVSPost2010Prop51ColorIndex
 90
      256
102
RTVSPost2010Prop51ColorRGB
 90
-16777216
102
RTVSPost2010PropOp51
 70
     0
102
RTVSPost2010Prop52
140
1.0
102
RTVSPost2010PropOp52
 70
     0
102
RTVSPost2010Prop53
 90
        2
102
RTVSPost2010PropOp53
 70
     1
102
RTVSPost2010Prop54
  1
strokes_ogs.tif
102
RTVSPost2010PropOp54
 70
     1
102
RTVSPost2010Prop55
280
     0
102
RTVSPost2010PropOp55
 70
     1
102
RTVSPost2010Prop56
140
1.0
102
RTVSPost2010PropOp56
 70
     1
102
RTVSPost2010Prop57
140
1.0
102
RTVSPost2010PropOp57
 70
     1
  0
XRECORD
  5
3B8
102
{ACAD_REACTORS
330
3B7
102
}
330
3B7
100
AcDbXrecord
280
     1
102
RTVSPropertyOp0
 70
     1
102
RTVSPropertyOp1
 70
     1
102
RTVSPropertyOp2
 70
     1
102
RTVSPropertyOp3
 70
     1
102
RTVSPropertyOp4
 70
     1
102
RTVSPropertyOp5
 70
     1
102
RTVSPropertyOp6
 70
     1
102
RTVSPropertyOp7
 70
     1
102
RTVSPropertyOp8
 70
     1
102
RTVSPropertyOp9
 70
     1
102
RTVSPropertyOp10
 70
     1
102
RTVSPropertyOp11
 70
     1
102
RTVSPropertyOp12
 70
     1
102
RTVSPropertyOp13
 70
     1
102
RTVSPropertyOp14
 70
     1
102
RTVSPropertyOp15
 70
     1
102
RTVSPropertyOp16
 70
     1
102
RTVSPropertyOp17
 70
     1
102
RTVSPropertyOp18
 70
     1
102
RTVSPropertyOp19
 70
     1
102
RTVSPropertyOp20
 70
     1
102
RTVSPropertyOp21
 70
     1
102
RTVSPropertyOp22
 70
     1
102
RTVSPropertyOp23
 70
     1
102
RTVSPropertyOp24
 70
     1
102
RTVSPropertyOp25
 70
     1
102
RTVSPropertyOp26
 70
     1
102
RTVSPropertyOp27
 70
     1
102
RTVSPropertyOp28
 70
     1
102
RTVSPropertyOp29
 70
     1
102
RTVSPropertyOp30
 70
     1
102
RTVSPropertyOp31
 70
     1
102
RTVSPropertyOp32
 70
     1
102
RTVSPropertyOp33
 70
     1
102
RTVSPropertyOp34
 70
     1
102
RTVSPropertyOp35
 70
     1
102
RTVSPropertyOp36
 70
     1
102
RTVSPropertyOp37
 70
     1
102
RTVSPropertyOp38
 70
     1
102
RTVSPropertyOp39
 70
     1
102
RTVSPropertyOp40
 70
     1
102
RTVSPropertyOp41
 70
     1
102
RTVSPropertyOp42
 70
     1
102
RTVSPropertyOp43
 70
     1
102
RTVSPropertyOp44
 70
     1
102
RTVSPropertyOp45
 70
     1
102
RTVSPropertyOp46
 70
     1
102
RTVSPropertyOp47
 70
     1
102
RTVSPropertyOp48
 70
     1
102
RTVSPropertyOp49
 70
     1
102
RTVSPropertyOp50
 70
     1
102
RTVSPropertyOp51
 70
     0
102
RTVSPropertyOp52
 70
     0
102
RTVSPropertyOp53
 70
     1
102
RTVSPropertyOp54
 70
     1
102
RTVSPropertyOp55
 70
     1
102
RTVSPropertyOp56
 70
     1
102
RTVSPropertyOp57
 70
     1
102
RTVSPost2010Prop28
280
     0
102
RTVSPost2010PropOp28
 70
     1
102
RTVSPost2010Prop29
280
     1
102
RTVSPost2010PropOp29
 70
     1
102
RTVSPost2010Prop30
280
     1
102
RTVSPost2010PropOp30
 70
     1
102
RTVSPost2010Prop31
280
     0
102
RTVSPost2010PropOp31
 70
     1
102
RTVSPost2010Prop32
280
     0
102
RTVSPost2010PropOp32
 70
     1
102
RTVSPost2010Prop33
280
     0
102
RTVSPost2010PropOp33
 70
     1
102
RTVSPost2010Prop34
280
     0
102
RTVSPost2010PropOp34
 70
     1
102
RTVSPost2010Prop35
280
     0
102
RTVSPost2010PropOp35
 70
     1
102
RTVSPost2010Prop36
280
     0
102
RTVSPost2010PropOp36
 70
     1
102
RTVSPost2010Prop37
 90
       50
102
RTVSPost2010PropOp37
 70
     1
102
RTVSPost2010Prop38
140
0.0
102
RTVSPost2010PropOp38
 70
     1
102
RTVSPost2010Prop39
140
1.0
102
RTVSPost2010PropOp39
 70
     1
102
RTVSPost2010Prop40
 90
        0
102
RTVSPost2010PropOp40
 70
     1
102
RTVSPost2010Prop41ColorIndex
 90
       18
102
RTVSPost2010Prop41ColorRGB
 90
        0
102
RTVSPost2010PropOp41
 70
     1
102
RTVSPost2010Prop42
 90
       50
102
RTVSPost2010PropOp42
 70
     1
102
RTVSPost2010Prop43
 90
        3
102
RTVSPost2010PropOp43
 70
     1
102
RTVSPost2010Prop44ColorIndex
 90
        5
102
RTVSPost2010Prop44ColorRGB
 90
      255
102
RTVSPost2010PropOp44
 70
     1
102
RTVSPost2010Prop45
280
     0
102
RTVSPost2010PropOp45
 70
     1
102
RTVSPost2010Prop46
 90
       50
102
RTVSPost2010PropOp46
 70
     1
102
RTVSPost2010Prop47
 90
       50
102
RTVSPost2010PropOp47
 70
     1
102
RTVSPost2010Prop48
 90
       50
102
RTVSPost2010PropOp48
 70
     1
102
RTVSPost2010Prop49
280
     0
102
RTVSPost2010PropOp49
 70
     1
102
RTVSPost2010Prop50
 90
       50
102
RTVSPost2010PropOp50
 70
     1
102
RTVSPost2010Prop51ColorIndex
 90
      256
102
RTVSPost2010Prop51ColorRGB
 90
-16777216
102
RTVSPost2010PropOp51
 70
     0
102
RTVSPost2010Prop52
140
1.0
102
RTVSPost2010PropOp52
 70
     0
102
RTVSPost2010Prop53
 90
        2
102
RTVSPost2010PropOp53
 70
     1
102
RTVSPost2010Prop54
  1
strokes_ogs.tif
102
RTVSPost2010PropOp54
 70
     1
102
RTVSPost2010Prop55
280
     0
102
RTVSPost2010PropOp55
 70
     1
102
RTVSPost2010Prop56
140
1.0
102
RTVSPost2010PropOp56
 70
     1
102
RTVSPost2010Prop57
140
1.0
102
RTVSPost2010PropOp57
 70
     1
  0
ENDSEC
  0
SECTION
  2
THUMBNAILIMAGE
 90
    16364
310
28000000B40000005500000001000800000000000000000000000000000000000000000000000000FFFFFF00FF000000FFFF000000FF000000FFFF000000FF00FF00FF000000000080808000C0C0C000FF000000FF7F7F00A5000000A55252007F0000007F3F3F004C0000004C2626002600000026131300FF3F0000FF9F7F
310
00A5290000A56752007F1F00007F4F3F004C1300004C2F26002609000026171300FF7F0000FFBF7F00A5520000A57C52007F3F00007F5F3F004C2600004C39260026130000261C1300FFBF0000FFDF7F00A57C0000A59152007F5F00007F6F3F004C3900004C422600261C000026211300FFFF0000FFFF7F00A5A50000A5A5
310
52007F7F00007F7F3F004C4C00004C4C26002626000026261300BFFF0000DFFF7F007CA5000091A552005F7F00006F7F3F00394C0000424C26001C260000212613007FFF0000BFFF7F0052A500007CA552003F7F00005F7F3F00264C0000394C2600132600001C2613003FFF00009FFF7F0029A5000067A552001F7F00004F
310
7F3F00134C00002F4C2600092600001726130000FF00007FFF7F0000A5000052A55200007F00003F7F3F00004C0000264C2600002600001326130000FF3F007FFF9F0000A5290052A56700007F1F003F7F4F00004C1300264C2F00002609001326170000FF7F007FFFBF0000A5520052A57C00007F3F003F7F5F00004C2600
310
264C39000026130013261C0000FFBF007FFFDF0000A57C0052A59100007F5F003F7F6F00004C3900264C420000261C001326210000FFFF007FFFFF0000A5A50052A5A500007F7F003F7F7F00004C4C00264C4C00002626001326260000BFFF007FDFFF00007CA5005291A500005F7F003F6F7F0000394C0026424C00001C26
310
0013212600007FFF007FBFFF000052A500527CA500003F7F003F5F7F0000264C0026394C0000132600131C2600003FFF007F9FFF000029A5005267A500001F7F003F4F7F0000134C00262F4C0000092600131726000000FF007F7FFF000000A5005252A50000007F003F3F7F0000004C0026264C0000002600131326003F00
310
FF009F7FFF002900A5006752A5001F007F004F3F7F0013004C002F264C0009002600171326007F00FF00BF7FFF005200A5007C52A5003F007F005F3F7F0026004C0039264C00130026001C132600BF00FF00DF7FFF007C00A5009152A5005F007F006F3F7F0039004C0042264C001C00260021132600FF00FF00FF7FFF00A5
310
00A500A552A5007F007F007F3F7F004C004C004C264C002600260026132600FF00BF00FF7FDF00A5007C00A55291007F005F007F3F6F004C0039004C26420026001C0026132100FF007F00FF7FBF00A5005200A5527C007F003F007F3F5F004C0026004C2639002600130026131C00FF003F00FF7F9F00A5002900A5526700
310
7F001F007F3F4F004C0013004C262F002600090026131700000000002D2D2D005B5B5B0089898900B7B7B700B3B3B30000000000000000000000000000000000000000000000000000000000000000000000000000000000000000000000000000000000000000000000000000000000000000000000000000000000000000
310
00000000000000000000000000000000000000000000000000000000000000000000000000000000000000000000000000000000000000000000000000000000000000000000000000000000000000000000000000000000000000000000000000000000000000000000000000000000000000000000000000000000000000
310
00000000000000000000000000000000000000000000000000000000000000000000000000000000000000000000000000000000000000000000000000000000000000000000000000000000000000000000000000000000000000000000000000000000000000000000000000000000000000000000000000000000000000
310
00000000000000000000000000000000000000000000000000000000000000000000000000000000000000000000000000000000000000000000000000000000000000000000000000000000000000000000000000000000000000000000000000000000000000000000000000000000000000000000000000000000000000
310
00000000000000000000000000000000000000000000000000000000000000000000000000000000000000000000000000000000000000000000000000000000000000000000000000000000000000000000000000000000000000000000000000000000000000000000000000000000000000000000000000000000000000
310
00000000000000000000000000000000000000000000000000000000000000000000000000000000000000000000000000000000000000000000000000000000000000000000000000000000000000000000000000000000000000000000000000000000000000000000000000000000000000000000000000000000000000
310
00000000000000000000000000000000000000000000000000000000000000000000000000000000000000000000000000000000000000000000000000000000000000000000000000000707070707070707070707070000000000000000000000000000000000000000000000000007070707070707070707070707070000
310
00000000000000000000000000000000000000000000000000000000000000000000000000000000000000000000000000000000000000000000000000000000000000000000000000000000000000000000000000000000000000000000000000000000000000000000000000000000000000000000000000000000000000
310
07000000070707070000070700000000000000000000000000000000000000000000000000070700000007070707000000070700000000000000000000000000000000000000000000000000000000000000000000000000000000000000000000000000000000000000000000000000000000000000000000000000000000
310
00000000000000000000000000000000000000000000000000000000000000000000000000000000000000000000000000000000000700000007070707000007070000000000000000000000000000000000000000000000000007070000000707070700000007070707070707000000000000000000000000000000000000
310
00000000000000000000000000000000000000000000000000000000000000000000000000000000000000000000000000000000000000000000000000000000000000000000000000000000000000000000000000000000000000000000000000000000000000000000070707070707070707070707000000000000000000
310
00000000000000000000000000000000070707070707070707070707070700070707070000000000000000000000000000000000000000000000000000000000000000000000000000000000000000000000000000000000000000000000000000000000000000000000000000000000000000000000000000000000000000
310
00000000000000000000000000000000000000000000000000000000000000000700000007070707000007070000000000000000000000000000000000000000000000000007070000000707070700000007070007070707000000000000000000000000000000000000000000000000000000000000000000000000000000
310
00000000000000000000000000000000000000000000000000000000000000000000000000000000000000000000000000000000000000000000000000000000000000000000000000000000000000000000000000070000000707070700000707000000000000000000000000000000000000000000000000000707000000
310
07070707000000070700000000000000000000000000000000000000000000000000000000000000000000000000000000000000000000000000000000000000000000000000000000000000000000000000000000000000000000000000000000000000000000000000000000000000000000000000000000000000000000
310
00000000000000000707000703030000050000000307070000000000000000000000000000000000000000070707070707070707070705070707070707070000000000000000000000000000000000000000000000000000000000000000000000000000000000000000000000000000000000000000000000000000000000
310
00000000000000000000000000000000000000000000000000000000000000000000000000000000000000000000000000000000000000000000000000070707070707070705070707070707070700000000000000000000000000000000000007000000000007070707070507070707070700000000000000000000000000
310
00000000000000000000000000000000000000000000000000000000000000000000000000000000000000000000000000000000000000000000000000000000000000000000000000000000000000000000000000000000000000000000000000000000000000000000000000000000000000070707070707070507070707
310
07070707000000000000000000000000000000000000070000000000070707070705070707070707000000000000000000000000000000000000000000000000000000000000000000000000000000000000000000000000000000000000000000000000000000000000000000000000000000000000000000000000000000
310
00000000000000000000000000000000000000000000000000000000000000000000000000000000000700000000000005000000000000000700000000000000000000000000000000000007000000000007000000000500000000000700000000000000000000000000000000000000000000000000000000000000000000
310
00000000000000000000000000000000000000000000000000000000000000000000000000000000000000000000000000000000000000000000000000000000000000000000000000000000000000000000000000000000000000000007070707070707070707070707070707070700000000000000000000000000000000
310
00070000000007070707070707070707070707070000000000000000000000000000000000000000000000000000000000000000000000000000000000000000000000000000000000000000000000000000000000000000000000000000000000000000000000000000000000000000000000000000000000000000000000
310
00000000000000000000000000000000000000070000000000000005000000000000000007000000000000000000000000000000000007000000000700000000000500000000000007000000000000000000000000000000000000000000000000000000000000000000000000000000000000000000000000000000000000
310
00000000000000000000000000000000000000000000000000000000000000000000000000000000000000000000000000000000000000000000000000000000000000000000000007000000000000000500000000000000000700000000000000000000000000000000000700000000070000000000050000000000000700
310
00000000000000000000000000000000000000000000000000000000000000000000000000000000000000000000000000000000000000000000000000000000000000000000000000000000000000000000000000000000000000000000000000000000000000000000000000000000000000000000000000000000000700
310
00000000000005000000000000000007000000000000000000000000000000000007000000000700000000000500000000000007000000000000000000000000000000000000000000000000000000000000000000000000000000000000000000000000000000000000000000000000000000000000000000000000000000
310
00000000000000000000000000000000000000000000000000000000000000000000000000000000000000000000000000000007000000000000000500000000000000000700000000000000000000000000000000000700000000070000000000050000000000000700000000000000000000000000000000000000000000
310
00000000000000000000000000000000000000000000000000000000000000000000000000000000000000000000000000000000000000000000000000000000000000000000000000000000000000000000000000000000000000000000000000000000000000000700000000000000050000000000000000070000000000
310
00000000000000000000000007000000000700000000000500000000000007000000000000000000000000000000000000000000000000000000000000000000000000000000000000000000000000000000000000000000000000000000000000000000000000000000000000000000000000000000000000000000000000
310
00000000000000000000000000000000000000000000000000000000000007000000000000000500000000000000000700000000000000000000000000000000000700000000070000000000050000000000000700000000000000000000000000000000000000000000000000000000000000000000000000000000000000
310
00000000000000000000000000000000000000000000000000000000000000000000000000000000000000000000000000000000000000000000000000000000000000000000000000000000000000000000000700000000000000050000000000000000070000000000000000000000000000000707070000000007000000
310
00000500000000000007000000000000000000000000000000000000000000000000000000000000000000000000000000000000000000000000000000000000000000000000000000000000000000000000000000000000000000000000000000000000000000000000000000000000000000000000000000000000000000
310
00000000000000000007000000000000000500000000000000000700000000000000000000000000000007070700000000070000000000050000000000000700000000000000000000000000000000000000000000000000000000000000000000000000000000000000000000000000000000000000000000000000000000
310
00000000000000000000000000000000000000000000000000000000000000000000000000000000000000000000000000000000000000000000000000000700000000000000050000000000000000070000000000000000000000000000000707070000000007000000000005000000000000070000000000000000000000
310
00000000000000000000000000000000000000000000000000000000000000000000000000000000000000000000000000000000000000000000000000000000000000000000000000000000000000000000000000000000000000000000000000000000000000000000000000000000000000070000000000000005000000
310
00000000000700000000000000000000000000000007070700000000070000000000050000000000000700000000000000000000000000000000000000000000000000000000000000000000000000000000000000000000000000000000000000000000000000000000000000000000000000000000000000000000000000
310
00000000000000000000000000000000000000000000000000000000000000000000000000000000000700000000000000050000000000000000070000000000000000000000000000000707070000000007000000000005000000000000070000000000000000000000000000000000000000000000000000000000000000
310
00000000000000000000000000000000000000000000000000000000000000000000000000000000000000000000000000000000000000000000000000000000000000000000000000000000000000000000000000000000000000000000070000000000000005000000000000000007000000000000000000000000000000
310
00000700000000070000000000050000000000000700000000000000000000000000000000000000000000000000000000000000000000000000000000000000000000000000000000000000000000000000000000000000000000000000000000000000000000000000000000000000000000000000000000000000000000
310
00000000000000000000000000000000000000000700000000000000050000000000000000070000000000000000000000000000000000070000000007000000000005000000000000070000000000000000000000000000000000000000000000000000000000000000000000000000000000000000000000000000000000
310
00000000000000000000000000000000000000000000000000000000000000000000000000000000000000000000000000000000000000000000000000000000000000000000000000070000000000000005000000000000000007000000000000000000000000000000000007000000000700000000000500000000000007
310
00000000000000000000000000000000000000000000000000000000000000000000000000000000000000000000000000000000000000000000000000000000000000000000000000000000000000000000000000000000000000000000000000000000000000000000000000000000000000000000000000000000000007
310
00000000000000050000000000000000070000000000000000000000000000000000070000000007000000000005000000000000070000000000000000000000000000000000000000000000000000000000000000000000000000000000000000000000000000000000000000000000000000000000000000000000000000
310
00000000000000000000000000000000000000000000000000000000000000000000000000000000000000000000000000000000070707070707070707070707070707070707000000000000000000000000000000000007000000000707070707070707070707070707000000000000000000000000000000000000000000
310
00000000000000000000000000000000000000000000000000000000000000000000000000000000000000000000000000000000000000000000000000000000000000000000000000000000000000000000000000000000000000000000000000000000000000000007070707070707070507070707070707070700000000
310
00000000000000000000000000070000000007070707070705070707070707070000000000000000000000000000000000000000000000000000000000000000000000000000000000000000000000000000000000000000000000000000000000000000000000000000000000000000000000000000000000000000000000
310
00000000000000000000000000000000000000000000000000000000000000070707070707070707070707070707070707000000000000000000000000000000000007000007070707070707040504030303070707070707000000000000000000000000000000000000000000000000000000000000000000000000000000
310
00000000000000000000000000000000000000000000000000000000000000000000000000000000000000000000000000000000000000000000000000000000000000000000000000000000000000000000000000070707070101000101000101070000000000000000000000000000000000000000000707070707000001
310
07010005070003030000070707070000000000000000000000000000000000000000000000000000000000000000000000000000000000000000000000000000000000000000000000000000000000000000000000000000000000000000000000000000000000000000000000000000000000000000000000000000000000
310
00000000000000000000000700070705070705070705070000000000000000000000000000000000000000000007070707000000000500000500000301000007070707000000000000000000000000000000000000000000000000000000000000000000000000000000000000000000000000000000000000000000000000
310
00000000000000000000000000000000000000000000000000000000000000000000000000000000000000000000000000000000000000000000000000000000070707070507070507070507000000000000000000000000000000000000000000000707070707000000050000050000030707070707070700000000000000
310
00000000000000000000000000000000000000000000000000000000000000000000000000000000000000000000000000000000000000000000000000000000000000000000000000000000000000000000000000000000000000000000000000000000000000000000000000000000000000000000000007050707050707
310
05070000000000000000000000000000000000000000000007070707070707070500000700000700000000000000000000000000000000000000000000000000000000000000000000000000000000000000000000000000000000000000000000000000000000000000000000000000000000000000000000000000000000
310
00000000000000000000000000000000000000000000000000000000000000000000000000000000000000000000000000000000000000000000000000000000000000000000000000000000000000000000000000070000070000070000000000000000000000000000000000000000000000000000000000000000000000
310
00000000000000000000000000000000000000000000000000000000000000000000000000000000000000000000000000000000000000000000000000000000000000000000000000000000000000000000000000000000000000000000000000000000000000000000000000000000000000000000000000000000000000
310
00000000000000000000000707070707070700000000000000000000000000000000000000000000000000000000000000000000000000000000000000000000000000000000000000000000000000000000000000000000000000000000000000000000000000000000000000000000000000000000000000000000000000
310
00000000000000000000000000000000000000000000000000000000000000000000000000000000000000000000000000000000000000000000000000000000000707070707070000000000000000000000000000000000000000000000000000000000000000000000000000000000000000000000000000000000000000
310
00000000000000000000000000000000000000000000000000000000000000000000000000000000000000000000000000000000000000000000000000000000000000000000000000000000000000000000000000000000000000000000000000000000000000000000000000000000000000000007070707070707000000
310
00000000000000000000000000000000000000000000000000000000000000000000000000000000000000000000000000000000000000000000000000000000000000000000000000000000000000000000000000000000000000000000000000000000000000000000000000000000000000000000000000000000000000
310
00000000000000000000000000000000000000000000000000000000000000000000000000000000000000000000000000000000000000000000000000000000000000000000000000000000000000000000000000000000000000000000000000000000000000000000000000000000000000000000000000000000000000
310
00000000000000000000000000000000000000000000000000000000000000000000000000000000000000000000000000000000000000000000000000000000000000000000000000000000000000000000000000000000000000000000000000000000000000000000000000000000000000000000000000000000000000
310
00000000000000000000000000000000000000000000000000000000000000000000000000000000000000000000000000000000000000000000000000000000000000000000000000000000000000000000000000000000000000000000000000000000000000000000000000000000000000000000000000000000000000
310
00000000000000000000000000000000000000000000000000000000000000000000000000000000000000000000000000000000000000000000000000000000000000000000000000000000000000000000000000000000000000000000000000000000000000000000000000000000000000000000000000000000000000
310
00000000000000000000000000000000000000000000000000000000000000000000000000000000000000000000000000000000000000000000000000000000000000000000000000000000000000000000000000000000000000000000000000000000000000000000000000000000000000000000000000000000000000
310
00000000000000000000000000000000000000000000000000000000000000000000000000000000000000000000000000000000000000000000000000000000000000000000000000000000000000000000000000000000000000000000000000000000000000000000000000000000000000000000000000000000000000
310
00000000000000000000000000000000000000000000000000000000000000000000000000000000000000000000000000000000000000000000000000000000000000000000000000000000000000000000000000000000000000000000000000000000000000000000000000000000000000000000000000000000000000
310
00000000000000000000000000000000000000000000000000000000000000000000000000000000000000000000000000000000000000000000000000000000000000000000000000000000000000000000000000000000000000000000000000000000000000000000000000000000000000000000000000000000000000
310
00000000000000000000000000000000000000000000000000000000000000000000000000000000000000000000000000000000000000000000000000000000000000000000000000000000000000000000000000000000000000000000000000000000000000000000000000000000000000000000000000000000000000
310
00000000000000000000000000000000000000000000000000000000000000000000000000000000000000000000000000000000000000000000000000000000000000000000000000000000000000000000000000000000000000000000000000000000000000000000000000000000000000000000000000000000000000
310
00000000000000000000000000000000000000000000000000000000000000000000000000000000000000000000000000000000000000000000000000000000000000000000000000000000000000000000000000000000000000000000000000000000000000000000000000000000000000000000000000000000000000
310
00000000000000000000000000000000000000000000000000000000000000000000000000000000000000000000000000000000000000000000000000000000000000000000000000000000000000000000000000000000000000000000000000000000000000000000000000000000000000000000000000000000000000
310
00000000000000000000000000000000000000000000000000000000000000000000000000000000000000000000000000000000000000000000000000000000000000000000000000000000000000000000000000000000000000000000000000000000000000000000000000000000000000000000000000000000000000
310
00000000000000000000000000000000000000000000000000000000000000000000000000000000000000000000000000000000000000000000000000000000000000000000000000000000000000000000000000000000000000000000000000000000000000000000000000000000000000000000000000000000000000
310
00000000000000000000000000000000000000000000000000000000000000000000000000000000000000000000000000000000000000000000000000000000000000000000000000000000000000000000000000000000000000000000000000000000000000000000000000000000000000000000000000000000000000
310
00000000000000000000000000000000000000000000000000000000000000000000000000000000000000000000000000000000000000000000000000000000000000000000000000000000000000000000000000000000000000000000000000000000000000000000000000000000000000000000000000000000000000
310
00000000000000000000000000000000000000000000000000000000000000000000000000000000000000000000000000000000000000000000000000000000000000000000000000000000000000000000000000000000000000000000000000000000000000000000000000000000000000000000000000000000000000
310
00000000000000000000000000000000000000000000000000000000000000000000000000000000000000000000000000000000000000000000000000000000000000000000000000000000000000000000000000000000000000000000000000000000000000000000000000000000000000000000000000000000000000
310
00000000000000000000000000000000000000000000000000000000000000000000000000000000000000000000000000000000000000000000000000000000000000000000000000000000000000000000000000000000000000000000000000000000000000000000000000000000000000000000000000000000000000
310
00000000000000000000000000000000000000000000000000000000000000000000000000000000000000000000000000000000000000000000000000000000000000000000000000000000000000000000000000000000000000000000000000000000000000000000000000000000000000000000000000000000000000
310
00000000000000000000000000000000000000000000000000000000000000000000000000000000000000000000000000000000000000000000000000000000000000000000000000000000000000000000000000000000000000000000000000000000000000000000000000000000000000000000000000000000000000
310
00000000000000000000000000000000000000000000000000000000000000000000000000000000000000000000000000000000000000000000000000000000000000000000000000000000000000000000000000000000000000000000000000000000000000000000000000000000000000000000000000000000000000
310
00000000000000000000000000000000000000000000000000000000000000000000000000000000000000000000000000000000000000000000000000000000000000000000000000000000000000000000000000000000000000000000000000000000000000000000000000000000000000000000000000000000000000
310
00000000000000000000000000000000000000000000000000000000000000000000000000000000000000000000000000000000000000000000000000000000000000000000000000000000000000000000000000000000000000000000000000000000000000000000000000000000000000000000000000000000000000
310
00000000000000000000000000000000000707070707070700000000000000000000000000000000000000000000000000000000000000000000000000000000000000000000000000000000000000000000000000000000000000000000000000000000000000000000000000000000000000000000000000000000000000
310
00000000000000000000000000000000000000000000000000000000000000000000000000000000000000000000000000000000000000000000000000000000000000000000070707070707070000000000000000000000000000000000000000000000000000000000000000000000000000000000000000000000000000
310
00000000000000000000000000000000000000000000000000000000000000000000000000000000000000000000000000000000000000000000000000000000000000000000000000000000000000000000000000000000000000000000000000000000000000000000000000000000000000000000000000000007070707
310
07070700000000000000000000000000000000000000000000000000000000000000000000000000000000000000000000000000000000000000000000000000000000000000000000000000000000000000000000000000000000000000000000000000000000000000000000000000000000000000000000000000000000
310
00000000000000000000000000000000000000000000000000000000000000000000000000000000070707070707070707070707070707070707070707000000000000000000000000000000000000000000000000000000000000000000000000000000000000000000000000000000000000000000000000000000000000
310
00000000000000000000000000000000000000000000000000000000000000000000000000000000000000000000000000000000000000000000000000000000000000000000000000000000000000000000000000000000000000000007000000070707000007000005000007000000070707000000000000000000000000
310
00000000000000000000000000000000000000000000000000000000000000000000000000000000000000000000000000000000000000000000000000000000000000000000000000000000000000000000000000000000000000000000000000000000000000000000000000000000000000000000000000000000000000
310
00000000000000000000000000000000000000070000000707000000070000050000070000000007000000000000000000000000000000000000000000000000000000000000000000000000000000000000000000000000000000000000000000000000000000000000000000000000000000000000000000000000000000
310
00000000000000000000000000000000000000000000000000000000000000000000000000000000000000000000000000000000000000000000000000000000000000000000000007000000070000000505050507050505050500000007000000000000000000000000000000000000000000000000000000000000000000
310
00000000000000000000000000000000000000000000000000000000000000000000000000000000000000000000000000000000000000000000000000000000000000000000000000000000000000000000000000000000000000000000000000000000000000000000000000000000000000000000000000000000000700
310
00000700070000050300070700050400000000070000000000000000000000000000000000000000000000000000000000000000000000000000000000000000000000000000000000000000000000000000000000000000000000000000000000000000000000000000000000000000000000000000000000000000000000
310
00000000000000000000000000000000000000000000000000000000000000000000000000000000000000000000000000070007000000070707070005070705070705000000000007000000000000000000000000000000000000000000000000000000000000000000000000000000000000000000000000000000000000
310
00000000000000000000000000000000000000000000000000000000000000000000000000000000000000000000000000000000000000000000000000000000000000000000000000000000000000000000000000000000000000000000000000000000000007070700000007070707000007000500000700000000000700
310
00000000000000000000000000000000000000000000000000000000000000000000000000000000000000000000000000000000000000000000000000000000000000000000000000000000000000000000000000000000000000000000000000000000000000000000000000000000000000000000000000000000000000
310
00000000000000000000000000000000000000000000000000000000070707000005050505050505050505050505050505050505000000000000000000000000000000000000000000000000000000000000000000000000000000000000000000000000000000000000000000000000000000000000000000000000000000
310
00000000000000000000000000000000000000000000000000000000000000000000000000000000000000000000000000000000000000000000000000000000000000000000000000000000000000000007070700000007000000000007000500000700000000000700000000000000000000000000000000000000000000
310
00000000000000000000000000000000000000000000000000000000000000000000000000000000000000000000000000000000000000000000000000000000000000000000000000000000000000000000000000000000000000000000000000000000000000000000000000000000000000000000000000000000000000
310
00000000000000000007000000070007000000070705070707000000000007000000000000000000000000000000000000000000000000000000000000000000000000000000000000000000000000000000000000000000000000000000000000000000000000000000000000000000000000000000000000000000000000
310
00000000000000000000000000000000000000000000000000000000000000000000000000000000000000000000000000000000000000000000000000000700000007070707000507070505070500000000000700000000000000000000000000000000000000000000000000000000000000000000000000000000000000
310
00000000000000000000000000000000000000000000000000000000000000000000000000000000000000000000000000000000000000000000000000000000000000000000000000000000000000000000000000000000000000000000000000000000000000000000000000000000000000070000000707000700000707
310
05070707000000000007000000000000000000000000000000000000000000000000000000000000000000000000000000000000000000000000000000000000000000000000000000000000000000000000000000000000000000000000000000000000000000000000000000000000000000000000000000000000000000
310
00000000000000000000000000000000000000000000000000000000000000000000000000000000000700000007070707000000070500070000000007070700000000000000000000000000000000000000000000000000000000000000000000000000000000000000000000000000000000000000000000000000000000
310
00000000000000000000000000000000000000000000000000000000000000000000000000000000000000000000000000000000000000000000000000000000000000000000000000000000000000000000000000000000000000000000070000000707070707070707050707070707070707070000000000000000000000
310
00000000000000000000000000000000000000000000000000000000000000000000000000000000000000000000000000000000000000000000000000000000000000000000000000000000000000000000000000000000000000000000000000000000000000000000000000000000000000000000000000000000000000
310
00000000000000000000000000000000000000000707070707070707070000070500070000000000000700000000000000000000000000000000000000000000000000000000000000000000000000000000000000000000000000000000000000000000000000000000000000000000000000000000000000000000000000
310
00000000000000000000000000000000000000000000000000000000000000000000000000000000000000000000000000000000000000000000000000000000000000000000000000000000000700000000000007070707000000000000070000000000000000000000000000000000000000000000000000000000000000
310
00000000000000000000000000000000000000000000000000000000000000000000000000000000000000000000000000000000000000000000000000000000000000000000000000000000000000000000000000000000000000000000000000000000000000000000000000000000000000000000000000000000000000
310
00000007000000000000070707070000000000000700000000000000000000000000000000000000000000000000000000000000000000000000000000000000000000000000000000000000000000000000000000000000000000000000000000000000000000000000000000000000000000000000000000000000000000
310
00000000000000000000000000000000000000000000000000000000000000000000000000000000000000000000000000000000000000000700000000000007070707000000000000070000000000000000000000000000000000000000000000000000000000000000000000000000000000000000000000000000000000
310
00000000000000000000000000000000000000000000000000000000000000000000000000000000000000000000000000000000000000000000000000000000000000000000000000000000000000000000000000000000000000000000000000000000000000000000000000070707070707070707070707070707070707
310
00000000000000000000000000000000000000000000000000000000000000000000000000000000000000000000000000000000000000000000000000000000000000000000000000000000000000000000000000000000000000000000000000000000000000000000000000000000000000000000000000000000000000
310
00000000000000000000000000000000000000000000000000000000000000000000000700000000000007070707000000000000070000000000000000000000000000000000000000000000000000000000000000000000000000000000000000000000000000000000000000000000000000000000000000000000000000
310
00000000000000000000000000000000000000000000000000000000000000000000000000000000000000000000000000000000000000000000000000000000000000000000000000000000000000000000000000000000000000000000000707070700000000000000000000000000000000000000000000000000000000
310
00000000000000000000000000000000000000000000000000000000000000000000000000000000000000000000000000000000000000000000000000000000000000000000000000000000000000000000000000000000000000000000000000000000000000000000000000000000000000000000000000000000000000
310
00000000000000000000000000000000000000000000000000000000000000000000000000000000000000000000000000000000000000000000000000000000000000000000000000000000000000000000000000000000000000000000000000000000000000000000000000000000000000000000000000000000000000
310
00000000000000000000000000000000000000000000000000000000000000000000000000000000000000000000000000000000000000000000000000000000000000000000000000000000000000000000000000000000000000000000000000000000000000000000000000000000000000000000000000000000000000
310
00000000000000000000000000000000000000000000000000000000000000000000000000000000000000000000000000000000000000000000000000000000000000000000000000000000000000000000000000000000000000000000000000000000000000000000000000000000000000000000000000000000000000
310
000000000000000000000000000000000000000000000000000000000000000000000000000000000000000000000000000000000000000000000000000000000000000000000000000000000000000000000000000000000000000000000000000000000000000000000000
  0
ENDSEC
  0
EOF
